osu file format v14

[General]
AudioFilename: audio.mp3
AudioLeadIn: 0
PreviewTime: 36599
Countdown: 0
SampleSet: Soft
StackLeniency: 0.7
Mode: 0
LetterboxInBreaks: 0
WidescreenStoryboard: 1

[Editor]
Bookmarks: 8608,18322,36608,45751,54894,64036,73179,91465,109751,118894,128036,137179,146322,164608,182894,198894,201179,219465,237751,246894,256036
DistanceSpacing: 1
BeatDivisor: 4
GridSize: 32
TimelineZoom: 2.2

[Metadata]
Title:Sugiyuku Hi to Kimi e (feat. nayuta)
TitleUnicode:過ぎゆく日と君へ (feat. nayuta)
Artist:Aiobahn
ArtistUnicode:Aiobahn
Creator:toseethefuture
Version:Feelings
Source:
Tags:house hanabira bunko future electro progressive electronic
BeatmapID:2158968
BeatmapSetID:1032553

[Difficulty]
HPDrainRate:6
CircleSize:4.2
OverallDifficulty:8
ApproachRate:9
SliderMultiplier:2.1
SliderTickRate:1

[Events]
//Background and Video events
0,0,"65047754_p0.jpg",0,0
//Break Periods
//Storyboard Layer 0 (Background)
//Storyboard Layer 1 (Fail)
//Storyboard Layer 2 (Pass)
//Storyboard Layer 3 (Foreground)
//Storyboard Layer 4 (Overlay)
//Storyboard Sound Samples

[TimingPoints]
28,571.428571428571,4,2,22,54,1,0
28,-156.25,4,2,22,54,0,0
8027,-96.1538461538461,4,2,22,54,0,0
8313,-96.1538461538461,4,2,22,68,0,0
8599,-96.1538461538461,4,2,11,72,0,0
8885,-96.1538461538461,4,2,22,64,0,0
9170,-96.1538461538461,4,2,22,64,0,0
16313,-96.1538461538461,4,2,22,66,0,0
16456,-96.1538461538461,4,2,22,68,0,0
16599,-96.1538461538461,4,2,22,70,0,0
16742,-96.1538461538461,4,2,22,72,0,0
16885,-96.1538461538461,4,2,22,74,0,0
17027,-96.1538461538461,4,2,22,76,0,0
17170,-74.6268656716418,4,2,22,78,0,0
17742,-49.0196078431373,4,2,11,84,0,0
18027,-49.0196078431373,4,2,22,84,0,0
18313,-60.9756097560976,4,2,11,80,0,1
18599,-60.9756097560976,4,2,22,80,0,1
19456,-60.9756097560976,4,2,11,80,0,1
19742,-60.9756097560976,4,2,22,80,0,1
20599,-60.9756097560976,4,2,11,80,0,1
20742,-60.9756097560976,4,2,22,80,0,1
21742,-60.9756097560976,4,2,11,80,0,1
22027,-60.9756097560976,4,2,22,80,0,1
22885,-60.9756097560976,4,2,11,80,0,1
23170,-60.9756097560976,4,2,22,80,0,1
24027,-60.9756097560976,4,2,11,80,0,1
24313,-60.9756097560976,4,2,22,80,0,1
25170,-60.9756097560976,4,2,11,80,0,1
25313,-60.9756097560976,4,2,22,80,0,1
26313,-60.9756097560976,4,2,11,80,0,1
26527,-60.9756097560976,4,2,22,80,0,1
26885,-60.9756097560976,4,2,11,80,0,1
27170,-60.9756097560976,4,2,22,80,0,1
28599,-60.9756097560976,4,2,11,80,0,1
28885,-60.9756097560976,4,2,22,80,0,1
29742,-60.9756097560976,4,2,11,80,0,1
29885,-60.9756097560976,4,2,22,80,0,1
30885,-60.9756097560976,4,2,11,80,0,1
31170,-60.9756097560976,4,2,22,80,0,1
32027,-60.9756097560976,4,2,11,80,0,1
32313,-60.9756097560976,4,2,22,80,0,1
33170,-60.9756097560976,4,2,11,80,0,1
33456,-60.9756097560976,4,2,22,80,0,1
34313,-60.9756097560976,4,2,11,80,0,1
34599,-60.9756097560976,4,2,22,82,0,1
34885,-60.9756097560976,4,2,22,84,0,1
35170,-60.9756097560976,4,2,22,80,0,1
35456,-60.9756097560976,4,2,22,82,0,1
35742,-60.9756097560976,4,2,22,84,0,1
36027,-60.9756097560976,4,2,22,86,0,1
36313,-60.9756097560976,4,2,22,82,0,1
36599,-96.1538461538461,4,2,22,76,0,0
36742,-96.1538461538461,4,2,22,64,0,0
36885,-96.1538461538461,4,2,22,54,0,0
54885,-87.719298245614,4,2,22,62,0,0
71170,-87.719298245614,4,2,22,64,0,0
71313,-87.719298245614,4,2,22,66,0,0
71456,-87.719298245614,4,2,22,68,0,0
71599,-87.719298245614,4,2,22,70,0,0
71742,-87.719298245614,4,2,22,72,0,0
71885,-87.719298245614,4,2,22,74,0,0
72027,-74.6268656716418,4,2,22,76,0,0
72599,-49.0196078431373,4,2,11,84,0,0
72885,-49.0196078431373,4,2,22,84,0,0
73170,-80.6451612903226,4,2,11,80,0,0
73456,-80.6451612903226,4,2,22,78,0,0
73742,-80.6451612903226,4,2,22,74,0,0
74313,-80.6451612903226,4,2,22,72,0,0
81742,-80.6451612903226,4,2,11,72,0,0
82027,-80.6451612903226,4,2,22,72,0,0
89599,-80.6451612903226,4,2,22,82,0,0
89742,-80.6451612903226,4,2,22,84,0,0
90027,-80.6451612903226,4,2,22,78,0,0
90313,-74.6268656716418,4,2,22,80,0,0
90885,-49.0196078431373,4,2,11,84,0,0
91170,-49.0196078431373,4,2,22,84,0,0
91456,-60.9756097560976,4,2,11,80,0,1
91742,-60.9756097560976,4,2,22,80,0,1
92599,-60.9756097560976,4,2,11,80,0,1
92885,-60.9756097560976,4,2,22,80,0,1
93742,-60.9756097560976,4,2,11,80,0,1
94027,-60.9756097560976,4,2,22,80,0,1
94885,-60.9756097560976,4,2,11,80,0,1
95170,-60.9756097560976,4,2,22,80,0,1
96027,-60.9756097560976,4,2,11,80,0,1
96313,-60.9756097560976,4,2,22,80,0,1
97170,-60.9756097560976,4,2,11,80,0,1
97456,-60.9756097560976,4,2,22,80,0,1
98313,-60.9756097560976,4,2,11,80,0,1
98456,-60.9756097560976,4,2,22,80,0,1
99456,-60.9756097560976,4,2,11,80,0,1
99670,-60.9756097560976,4,2,22,80,0,1
100027,-60.9756097560976,4,2,11,80,0,1
100313,-60.9756097560976,4,2,22,80,0,1
101742,-60.9756097560976,4,2,11,80,0,1
102027,-60.9756097560976,4,2,22,80,0,1
102885,-60.9756097560976,4,2,11,80,0,1
103170,-60.9756097560976,4,2,22,80,0,1
104027,-60.9756097560976,4,2,11,80,0,1
104313,-60.9756097560976,4,2,22,80,0,1
105170,-60.9756097560976,4,2,11,80,0,1
105456,-60.9756097560976,4,2,22,80,0,1
106313,-60.9756097560976,4,2,11,80,0,1
106599,-60.9756097560976,4,2,22,80,0,1
107456,-60.9756097560976,4,2,11,80,0,1
107742,-60.9756097560976,4,2,22,82,0,1
108027,-60.9756097560976,4,2,22,84,0,1
108313,-60.9756097560976,4,2,22,80,0,1
108599,-60.9756097560976,4,2,22,82,0,1
108885,-60.9756097560976,4,2,22,84,0,1
109170,-60.9756097560976,4,2,22,86,0,1
109456,-60.9756097560976,4,2,22,82,0,1
109742,-96.1538461538461,4,2,22,76,0,1
109885,-96.1538461538461,4,2,22,64,0,0
110027,-96.1538461538461,4,2,22,54,0,0
116670,-96.1538461538461,4,2,22,50,0,0
116813,-96.1538461538461,4,2,22,48,0,0
117456,-96.1538461538461,4,2,22,56,0,0
117742,-96.1538461538461,4,2,22,54,0,0
118027,-96.1538461538461,4,2,22,64,0,0
118313,-96.1538461538461,4,2,22,54,0,0
118599,-96.1538461538461,4,2,22,64,0,0
118885,-96.1538461538461,4,2,22,54,0,0
128027,-87.719298245614,4,2,22,62,0,0
144313,-87.719298245614,4,2,22,64,0,0
144456,-87.719298245614,4,2,22,66,0,0
144599,-87.719298245614,4,2,22,68,0,0
144742,-87.719298245614,4,2,22,70,0,0
144885,-87.719298245614,4,2,22,72,0,0
145027,-87.719298245614,4,2,22,74,0,0
145170,-74.6268656716418,4,2,22,76,0,0
145742,-49.0196078431373,4,2,11,84,0,0
146027,-49.0196078431373,4,2,22,84,0,0
146313,-80.6451612903226,4,2,11,80,0,0
146599,-80.6451612903226,4,2,22,78,0,0
146885,-80.6451612903226,4,2,22,74,0,0
147456,-80.6451612903226,4,2,22,72,0,0
154885,-80.6451612903226,4,2,11,72,0,0
155170,-80.6451612903226,4,2,22,72,0,0
162742,-80.6451612903226,4,2,22,82,0,0
162885,-80.6451612903226,4,2,22,84,0,0
163170,-80.6451612903226,4,2,22,78,0,0
163456,-74.6268656716418,4,2,22,80,0,0
164027,-49.0196078431373,4,2,11,84,0,0
164313,-49.0196078431373,4,2,22,84,0,0
164599,-60.9756097560976,4,2,11,80,0,1
164885,-60.9756097560976,4,2,22,80,0,1
165742,-60.9756097560976,4,2,11,80,0,1
166027,-60.9756097560976,4,2,22,80,0,1
166885,-60.9756097560976,4,2,11,80,0,1
167170,-60.9756097560976,4,2,22,80,0,1
168027,-60.9756097560976,4,2,11,80,0,1
168313,-60.9756097560976,4,2,22,80,0,1
169170,-60.9756097560976,4,2,11,80,0,1
169456,-60.9756097560976,4,2,22,80,0,1
170313,-60.9756097560976,4,2,11,80,0,1
170599,-60.9756097560976,4,2,22,80,0,1
171456,-60.9756097560976,4,2,11,80,0,1
171599,-60.9756097560976,4,2,22,80,0,1
172599,-60.9756097560976,4,2,11,80,0,1
172813,-60.9756097560976,4,2,22,80,0,1
173170,-60.9756097560976,4,2,11,80,0,1
173456,-60.9756097560976,4,2,22,80,0,1
174885,-60.9756097560976,4,2,11,80,0,1
175170,-60.9756097560976,4,2,22,80,0,1
176027,-60.9756097560976,4,2,11,80,0,1
176313,-60.9756097560976,4,2,22,80,0,1
177170,-60.9756097560976,4,2,11,80,0,1
177456,-60.9756097560976,4,2,22,80,0,1
178313,-60.9756097560976,4,2,11,80,0,1
178599,-60.9756097560976,4,2,22,80,0,1
179456,-60.9756097560976,4,2,11,80,0,1
179742,-60.9756097560976,4,2,22,80,0,1
180599,-60.9756097560976,4,2,11,80,0,1
180885,-60.9756097560976,4,2,22,82,0,1
181170,-60.9756097560976,4,2,22,84,0,1
181456,-60.9756097560976,4,2,22,80,0,1
181742,-60.9756097560976,4,2,22,82,0,1
182027,-60.9756097560976,4,2,22,84,0,1
182313,-60.9756097560976,4,2,22,82,0,1
182599,-60.9756097560976,4,2,22,76,0,1
182885,-96.1538461538461,4,2,22,64,0,0
183170,-96.1538461538461,4,2,22,60,0,0
183456,-96.1538461538461,4,2,22,52,0,0
198885,-96.1538461538461,4,2,11,72,0,0
200027,-80.6451612903226,4,2,22,64,0,0
200099,-80.6451612903226,4,2,22,54,0,0
200599,-49.0196078431373,4,2,11,84,0,0
201027,-49.0196078431373,4,2,22,84,0,0
201170,-80.6451612903226,4,2,11,84,0,0
201456,-80.6451612903226,4,2,22,82,0,0
201742,-80.6451612903226,4,2,22,80,0,0
202316,-80.6451612903226,4,2,22,74,0,0
209742,-80.6451612903226,4,2,11,74,0,0
210027,-80.6451612903226,4,2,22,74,0,0
217599,-80.6451612903226,4,2,22,82,0,0
217742,-80.6451612903226,4,2,22,84,0,0
218027,-80.6451612903226,4,2,22,78,0,0
218313,-74.6268656716418,4,2,22,80,0,0
218885,-49.0196078431373,4,2,11,84,0,0
219313,-49.0196078431373,4,2,22,84,0,0
219456,-60.9756097560976,4,2,11,82,0,1
219742,-60.9756097560976,4,2,22,82,0,1
220599,-60.9756097560976,4,2,11,82,0,1
220885,-60.9756097560976,4,2,22,82,0,1
221742,-60.9756097560976,4,2,11,82,0,1
222027,-60.9756097560976,4,2,22,82,0,1
222885,-60.9756097560976,4,2,11,82,0,1
223027,-60.9756097560976,4,2,22,82,0,1
224027,-60.9756097560976,4,2,11,82,0,1
224313,-60.9756097560976,4,2,22,82,0,1
225170,-60.9756097560976,4,2,11,82,0,1
225456,-60.9756097560976,4,2,22,82,0,1
226313,-60.9756097560976,4,2,11,82,0,1
226599,-60.9756097560976,4,2,22,82,0,1
227456,-60.9756097560976,4,2,11,82,0,1
227742,-60.9756097560976,4,2,22,82,0,1
228027,-60.9756097560976,4,2,11,82,0,1
228313,-60.9756097560976,4,2,22,82,0,1
229742,-60.9756097560976,4,2,11,82,0,1
230027,-60.9756097560976,4,2,22,82,0,1
230885,-60.9756097560976,4,2,11,82,0,1
231170,-60.9756097560976,4,2,22,82,0,1
232027,-60.9756097560976,4,2,11,82,0,1
232313,-60.9756097560976,4,2,22,82,0,1
233170,-60.9756097560976,4,2,11,82,0,1
233456,-60.9756097560976,4,2,22,82,0,1
234313,-60.9756097560976,4,2,11,82,0,1
234599,-60.9756097560976,4,2,22,82,0,1
235456,-60.9756097560976,4,2,11,82,0,1
235742,-60.9756097560976,4,2,22,86,0,1
236027,-60.9756097560976,4,2,22,88,0,1
236313,-60.9756097560976,4,2,22,84,0,1
236599,-60.9756097560976,4,2,22,82,0,1
236742,-60.9756097560976,4,2,22,86,0,1
237170,-60.9756097560976,4,2,22,88,0,1
237456,-60.9756097560976,4,2,22,84,0,1
237742,-96.1538461538461,4,2,22,74,0,0
238027,-96.1538461538461,4,2,22,62,0,0
238313,-96.1538461538461,4,2,22,54,0,0
254885,-60.9756097560976,4,2,22,76,0,0
255456,-49.0196078431373,4,2,11,84,0,0

[Colours]
Combo1 : 253,236,217
Combo2 : 198,217,255
Combo3 : 128,128,192

[HitObjects]
95,184,28,6,0,P|120:127|121:105,2,67.2,2|0|8,0:0|0:0|0:0,0:0:0:0:
30,243,885,1,0,0:0:0:0:
131,273,1170,6,0,P|134:231|142:198,2,67.2,2|0|8,0:0|0:0|0:0,0:0:0:0:
153,357,2027,1,0,0:0:0:0:
263,328,2313,6,0,P|298:316|352:324,2,67.2,2|0|8,0:0|0:0|0:0,0:0:0:0:
191,378,3170,1,0,0:0:0:0:
153,306,3456,5,2,0:0:0:0:
209,253,3742,1,0,0:0:0:0:
285,247,4027,1,8,0:0:0:0:
298,270,4313,1,0,0:0:0:0:
298,270,4456,1,0,0:0:0:0:
298,270,4599,6,0,P|339:277|389:276,1,67.2,2|0,0:0|0:0,0:0:0:0:
457,315,5170,1,8,0:0:0:0:
433,323,5456,1,0,0:0:0:0:
349,357,5742,6,0,P|340:302|338:268,1,67.2,2|0,0:0|0:0,0:0:0:0:
265,270,6313,1,8,0:0:0:0:
272,244,6599,1,0,0:0:0:0:
168,296,6885,6,0,P|165:252|151:209,1,67.2,2|0,0:0|0:0,0:0:0:0:
80,184,7456,1,8,0:0:0:0:
87,157,7742,1,0,0:0:0:0:
172,23,8027,6,0,P|152:41|145:61,3,27.299999833374,2|0|0|0,0:0|0:0|0:0|0:0,0:0:0:0:
211,41,8313,1,8,0:0:0:0:
228,48,8385,1,8,0:0:0:0:
246,49,8456,1,8,0:0:0:0:
264,45,8527,1,8,0:0:0:0:
309,41,8599,2,0,P|363:33|434:56,1,109.199999333496,2|0,0:1|0:0,0:0:0:0:
512,43,9027,1,0,0:0:0:0:
512,43,9170,6,0,P|513:82|483:150,1,109.199999333496,4|0,0:0|0:0,0:0:0:0:
420,192,9599,1,0,0:0:0:0:
468,283,9742,2,0,P|451:215|451:158,1,109.199999333496,8|0,0:0|0:0,0:0:0:0:
466,98,10170,1,0,0:0:0:0:
411,165,10313,6,0,P|351:174|267:176,1,109.199999333496,2|0,0:0|0:0,0:0:0:0:
198,202,10742,1,0,0:0:0:0:
198,202,10885,2,0,P|135:186|73:182,1,109.199999333496,8|0,0:0|0:0,0:0:0:0:
0,261,11313,1,0,0:0:0:0:
0,261,11456,6,0,P|25:264|56:255,1,54.599999666748,2|0,0:0|0:0,0:0:0:0:
121,341,11742,2,0,P|136:320|143:289,1,54.599999666748
276,306,12027,2,0,P|266:282|242:260,1,54.599999666748,8|0,0:0|0:0,0:0:0:0:
341,187,12313,1,0,0:0:0:0:
345,212,12456,1,0,0:0:0:0:
377,308,12599,6,0,P|382:241|383:188,1,109.199999333496,2|0,0:0|0:0,0:0:0:0:
449,107,13027,1,0,0:0:0:0:
449,107,13170,2,0,P|421:117|378:114,1,54.599999666748,10|0,0:0|0:0,0:0:0:0:
255,126,13456,1,0,0:0:0:0:
283,138,13599,1,0,0:0:0:0:
326,63,13742,6,0,P|325:43|318:10,1,54.599999666748,2|0,0:0|0:0,0:0:0:0:
217,51,14027,2,0,P|202:37|173:19,1,54.599999666748
141,110,14313,2,0,P|120:111|88:118,1,54.599999666748,8|0,0:0|0:0,0:0:0:0:
127,203,14599,2,0,P|113:217|95:246,1,54.599999666748
155,360,14885,6,0,L|162:286,1,54.599999666748,2|0,0:0|0:0,0:0:0:0:
228,181,15170,2,0,L|221:255,1,54.599999666748
290,362,15456,2,0,L|309:290,1,54.599999666748,8|0,0:0|0:0,0:0:0:0:
392,198,15742,2,0,L|372:269,1,54.599999666748
469,329,16027,5,2,0:0:0:0:
489,299,16170,1,8,0:0:0:0:
496,259,16313,1,8,0:0:0:0:
488,212,16456,1,8,0:0:0:0:
460,163,16599,1,8,0:0:0:0:
386,140,16742,1,8,0:0:0:0:
319,170,16885,1,8,0:0:0:0:
283,246,17027,1,8,0:0:0:0:
305,332,17170,6,0,P|310:290|296:229,1,70.3499966722871,2|8,0:0|0:0,0:0:0:0:
319,66,17456,1,8,0:0:0:0:
273,123,17599,1,8,0:0:0:0:
372,119,17742,6,0,B|306:89|272:141|271:146|272:151|225:190|155:148,1,214.200001307373,4|8,0:0|0:0,0:0:0:0:
63,144,18170,1,8,0:0:0:0:
164,53,18313,6,0,P|113:116|110:225,1,172.200002627564,2|8,0:0|0:0,0:0:0:0:
141,310,18742,1,0,0:0:0:0:
141,310,18885,2,0,P|91:312|45:289,1,86.1000013137818,8|0,0:1|0:0,0:0:0:0:
227,257,19170,2,0,P|277:255|323:278,1,86.1000013137818,8|0,0:0|0:0,0:0:0:0:
387,384,19456,6,0,P|384:305|401:209,1,172.200002627564,2|8,0:1|0:0,0:0:0:0:
315,142,19885,1,0,0:0:0:0:
315,142,20027,2,0,P|300:178|292:234,1,86.1000013137818,8|0,0:1|0:0,0:0:0:0:
424,118,20313,2,0,P|417:75|401:35,1,86.1000013137818,8|0,0:0|0:0,0:0:0:0:
290,63,20599,6,0,P|248:82|208:88,1,86.1000013137818,2|0,0:1|0:0,0:0:0:0:
48,40,20885,2,0,P|90:21|130:15,1,86.1000013137818,8|0,0:0|0:0,0:0:0:0:
147,133,21170,1,8,0:1:0:0:
75,124,21313,1,0,0:0:0:0:
28,179,21456,2,0,P|26:216|34:270,1,86.1000013137818,8|0,0:0|0:0,0:0:0:0:
172,375,21742,6,0,P|154:301|92:210,1,172.200002627564,2|8,0:1|0:0,0:0:0:0:
163,265,22170,1,0,0:0:0:0:
163,265,22313,2,0,P|203:247|250:245,1,86.1000013137818,8|0,0:1|0:0,0:0:0:0:
305,304,22599,1,8,0:0:0:0:
264,365,22742,1,0,0:0:0:0:
362,351,22885,6,0,P|347:285|393:153,1,172.200002627564,2|8,0:1|0:0,0:0:0:0:
414,97,23313,1,0,0:0:0:0:
414,97,23456,2,0,P|457:108|513:102,1,86.1000013137818,8|0,0:1|0:0,0:0:0:0:
300,152,23742,2,0,P|257:141|201:147,1,86.1000013137818,8|0,0:0|0:0,0:0:0:0:
85,45,24027,6,0,P|99:117|109:222,1,172.200002627564,2|8,0:1|0:0,0:0:0:0:
190,290,24456,1,0,0:0:0:0:
190,290,24599,2,0,P|204:240|209:191,1,86.1000013137818,8|0,0:1|0:0,0:0:0:0:
25,252,24885,2,0,P|31:294|43:335,1,86.1000013137818,8|0,0:0|0:0,0:0:0:0:
250,350,25170,6,0,P|211:337|157:331,1,86.1000013137818,2|0,0:1|0:0,0:0:0:0:
286,253,25456,2,0,P|325:240|379:234,1,86.1000013137818,8|0,0:0|0:0,0:0:0:0:
508,329,25742,2,0,P|499:289|489:221,1,86.1000013137818,8|0,0:1|0:0,0:0:0:0:
438,124,26027,1,8,0:0:0:0:
388,178,26170,1,0,0:0:0:0:
425,50,26313,6,0,P|362:54|310:102,1,129.150001970673,2|0,0:1|0:0,0:0:0:0:
313,116,26599,1,8,0:0:0:0:
306,132,26670,1,8,0:0:0:0:
297,147,26742,1,8,0:0:0:0:
287,155,26813,1,8,0:0:0:0:
274,161,26885,2,0,B|169:115|187:208|77:143,1,172.200002627564,2|8,0:1|0:0,0:0:0:0:
41,125,27313,1,0,0:0:0:0:
76,41,27456,6,0,P|80:128|94:224,1,172.200002627564,4|8,0:0|0:0,0:0:0:0:
62,338,27885,1,0,0:0:0:0:
62,338,28027,2,0,P|44:291|6:236,1,86.1000013137818,8|0,0:1|0:0,0:0:0:0:
196,203,28313,2,0,P|174:240|159:280,1,86.1000013137818,8|0,0:0|0:0,0:0:0:0:
221,378,28599,6,0,P|274:321|378:318,1,172.200002627564,2|8,0:1|0:0,0:0:0:0:
451,371,29027,1,0,0:0:0:0:
451,371,29170,2,0,P|446:327|443:278,1,86.1000013137818,8|0,0:1|0:0,0:0:0:0:
326,207,29456,2,0,P|331:251|334:300,1,86.1000013137818,8|0,0:0|0:0,0:0:0:0:
456,203,29742,6,0,P|481:165|499:118,1,86.1000013137818,2|0,0:1|0:0,0:0:0:0:
351,99,30027,2,0,P|308:93|268:109,1,86.1000013137818,8|0,0:0|0:0,0:0:0:0:
112,120,30313,1,8,0:1:0:0:
180,108,30456,1,0,0:0:0:0:
220,164,30599,2,0,P|228:212|232:267,1,86.1000013137818,8|0,0:0|0:0,0:0:0:0:
244,344,30885,6,0,P|195:278|91:267,1,172.200002627564,2|8,0:1|0:0,0:0:0:0:
24,320,31313,1,0,0:0:0:0:
24,320,31456,2,0,P|24:271|38:227,1,86.1000013137818,8|0,0:1|0:0,0:0:0:0:
217,239,31742,1,8,0:0:0:0:
155,286,31885,1,0,0:0:0:0:
264,299,32027,6,0,P|336:274|411:206,1,172.200002627564,2|8,0:1|0:0,0:0:0:0:
376,117,32456,1,0,0:0:0:0:
376,117,32599,2,0,P|369:156|373:207,1,86.1000013137818,8|0,0:1|0:0,0:0:0:0:
491,292,32885,2,0,P|494:249|486:206,1,86.1000013137818,8|0,0:0|0:0,0:0:0:0:
472,64,33170,6,0,P|397:85|295:92,1,172.200002627564,2|8,0:1|0:0,0:0:0:0:
235,14,33599,1,0,0:0:0:0:
235,14,33742,2,0,P|281:12|346:24,1,86.1000013137818,8|0,0:1|0:0,0:0:0:0:
239,131,34027,2,0,P|193:133|128:121,1,86.1000013137818,8|0,0:0|0:0,0:0:0:0:
51,51,34313,6,0,P|57:131|34:232,1,172.200002627564,2|8,0:1|0:0,0:0:0:0:
77,285,34742,1,8,0:0:0:0:
146,260,34885,1,8,0:0:0:0:
219,266,35027,1,8,0:0:0:0:
286,302,35170,2,0,P|318:266|340:220,1,86.1000013137818,8|0,0:0|0:0,0:0:0:0:
368,148,35456,6,0,P|364:244|373:361,1,172.200002627564,2|8,0:0|0:0,0:0:0:0:
443,368,35885,1,8,0:0:0:0:
337,320,36027,1,8,0:0:0:0:
450,275,36170,1,8,0:0:0:0:
351,239,36313,1,8,0:0:0:0:
432,188,36456,1,8,0:0:0:0:
370,123,36599,6,0,B|420:241|311:222|378:369,2,218.399998666992,2|8|8,0:0|0:0|0:0,0:0:0:0:
455,99,38027,1,0,0:0:0:0:
455,99,38313,2,0,P|432:54|363:30,1,109.199999333496,8|0,0:0|0:0,0:0:0:0:
286,94,38885,6,0,P|225:117|155:109,1,109.199999333496,2|0,0:0|0:0,0:0:0:0:
100,54,39313,1,0,0:0:0:0:
100,54,39456,2,0,P|86:81|83:127,1,54.599999666748,8|0,0:0|0:0,0:0:0:0:
31,208,39742,2,0,P|25:181|12:157,1,54.599999666748
135,201,40027,2,0,P|144:251|146:324,1,109.199999333496,8|0,0:0|0:0,0:0:0:0:
103,382,40599,1,8,0:0:0:0:
103,382,40885,1,0,0:0:0:0:
309,363,41170,6,0,P|170:354|61:377,2,218.399998666992,2|8|8,0:0|0:0|0:0,0:0:0:0:
405,356,42599,1,0,0:0:0:0:
405,356,42885,2,0,P|397:305|401:246,1,109.199999333496,8|0,0:0|0:0,0:0:0:0:
483,171,43456,6,0,P|429:135|381:119,1,109.199999333496,2|0,0:0|0:0,0:0:0:0:
268,149,43885,1,0,0:0:0:0:
268,149,44027,2,0,P|262:122|260:95,1,54.599999666748,8|0,0:0|0:0,0:0:0:0:
345,3,44313,2,0,P|343:30|337:56,1,54.599999666748
249,176,44599,2,0,P|245:121|222:54,1,109.199999333496,8|0,0:0|0:0,0:0:0:0:
137,61,45170,1,8,0:0:0:0:
137,61,45456,1,0,0:0:0:0:
61,105,45742,6,0,P|58:159|51:246,1,109.199999333496,2|0,0:0|0:0,0:0:0:0:
33,328,46313,1,8,0:0:0:0:
118,306,46599,1,0,0:0:0:0:
190,354,46885,2,0,P|199:295|220:225,1,109.199999333496,8|0,0:0|0:0,0:0:0:0:
302,163,47456,2,0,P|316:215|324:269,1,109.199999333496,8|0,0:0|0:0,0:0:0:0:
172,116,48027,6,0,P|263:131|406:128,2,218.399998666992,2|8|8,0:0|0:0|0:0,0:0:0:0:
228,28,49456,1,0,0:0:0:0:
263,143,49742,1,8,0:0:0:0:
349,24,50027,1,0,0:0:0:0:
344,155,50313,6,0,P|340:222|345:294,1,109.199999333496,2|0,0:0|0:0,0:0:0:0:
325,371,50885,1,8,0:0:0:0:
260,313,51170,1,0,0:0:0:0:
179,369,51456,2,0,P|172:321|150:254,1,109.199999333496,8|0,0:0|0:0,0:0:0:0:
72,191,52027,2,0,P|55:242|46:296,1,109.199999333496,8|0,0:0|0:0,0:0:0:0:
187,263,52599,6,0,P|163:149|170:40,2,218.399998666992,2|8|8,0:0|0:0|0:0,0:0:0:0:
301,261,54027,1,0,0:0:0:0:
153,224,54313,1,8,0:0:0:0:
223,166,54456,1,8,0:0:0:0:
138,139,54599,2,0,P|139:105|147:75,1,54.599999666748,8|0,0:0|0:0,0:0:0:0:
235,22,54885,5,6,0:0:0:0:
237,51,55027,1,0,0:0:0:0:
255,77,55170,1,0,0:0:0:0:
279,93,55313,1,0,0:0:0:0:
279,93,55456,2,0,P|281:122|281:152,1,59.8499992694092,8|0,0:0|0:0,0:0:0:0:
396,94,55742,2,0,P|395:64|398:34,1,59.8499992694092,8|0,0:0|0:0,0:0:0:0:
317,168,56027,5,2,0:0:0:0:
304,200,56170,1,0,0:0:0:0:
303,236,56313,1,0,0:0:0:0:
319,269,56456,1,0,0:0:0:0:
319,269,56599,2,0,P|321:311|313:351,1,59.8499992694092,8|0,0:0|0:0,0:0:0:0:
227,238,56885,2,0,P|219:208|218:179,1,59.8499992694092,8|0,0:0|0:0,0:0:0:0:
266,351,57170,5,2,0:0:0:0:
226,360,57313,1,0,0:0:0:0:
187,357,57456,1,0,0:0:0:0:
153,342,57599,1,0,0:0:0:0:
123,271,57742,1,10,0:0:0:0:
89,244,57885,1,0,0:0:0:0:
48,246,58027,1,0,0:0:0:0:
16,276,58170,1,0,0:0:0:0:
205,276,58313,5,2,0:0:0:0:
201,255,58456,1,0,0:0:0:0:
199,235,58599,1,0,0:0:0:0:
197,219,58742,1,0,0:0:0:0:
197,219,58885,2,0,P|194:189|189:160,1,59.8499992694092,8|0,0:0|0:0,0:0:0:0:
92,82,59170,2,0,P|86:111|83:141,1,59.8499992694092,8|0,0:0|0:0,0:0:0:0:
217,135,59456,5,2,0:0:0:0:
248,119,59599,1,0,0:0:0:0:
267,95,59742,1,0,0:0:0:0:
281,67,59885,1,0,0:0:0:0:
281,67,60027,2,0,P|277:37|270:7,1,59.8499992694092,8|0,0:0|0:0,0:0:0:0:
360,120,60313,2,0,P|352:149|349:178,1,59.8499992694092,8|0,0:0|0:0,0:0:0:0:
447,96,60599,6,0,P|446:66|449:37,1,59.8499992694092,2|0,0:0|0:0,0:0:0:0:
338,136,60885,2,0,P|330:165|327:194,1,59.8499992694092,8|0,0:0|0:0,0:0:0:0:
473,165,61170,2,0,P|472:135|475:106,1,59.8499992694092,8|0,0:0|0:0,0:0:0:0:
345,197,61456,2,0,P|337:226|334:255,1,59.8499992694092,8|0,0:0|0:0,0:0:0:0:
478,211,61742,5,2,0:0:0:0:
472,249,61885,1,0,0:0:0:0:
453,280,62027,1,0,0:0:0:0:
419,301,62170,1,0,0:0:0:0:
340,296,62313,1,2,0:0:0:0:
298,299,62456,1,0,0:0:0:0:
262,316,62599,1,0,0:0:0:0:
241,350,62742,1,0,0:0:0:0:
241,232,62885,6,0,P|234:202|232:172,1,59.8499992694092,2|0,0:0|0:0,0:0:0:0:
371,192,63170,2,0,P|369:162|359:130,1,59.8499992694092,8|0,0:0|0:0,0:0:0:0:
262,196,63456,2,0,P|246:170|220:148,1,59.8499992694092,8|0,0:0|0:0,0:0:0:0:
342,51,63742,2,0,L|332:142,1,59.8499992694092,8|0,0:0|0:0,0:0:0:0:
230,62,64027,6,0,L|214:3,3,59.8499992694092,2|0|8|0,0:0|0:0|0:0|0:0,0:0:0:0:
86,99,64599,2,0,L|98:29,3,59.8499992694092,2|0|8|0,0:0|0:0|0:0|0:0,0:0:0:0:
205,140,65170,6,0,L|203:69,3,59.8499992694092,2|0|8|0,0:0|0:0|0:0|0:0,0:0:0:0:
70,167,65742,2,0,L|62:107,3,59.8499992694092,2|0|8|0,0:0|0:0|0:0|0:0,0:0:0:0:
222,217,66313,5,2,0:0:0:0:
192,232,66456,1,0,0:0:0:0:
171,260,66599,1,0,0:0:0:0:
166,296,66742,1,0,0:0:0:0:
174,333,66885,2,0,P|142:329|89:340,1,59.8499992694092,8|0,0:0|0:0,0:0:0:0:
263,284,67170,2,0,P|292:286|322:282,1,59.8499992694092,8|0,0:0|0:0,0:0:0:0:
410,346,67456,6,0,L|419:287,3,59.8499992694092,2|0|8|0,0:0|0:0|0:0|0:0,0:0:0:0:
467,293,68027,1,8,0:0:0:0:
445,220,68170,1,8,0:0:0:0:
393,274,68313,2,0,P|396:240|379:203,1,59.8499992694092,8|0,0:0|0:0,0:0:0:0:
324,123,68599,6,0,P|319:165|316:212,1,59.8499992694092,2|0,0:0|0:0,0:0:0:0:
227,186,68885,2,0,P|193:212|158:243,1,59.8499992694092
124,151,69170,2,0,P|81:145|35:142,1,59.8499992694092,8|0,0:0|0:0,0:0:0:0:
105,57,69456,2,0,P|78:23|47:-11,1,59.8499992694092
97,172,69742,6,0,L|106:231,1,59.8499992694092,2|0,0:0|0:0,0:0:0:0:
198,377,70027,2,0,L|207:317,1,59.8499992694092
74,156,70313,2,0,L|96:220,1,59.8499992694092,8|0,0:0|0:0,0:0:0:0:
229,367,70599,2,0,L|228:298,1,59.8499992694092
160,177,70885,5,2,0:0:0:0:
155,128,71027,1,8,0:0:0:0:
177,84,71170,1,8,0:0:0:0:
233,58,71313,1,8,0:0:0:0:
293,75,71456,1,8,0:0:0:0:
330,140,71599,1,8,0:0:0:0:
295,212,71742,1,8,0:0:0:0:
218,232,71885,1,8,0:0:0:0:
140,196,72027,6,0,P|177:185|226:195,1,70.3499966722871,2|8,0:0|0:0,0:0:0:0:
375,206,72313,1,8,0:0:0:0:
305,242,72456,1,8,0:0:0:0:
353,306,72599,6,0,B|305:188|415:226|376:88,1,214.200001307373,4|8,0:0|0:0,0:0:0:0:
344,1,73027,1,8,0:0:0:0:
438,165,73170,6,0,P|424:101|431:37,1,130.199994834595,2|0,0:0|0:0,0:0:0:0:
324,83,73599,1,0,0:0:0:0:
324,83,73742,2,0,P|299:142|257:191,1,130.199994834595,8|0,0:0|0:0,0:0:0:0:
248,286,74170,1,0,0:0:0:0:
248,286,74313,6,0,P|236:222|192:140,1,130.199994834595,2|0,0:0|0:0,0:0:0:0:
122,80,74742,1,0,0:0:0:0:
122,80,74885,2,0,P|110:134|113:172,1,65.0999974172975,8|0,0:0|0:0,0:0:0:0:
15,207,75170,2,0,P|11:174|4:142,1,65.0999974172975,8|0,0:0|0:0,0:0:0:0:
157,150,75456,6,0,P|151:211|163:287,1,130.199994834595,2|0,0:0|0:0,0:0:0:0:
197,359,75885,1,0,0:0:0:0:
197,359,76027,2,0,P|158:366|115:359,1,65.0999974172975,8|0,0:0|0:0,0:0:0:0:
55,283,76313,2,0,P|92:269|135:268,1,65.0999974172975,8|0,0:0|0:0,0:0:0:0:
211,279,76599,6,0,P|231:282|306:248,1,86.7999965563966,2|8,0:0|0:0,0:0:0:0:
306,272,76885,1,8,0:0:0:0:
356,249,77027,1,8,0:0:0:0:
409,257,77170,2,0,P|417:287|422:348,1,65.0999974172975,8|0,0:0|0:0,0:0:0:0:
322,229,77456,2,0,P|326:196|334:165,1,65.0999974172975,8|0,0:0|0:0,0:0:0:0:
437,96,77742,6,0,P|442:160|432:224,1,130.199994834595,2|0,0:0|0:0,0:0:0:0:
300,145,78170,1,0,0:0:0:0:
300,145,78313,2,0,P|294:80|304:16,1,130.199994834595,8|0,0:0|0:0,0:0:0:0:
204,47,78742,1,0,0:0:0:0:
204,47,78885,6,0,P|182:89|105:109,1,130.199994834595,2|0,0:0|0:0,0:0:0:0:
21,64,79313,1,0,0:0:0:0:
21,64,79456,2,0,P|14:102|19:149,1,65.0999974172975,8|0,0:0|0:0,0:0:0:0:
128,198,79742,2,0,P|128:165|121:133,1,65.0999974172975,8|0,0:0|0:0,0:0:0:0:
30,240,80027,6,0,P|50:272|77:294,1,65.0999974172975,2|0,0:0|0:0,0:0:0:0:
257,247,80313,2,0,P|219:248|186:260,1,65.0999974172975,8|0,0:0|0:0,0:0:0:0:
23,313,80599,2,0,P|54:333|88:342,1,65.0999974172975,8|0,0:0|0:0,0:0:0:0:
280,259,80885,2,0,P|246:276|222:301,1,65.0999974172975,8|0,0:0|0:0,0:0:0:0:
344,324,81170,6,0,P|377:273|382:218,1,97.6499961259462,2|8,0:0|0:0,0:0:0:0:
360,220,81456,1,8,0:0:0:0:
352,209,81527,1,8,0:0:0:0:
349,196,81599,1,8,0:0:0:0:
349,179,81670,1,8,0:0:0:0:
350,164,81742,2,0,B|409:138|418:192|486:157,1,130.199994834595,2|0,0:1|0:0,0:0:0:0:
507,245,82170,1,0,0:0:0:0:
507,245,82313,6,0,P|498:168|474:87,1,130.199994834595,4|0,0:0|0:0,0:0:0:0:
501,24,82742,1,0,0:0:0:0:
501,24,82885,2,0,P|429:30|354:56,1,130.199994834595,8|0,0:0|0:0,0:0:0:0:
278,128,83313,1,0,0:0:0:0:
278,128,83456,6,0,P|278:56|258:-10,1,130.199994834595,2|0,0:0|0:0,0:0:0:0:
141,57,83885,1,0,0:0:0:0:
141,57,84027,2,0,P|162:72|207:78,1,65.0999974172975,8|0,0:0|0:0,0:0:0:0:
76,143,84313,2,0,P|43:147|16:164,1,65.0999974172975,8|0,0:0|0:0,0:0:0:0:
116,233,84599,6,0,P|172:244|270:234,1,130.199994834595,2|0,0:0|0:0,0:0:0:0:
327,347,85027,1,0,0:0:0:0:
327,347,85170,2,0,P|285:340|240:354,1,65.0999974172975,8|0,0:0|0:0,0:0:0:0:
113,304,85456,2,0,P|155:299|195:274,1,65.0999974172975,8|0,0:0|0:0,0:0:0:0:
247,231,85742,6,0,P|285:216|346:233,1,86.7999965563966,2|8,0:0|0:0,0:0:0:0:
349,238,86027,1,8,0:0:0:0:
381,204,86170,1,8,0:0:0:0:
386,153,86313,2,0,P|423:160|465:144,1,65.0999974172975,8|0,0:0|0:0,0:0:0:0:
275,145,86599,2,0,P|257:117|230:100,1,65.0999974172975,8|0,0:0|0:0,0:0:0:0:
335,82,86885,6,0,P|386:24|460:28,1,130.199994834595,2|0,0:0|0:0,0:0:0:0:
499,202,87313,1,0,0:0:0:0:
499,202,87456,2,0,P|415:189|350:164,1,130.199994834595,8|0,0:0|0:0,0:0:0:0:
267,109,87885,1,0,0:0:0:0:
267,109,88027,6,0,P|197:113|124:143,1,130.199994834595,2|0,0:0|0:0,0:0:0:0:
149,226,88456,1,0,0:0:0:0:
149,226,88599,2,0,P|149:175|145:146,1,65.0999974172975,8|0,0:0|0:0,0:0:0:0:
43,79,88885,2,0,P|43:130|47:159,1,65.0999974172975,8|0,0:0|0:0,0:0:0:0:
75,268,89170,6,0,P|54:240|1:212,1,65.0999974172975,2|0,0:0|0:0,0:0:0:0:
84,361,89456,2,0,P|51:356|19:360,1,65.0999974172975
162,308,89742,5,2,0:0:0:0:
233,336,89885,1,8,0:0:0:0:
303,314,90027,1,8,0:0:0:0:
335,249,90170,1,8,0:0:0:0:
304,168,90313,6,0,P|275:183|255:227,1,70.3499966722871,2|8,0:0|0:0,0:0:0:0:
183,362,90599,1,8,0:0:0:0:
182,283,90742,1,8,0:0:0:0:
116,324,90885,6,0,B|240:276|197:371|353:331,1,214.200001307373,4|8,0:0|0:0,0:0:0:0:
442,299,91313,1,8,0:0:0:0:
282,259,91456,6,0,P|272:159|272:85,1,172.200002627564,2|8,0:0|0:0,0:0:0:0:
369,26,91885,1,0,0:0:0:0:
369,26,92027,2,0,P|405:41|475:38,1,86.1000013137818,8|0,0:1|0:0,0:0:0:0:
371,146,92313,2,0,P|324:155|263:150,1,86.1000013137818,8|0,0:0|0:0,0:0:0:0:
486,147,92599,6,0,P|472:241|470:331,1,172.200002627564,2|8,0:1|0:0,0:0:0:0:
374,384,93027,1,0,0:0:0:0:
374,384,93170,2,0,P|371:341|348:287,1,86.1000013137818,8|0,0:1|0:0,0:0:0:0:
250,254,93456,1,8,0:0:0:0:
232,326,93599,1,0,0:0:0:0:
165,349,93742,6,0,P|118:306|2:262,1,172.200002627564,2|8,0:1|0:0,0:0:0:0:
145,226,94170,1,0,0:0:0:0:
145,226,94313,2,0,P|144:186|156:134,1,86.1000013137818,8|0,0:1|0:0,0:0:0:0:
52,62,94599,2,0,P|53:102|41:154,1,86.1000013137818,8|0,0:0|0:0,0:0:0:0:
160,57,94885,6,0,P|205:29|325:54,1,172.200002627564,2|0,0:1|0:0,0:0:0:0:
384,141,95313,1,0,0:0:0:0:
384,141,95456,2,0,P|340:151|286:148,1,86.1000013137818,8|0,0:1|0:0,0:0:0:0:
434,75,95742,1,8,0:0:0:0:
464,145,95885,1,0,0:0:0:0:
424,212,96027,6,0,P|391:301|396:389,1,172.200002627564,2|8,0:1|0:0,0:0:0:0:
372,279,96456,1,0,0:0:0:0:
372,279,96599,2,0,P|322:276|269:296,1,86.1000013137818,8|0,0:1|0:0,0:0:0:0:
172,384,96885,2,0,P|222:387|275:367,1,86.1000013137818,8|0,0:0|0:0,0:0:0:0:
192,279,97170,6,0,P|180:208|114:133,1,172.200002627564,2|8,0:1|0:0,0:0:0:0:
0,199,97599,1,0,0:0:0:0:
0,199,97742,2,0,P|33:218|86:221,1,86.1000013137818,8|0,0:1|0:0,0:0:0:0:
239,169,98027,2,0,P|206:150|153:147,1,86.1000013137818,8|0,0:0|0:0,0:0:0:0:
336,244,98313,6,0,P|360:201|363:136,1,86.1000013137818,2|0,0:1|0:0,0:0:0:0:
397,57,98599,1,8,0:0:0:0:
466,85,98742,1,0,0:0:0:0:
499,152,98885,2,0,P|485:111|489:59,1,86.1000013137818,8|0,0:1|0:0,0:0:0:0:
425,244,99170,2,0,P|439:285|435:337,1,86.1000013137818,8|0,0:0|0:0,0:0:0:0:
303,313,99456,6,0,P|232:305|169:328,1,129.150001970673,2|8,0:1|0:0,0:0:0:0:
171,340,99742,1,8,0:0:0:0:
164,354,99813,1,8,0:0:0:0:
155,366,99885,1,8,0:0:0:0:
142,372,99956,1,8,0:0:0:0:
128,375,100027,2,0,P|111:278|126:182,1,172.200002627564,2|8,0:1|0:0,0:0:0:0:
78,105,100456,1,0,0:0:0:0:
78,105,100599,6,0,B|165:135|152:69|261:106,1,172.200002627564,4|8,0:0|0:0,0:0:0:0:
320,184,101027,1,0,0:0:0:0:
320,184,101170,2,0,P|328:144|343:81,1,86.1000013137818,8|0,0:1|0:0,0:0:0:0:
437,17,101456,2,0,P|446:58|455:101,1,86.1000013137818,8|0,0:0|0:0,0:0:0:0:
465,236,101742,6,0,P|388:220|285:239,1,172.200002627564,2|8,0:1|0:0,0:0:0:0:
183,270,102170,1,0,0:0:0:0:
183,270,102313,2,0,P|182:237|167:172,1,86.1000013137818,8|0,0:1|0:0,0:0:0:0:
307,275,102599,2,0,P|297:316|295:359,1,86.1000013137818,8|0,0:0|0:0,0:0:0:0:
172,360,102885,6,0,P|93:347|-22:354,1,172.200002627564,2|8,0:1|0:0,0:0:0:0:
53,261,103313,1,0,0:0:0:0:
53,261,103456,2,0,P|53:218|40:170,1,86.1000013137818,8|0,0:1|0:0,0:0:0:0:
108,51,103742,1,8,0:0:0:0:
108,125,103885,1,0,0:0:0:0:
38,29,104027,6,0,P|82:38|221:31,1,172.200002627564,2|8,0:1|0:0,0:0:0:0:
336,7,104456,1,0,0:0:0:0:
336,7,104599,2,0,L|334:113,1,86.1000013137818,8|0,0:1|0:0,0:0:0:0:
217,203,104885,2,0,L|219:97,1,86.1000013137818,8|0,0:0|0:0,0:0:0:0:
360,95,105170,6,0,P|369:168|395:272,1,172.200002627564,2|8,0:1|0:0,0:0:0:0:
320,359,105599,1,0,0:0:0:0:
320,359,105742,2,0,P|316:297|309:248,1,86.1000013137818,8|0,0:1|0:0,0:0:0:0:
428,203,106027,2,0,P|423:245|421:288,1,86.1000013137818,8|0,0:0|0:0,0:0:0:0:
284,295,106313,6,0,P|164:260|106:277,1,172.200002627564,2|8,0:1|0:0,0:0:0:0:
89,361,106742,1,0,0:0:0:0:
89,361,106885,2,0,P|98:334|96:266,1,86.1000013137818,8|0,0:1|0:0,0:0:0:0:
13,192,107170,2,0,P|4:219|6:287,1,86.1000013137818,8|0,0:0|0:0,0:0:0:0:
117,170,107456,6,0,P|199:148|284:161,1,172.200002627564,2|8,0:1|0:0,0:0:0:0:
355,245,107885,1,8,0:0:0:0:
430,257,108027,1,8,0:0:0:0:
498,220,108170,1,8,0:0:0:0:
491,142,108313,2,0,P|449:147|406:216,1,86.1000013137818,8|0,0:0|0:0,0:0:0:0:
326,310,108599,6,0,P|316:200|294:111,1,172.200002627564,2|8,0:0|0:0,0:0:0:0:
224,33,109027,1,8,0:0:0:0:
339,61,109170,1,8,0:0:0:0:
233,129,109313,1,8,0:0:0:0:
300,187,109456,1,8,0:0:0:0:
264,261,109599,1,8,0:0:0:0:
308,331,109742,6,0,B|249:213|355:224|296:100,2,218.399998666992,2|8|8,0:0|0:0|0:0,0:0:0:0:
386,275,111170,1,0,0:0:0:0:
386,275,111456,2,0,P|401:320|394:381,1,109.199999333496,8|0,0:0|0:0,0:0:0:0:
318,206,112027,6,0,P|317:149|342:88,1,109.199999333496,2|0,0:0|0:0,0:0:0:0:
434,33,112456,1,0,0:0:0:0:
434,33,112599,2,0,P|397:44|369:45,1,54.599999666748,8|0,0:0|0:0,0:0:0:0:
261,121,112885,2,0,P|298:132|326:133,1,54.599999666748
201,21,113170,2,0,P|142:50|96:86,1,109.199999333496,8|0,0:0|0:0,0:0:0:0:
77,172,113742,1,8,0:0:0:0:
77,172,114027,1,0,0:0:0:0:
247,219,114313,6,0,P|131:193|23:186,2,218.399998666992,2|8|8,0:0|0:0|0:0,0:0:0:0:
286,301,115742,1,0,0:0:0:0:
286,301,116027,2,0,P|231:302|158:329,1,109.199999333496,8|0,0:0|0:0,0:0:0:0:
165,335,116408,1,8,0:0:0:0:
165,335,116504,1,8,0:0:0:0:
165,335,116599,6,0,P|96:326|87:280,1,109.199999333496,2|0,0:0|0:0,0:0:0:0:
104,262,117170,1,8,0:0:0:0:
223,282,117456,5,2,0:0:0:0:
239,205,117599,1,0,0:0:0:0:
300,159,117742,2,0,P|331:157|385:171,1,54.599999666748,8|0,0:0|0:0,0:0:0:0:
486,191,118027,5,4,0:3:0:0:
393,341,118313,1,8,0:0:0:0:
340,147,118599,1,4,0:3:0:0:
467,322,118885,6,0,P|396:312|342:313,1,109.199999333496,2|0,0:0|0:0,0:0:0:0:
283,354,119456,1,8,0:0:0:0:
245,285,119742,1,0,0:0:0:0:
178,344,120027,2,0,P|169:286|182:212,1,109.199999333496,8|0,0:0|0:0,0:0:0:0:
75,175,120599,2,0,P|84:233|71:307,1,109.199999333496,8|0,0:0|0:0,0:0:0:0:
176,59,121170,6,0,P|209:155|121:223,2,218.399998666992,2|8|8,0:0|0:0|0:0,0:0:0:0:
191,142,122599,1,0,0:0:0:0:
302,120,122885,1,8,0:0:0:0:
332,222,123170,1,0,0:0:0:0:
219,215,123456,6,0,P|270:198|325:196,1,109.199999333496,2|0,0:0|0:0,0:0:0:0:
451,251,124027,1,8,0:0:0:0:
353,282,124313,1,0,0:0:0:0:
379,189,124599,2,0,P|387:137|385:71,1,109.199999333496,8|0,0:0|0:0,0:0:0:0:
284,13,125170,2,0,P|276:65|278:131,1,109.199999333496,8|0,0:0|0:0,0:0:0:0:
275,145,125551,1,8,0:0:0:0:
275,145,125647,1,8,0:0:0:0:
275,145,125742,6,0,P|188:123|74:51,2,218.399998666992,2|8|8,0:0|0:0|0:0,0:0:0:0:
316,234,127170,1,0,0:0:0:0:
176,273,127456,1,8,0:0:0:0:
230,216,127599,1,8,0:0:0:0:
257,290,127742,2,0,P|246:325|235:362,1,54.599999666748,8|0,0:0|0:0,0:0:0:0:
103,379,128027,5,6,0:0:0:0:
89,338,128170,1,0,0:0:0:0:
96,298,128312,1,0,0:0:0:0:
126,262,128455,1,0,0:0:0:0:
126,262,128599,2,0,P|131:233|123:184,1,59.8499992694092,8|0,0:0|0:0,0:0:0:0:
32,152,128885,2,0,P|34:181|29:211,1,59.8499992694092,8|0,0:0|0:0,0:0:0:0:
106,105,129170,5,2,0:0:0:0:
140,75,129313,1,0,0:0:0:0:
186,69,129455,1,0,0:0:0:0:
228,86,129598,1,0,0:0:0:0:
228,86,129742,2,0,P|251:92|300:83,1,59.8499992694092,8|0,0:0|0:0,0:0:0:0:
326,197,130027,2,0,P|303:191|254:200,1,59.8499992694092,8|0,0:0|0:0,0:0:0:0:
322,74,130312,5,2,0:0:0:0:
361,90,130455,1,0,0:0:0:0:
392,117,130598,1,0,0:0:0:0:
410,157,130741,1,0,0:0:0:0:
414,235,130884,1,2,0:0:0:0:
432,275,131027,1,0,0:0:0:0:
465,306,131169,1,0,0:0:0:0:
504,315,131312,1,0,0:0:0:0:
345,283,131456,5,2,0:0:0:0:
321,283,131598,1,0,0:0:0:0:
295,289,131741,1,0,0:0:0:0:
275,296,131884,1,0,0:0:0:0:
275,296,132027,2,0,P|269:266|277:206,1,59.8499992694092,8|0,0:0|0:0,0:0:0:0:
180,193,132313,2,0,P|181:235|186:274,1,59.8499992694092,8|0,0:0|0:0,0:0:0:0:
141,357,132599,5,2,0:0:0:0:
121,321,132742,1,0,0:0:0:0:
84,300,132884,1,0,0:0:0:0:
42,303,133027,1,0,0:0:0:0:
42,303,133170,2,0,P|37:332|20:372,1,59.8499992694092,8|0,0:0|0:0,0:0:0:0:
98,224,133456,2,0,P|87:196|82:166,1,59.8499992694092,8|0,0:0|0:0,0:0:0:0:
16,91,133742,6,0,P|6:131|-9:165,1,59.8499992694092,2|0,0:0|0:0,0:0:0:0:
104,21,134027,2,0,P|114:61|129:95,1,59.8499992694092,8|0,0:0|0:0,0:0:0:0:
210,147,134313,2,0,P|220:107|235:73,1,59.8499992694092,8|0,0:0|0:0,0:0:0:0:
122,217,134599,2,0,P|112:177|97:143,1,59.8499992694092,8|0,0:0|0:0,0:0:0:0:
232,230,134884,5,2,0:0:0:0:
270,210,135027,1,0,0:0:0:0:
291,176,135169,1,0,0:0:0:0:
291,133,135312,1,0,0:0:0:0:
281,54,135455,1,2,0:0:0:0:
313,22,135598,1,0,0:0:0:0:
355,14,135742,1,0,0:0:0:0:
396,25,135884,1,0,0:0:0:0:
404,159,136027,5,2,0:0:0:0:
396,178,136169,1,0,0:0:0:0:
392,195,136313,2,0,P|388:235|397:262,1,59.8499992694092,8|0,0:0|0:0,0:0:0:0:
294,182,136599,1,8,0:0:0:0:
257,244,136742,1,8,0:0:0:0:
274,150,136884,2,0,P|273:108|265:73,1,59.8499992694092,8|0,0:0|0:0,0:0:0:0:
204,225,137170,6,0,L|215:286,3,59.8499992694092,2|0|8|0,0:0|0:0|0:0|0:0,0:0:0:0:
88,329,137742,2,0,L|100:259,3,59.8499992694092,2|0|8|0,0:0|0:0|0:0|0:0,0:0:0:0:
199,152,138313,6,0,L|191:211,3,59.8499992694092,2|0|8|0,0:0|0:0|0:0|0:0,0:0:0:0:
65,300,138885,2,0,L|59:234,3,59.8499992694092,2|0|8|0,0:0|0:0|0:0|0:0,0:0:0:0:
120,193,139456,5,2,0:0:0:0:
90,167,139599,1,0,0:0:0:0:
83,136,139742,1,0,0:0:0:0:
95,101,139885,1,0,0:0:0:0:
121,76,140028,2,0,P|153:72|196:92,1,59.8499992694092,8|0,0:0|0:0,0:0:0:0:
272,176,140313,2,0,P|240:180|197:160,1,59.8499992694092,8|0,0:0|0:0,0:0:0:0:
338,74,140599,6,0,L|277:96,3,59.8499992694092,2|0|8|0,0:0|0:0|0:0|0:0,0:0:0:0:
425,65,141170,1,8,0:0:0:0:
372,116,141313,1,8,0:0:0:0:
447,136,141456,2,0,P|452:178|458:208,1,59.8499992694092,8|0,0:0|0:0,0:0:0:0:
420,298,141742,6,0,P|410:271|382:244,1,59.8499992694092,2|0,0:0|0:0,0:0:0:0:
337,324,142027,2,0,P|310:311|271:312,1,59.8499992694092
431,282,142313,2,0,P|418:248|383:214,1,59.8499992694092,8|0,0:0|0:0,0:0:0:0:
327,314,142599,2,0,P|294:298|245:299,1,59.8499992694092
330,152,142885,6,0,P|327:187|324:229,1,59.8499992694092,2|0,0:0|0:0,0:0:0:0:
187,129,143170,2,0,P|187:169|194:214,1,59.8499992694092
351,121,143456,2,0,P|348:165|343:217,1,59.8499992694092,8|0,0:0|0:0,0:0:0:0:
172,92,143742,2,0,P|172:142|180:198,1,59.8499992694092
256,230,144028,5,2,0:0:0:0:
235,257,144170,1,8,0:0:0:0:
199,270,144313,1,8,0:0:0:0:
156,254,144456,1,8,0:0:0:0:
147,182,144599,1,8,0:0:0:0:
206,138,144742,1,8,0:0:0:0:
278,157,144885,1,8,0:0:0:0:
306,236,145028,1,8,0:0:0:0:
274,317,145170,6,0,P|262:273|265:236,1,70.3499966722871,8|8,0:0|0:0,0:0:0:0:
290,78,145456,1,8,0:0:0:0:
243,135,145599,1,8,0:0:0:0:
346,127,145742,6,0,B|230:118|264:206|124:172,1,214.200001307373,4|8,0:0|0:0,0:0:0:0:
84,80,146170,1,8,0:0:0:0:
179,214,146313,6,0,P|98:189|40:195,1,130.199994834595,2|0,0:0|0:0,0:0:0:0:
207,106,146742,1,0,0:0:0:0:
207,106,146885,2,0,P|288:131|346:125,1,130.199994834595,8|0,0:0|0:0,0:0:0:0:
414,193,147313,1,0,0:0:0:0:
414,193,147456,6,0,P|365:251|346:324,1,130.199994834595,2|0,0:0|0:0,0:0:0:0:
415,384,147885,1,0,0:0:0:0:
415,384,148027,2,0,P|386:385|343:379,1,65.0999974172975,8|0,0:0|0:0,0:0:0:0:
250,270,148313,2,0,P|277:266|321:277,1,65.0999974172975,8|0,0:0|0:0,0:0:0:0:
199,369,148599,6,0,P|121:350|67:304,1,130.199994834595,2|0,0:0|0:0,0:0:0:0:
152,218,149027,1,0,0:0:0:0:
152,218,149170,2,0,P|156:259|145:297,1,65.0999974172975,8|0,0:0|0:0,0:0:0:0:
37,318,149456,2,0,P|23:288|20:256,1,65.0999974172975,8|0,0:0|0:0,0:0:0:0:
15,138,149742,6,0,P|48:106|106:93,1,86.7999965563966,2|8,0:0|0:0,0:0:0:0:
103,104,150027,1,8,0:0:0:0:
149,116,150170,1,8,0:0:0:0:
179,153,150313,2,0,P|172:179|143:230,1,65.0999974172975,8|0,0:0|0:0,0:0:0:0:
266,99,150599,2,0,P|259:72|258:14,1,65.0999974172975,8|0,0:0|0:0,0:0:0:0:
268,186,150885,6,0,P|280:245|262:328,1,130.199994834595,2|0,0:0|0:0,0:0:0:0:
378,378,151313,1,0,0:0:0:0:
378,378,151456,2,0,P|366:319|384:236,1,130.199994834595,8|0,0:0|0:0,0:0:0:0:
490,188,151885,1,0,0:0:0:0:
490,188,152027,6,0,P|440:133|389:110,1,130.199994834595,2|0,0:0|0:0,0:0:0:0:
304,54,152456,1,0,0:0:0:0:
304,54,152599,2,0,P|310:88|304:135,1,65.0999974172975,8|0,0:0|0:0,0:0:0:0:
260,232,152885,2,0,P|235:207|215:168,1,65.0999974172975,8|0,0:0|0:0,0:0:0:0:
143,53,153170,6,0,P|178:63|209:83,1,65.0999974172975,2|0,0:0|0:0,0:0:0:0:
126,186,153456,2,0,P|89:205|57:212,1,65.0999974172975,8|0,0:0|0:0,0:0:0:0:
145,25,153742,2,0,P|185:44|219:76,1,65.0999974172975,8|0,0:0|0:0,0:0:0:0:
95,185,154028,2,0,P|45:200|4:202,1,65.0999974172975,8|0,0:0|0:0,0:0:0:0:
216,154,154313,6,0,P|209:210|217:274,1,97.6499961259462,2|8,0:0|0:0,0:0:0:0:
226,273,154599,1,8,0:0:0:0:
235,292,154670,1,8,0:0:0:0:
243,313,154742,1,8,0:0:0:0:
248,331,154813,1,8,0:0:0:0:
247,353,154885,2,0,P|296:337|396:357,1,130.199994834595,2|0,0:1|0:0,0:0:0:0:
462,296,155313,1,0,0:0:0:0:
462,296,155456,6,0,P|451:210|458:155,1,130.199994834595,4|0,0:0|0:0,0:0:0:0:
347,199,155885,1,0,0:0:0:0:
347,199,156027,2,0,P|358:285|351:340,1,130.199994834595,8|0,0:0|0:0,0:0:0:0:
323,80,156456,1,0,0:0:0:0:
323,80,156599,6,0,P|408:92|446:135,1,130.199994834595,2|0,0:0|0:0,0:0:0:0:
303,172,157027,1,0,0:0:0:0:
303,172,157170,2,0,P|268:176|227:170,1,65.0999974172975,8|0,0:0|0:0,0:0:0:0:
132,64,157456,2,0,P|167:60|208:66,1,65.0999974172975,8|0,0:0|0:0,0:0:0:0:
124,178,157742,6,0,P|60:202|-3:198,1,130.199994834595,2|0,0:0|0:0,0:0:0:0:
29,303,158170,1,0,0:0:0:0:
29,303,158313,2,0,P|25:344|40:384,1,65.0999974172975,8|0,0:0|0:0,0:0:0:0:
131,229,158599,2,0,P|112:194|86:165,1,65.0999974172975,8|0,0:0|0:0,0:0:0:0:
219,295,158885,6,0,P|283:311|316:302,1,86.7999965563966,2|8,0:0|0:0,0:0:0:0:
324,307,159170,1,8,0:0:0:0:
359,272,159313,1,8,0:0:0:0:
362,227,159456,2,0,P|341:205|291:195,1,65.0999974172975,8|0,0:0|0:0,0:0:0:0:
405,324,159742,2,0,P|434:332|482:316,1,65.0999974172975,8|0,0:0|0:0,0:0:0:0:
470,121,160027,6,0,P|445:206|452:262,1,130.199994834595,2|0,0:0|0:0,0:0:0:0:
349,159,160456,1,0,0:0:0:0:
349,159,160599,2,0,P|298:94|244:75,1,130.199994834595,8|0,0:0|0:0,0:0:0:0:
157,13,161027,1,0,0:0:0:0:
157,13,161170,6,0,P|142:69|165:153,1,130.199994834595,2|0,0:0|0:0,0:0:0:0:
105,237,161599,1,0,0:0:0:0:
105,237,161742,2,0,P|69:220|36:222,1,65.0999974172975,8|0,0:0|0:0,0:0:0:0:
127,352,162027,2,0,P|163:369|196:367,1,65.0999974172975,8|0,0:0|0:0,0:0:0:0:
237,220,162313,6,0,P|212:254|209:294,1,65.0999974172975,2|0,0:0|0:0,0:0:0:0:
324,376,162599,2,0,P|307:347|305:315,1,65.0999974172975
337,186,162885,5,2,0:0:0:0:
408,188,163027,1,8,0:0:0:0:
472,227,163170,1,8,0:0:0:0:
490,299,163313,1,8,0:0:0:0:
450,383,163456,6,0,P|416:354|402:326,1,70.3499966722871,2|8,0:0|0:0,0:0:0:0:
273,179,163742,1,8,0:0:0:0:
325,236,163885,1,8,0:0:0:0:
221,240,164027,6,0,B|286:257|317:207|315:201|316:195|350:141|424:175,1,214.200001307373,4|8,0:0|0:0,0:0:0:0:
487,257,164456,1,8,0:0:0:0:
345,201,164599,6,0,P|343:75|386:23,1,172.200002627564,2|8,0:0|0:0,0:0:0:0:
228,0,165027,1,0,0:0:0:0:
228,0,165170,2,0,P|232:45|222:90,1,86.1000013137818,8|0,0:1|0:0,0:0:0:0:
105,172,165456,2,0,P|101:127|111:82,1,86.1000013137818,8|0,0:0|0:0,0:0:0:0:
214,183,165742,6,0,P|210:279|153:342,1,172.200002627564,2|8,0:1|0:0,0:0:0:0:
58,308,166170,1,0,0:0:0:0:
58,308,166313,2,0,P|102:297|144:319,1,86.1000013137818,8|0,0:1|0:0,0:0:0:0:
279,329,166599,1,8,0:0:0:0:
217,373,166742,1,0,0:0:0:0:
341,374,166885,6,0,P|375:308|387:210,1,172.200002627564,2|8,0:1|0:0,0:0:0:0:
272,160,167313,1,0,0:0:0:0:
272,159,167456,2,0,P|271:201|286:242,1,86.1000013137818,8|0,0:1|0:0,0:0:0:0:
412,199,167742,2,0,P|423:157|419:115,1,86.1000013137818,8|0,0:0|0:0,0:0:0:0:
301,53,168028,6,0,P|346:25|466:50,1,172.200002627564,2|8,0:1|0:0,0:0:0:0:
295,132,168456,1,0,0:0:0:0:
295,132,168599,2,0,P|250:132|195:104,1,86.1000013137818,8|0,0:1|0:0,0:0:0:0:
73,54,168885,1,8,0:0:0:0:
140,13,169028,1,0,0:0:0:0:
85,133,169170,6,0,P|109:215|92:316,1,172.200002627564,2|8,0:1|0:0,0:0:0:0:
17,384,169599,1,0,0:0:0:0:
17,384,169742,2,0,P|21:342|8:295,1,86.1000013137818,8|0,0:1|0:0,0:0:0:0:
124,242,170027,2,0,P|122:284|134:326,1,86.1000013137818,8|0,0:0|0:0,0:0:0:0:
333,359,170313,6,0,P|308:294|208:269,1,172.200002627564,2|8,0:1|0:0,0:0:0:0:
335,277,170742,1,0,0:0:0:0:
335,277,170885,2,0,P|362:244|367:195,1,86.1000013137818,8|0,0:1|0:0,0:0:0:0:
239,146,171170,2,0,P|232:188|252:233,1,86.1000013137818,8|0,0:0|0:0,0:0:0:0:
409,212,171456,6,0,P|393:172|353:143,1,86.1000013137818,2|0,0:1|0:0,0:0:0:0:
343,324,171742,1,8,0:0:0:0:
409,289,171885,1,0,0:0:0:0:
472,334,172028,2,0,P|479:289|493:252,1,86.1000013137818,8|0,0:1|0:0,0:0:0:0:
404,118,172313,2,0,P|419:157|419:199,1,86.1000013137818,8|0,0:0|0:0,0:0:0:0:
302,307,172599,6,0,P|254:272|246:197,1,129.150001970673,2|8,0:1|0:0,0:0:0:0:
263,199,172885,1,8,0:0:0:0:
281,187,172956,1,8,0:0:0:0:
293,169,173028,1,8,0:0:0:0:
300,151,173099,1,8,0:0:0:0:
299,128,173170,2,0,P|220:110|128:134,1,172.200002627564,2|8,0:1|0:0,0:0:0:0:
111,231,173599,1,0,0:0:0:0:
111,231,173742,6,0,P|116:146|53:74,1,172.200002627564,4|8,0:0|0:0,0:0:0:0:
11,212,174170,1,0,0:0:0:0:
11,212,174313,2,0,P|13:262|31:296,1,86.1000013137818,8|0,0:1|0:0,0:0:0:0:
130,384,174599,2,0,P|147:345|148:302,1,86.1000013137818,8|0,0:0|0:0,0:0:0:0:
94,210,174885,6,0,P|178:195|243:256,1,172.200002627564,2|8,0:1|0:0,0:0:0:0:
251,353,175313,1,0,0:0:0:0:
251,353,175456,2,0,P|303:361|345:351,1,86.1000013137818,8|0,0:1|0:0,0:0:0:0:
412,254,175742,2,0,P|360:246|318:256,1,86.1000013137818,8|0,0:0|0:0,0:0:0:0:
508,325,176027,6,0,P|507:252|453:160,1,172.200002627564,2|8,0:1|0:0,0:0:0:0:
348,146,176456,1,0,0:0:0:0:
348,146,176599,2,0,P|337:187|337:230,1,86.1000013137818,8|0,0:1|0:0,0:0:0:0:
399,78,176885,1,8,0:0:0:0:
344,31,177028,1,0,0:0:0:0:
277,61,177170,6,0,P|197:89|94:63,1,172.200002627564,2|8,0:1|0:0,0:0:0:0:
18,19,177599,1,0,0:0:0:0:
18,19,177742,2,0,P|25:67|22:126,1,86.1000013137818,8|0,0:1|0:0,0:0:0:0:
108,204,178027,2,0,P|119:162|136:123,1,86.1000013137818,8|0,0:0|0:0,0:0:0:0:
145,310,178313,6,0,P|77:305|1:222,1,172.200002627564,2|8,0:1|0:0,0:0:0:0:
216,206,178742,1,0,0:0:0:0:
216,206,178885,2,0,P|231:265|228:303,1,86.1000013137818,8|0,0:1|0:0,0:0:0:0:
313,384,179170,2,0,P|321:341|341:303,1,86.1000013137818,8|0,0:0|0:0,0:0:0:0:
503,243,179456,6,0,P|494:306|385:361,1,172.200002627564,2|8,0:1|0:0,0:0:0:0:
338,266,179885,1,0,0:0:0:0:
338,266,180028,2,0,P|347:239|400:193,1,86.1000013137818,8|0,0:1|0:0,0:0:0:0:
293,348,180313,2,0,P|265:353|198:330,1,86.1000013137818,8|0,0:0|0:0,0:0:0:0:
201,139,180599,6,0,P|218:190|217:317,1,172.200002627564,2|8,0:1|0:0,0:0:0:0:
104,148,181028,1,8,0:0:0:0:
139,77,181170,1,8,0:0:0:0:
211,56,181313,1,8,0:0:0:0:
279,89,181456,2,0,P|316:109|366:87,1,86.1000013137818,8|0,0:0|0:0,0:0:0:0:
446,11,181742,6,0,P|454:103|453:195,1,172.200002627564,2|8,0:0|0:0,0:0:0:0:
361,308,182170,1,8,0:0:0:0:
512,270,182313,1,8,0:0:0:0:
367,211,182456,1,8,0:0:0:0:
450,344,182599,1,8,0:0:0:0:
461,188,182742,1,8,0:0:0:0:
361,308,182885,6,0,P|308:316|224:300,1,109.199999333496,2|0,0:0|0:0,0:0:0:0:
213,250,183313,1,0,0:0:0:0:
213,250,183456,2,0,L|215:382,2,109.199999333496,8|0|8,0:0|0:0|0:0,0:0:0:0:
128,254,184313,5,2,0:0:0:0:
128,254,184456,1,0,0:0:0:0:
128,254,184599,2,0,P|125:282|124:320,1,54.599999666748,8|0,0:0|0:0,0:0:0:0:
233,250,184885,2,0,P|235:221|237:184,1,54.599999666748
148,126,185170,6,0,P|149:157|164:185,1,54.599999666748,2|0,0:0|0:0,0:0:0:0:
198,75,185456,2,0,P|183:102|182:134,1,54.599999666748
266,55,185742,2,0,P|239:71|222:98,1,54.599999666748,8|0,0:0|0:0,0:0:0:0:
334,71,186027,2,0,P|303:71|275:86,1,54.599999666748
341,152,186313,6,0,P|387:146|467:132,1,109.199999333496,2|0,0:0|0:0,0:0:0:0:
360,242,186742,1,0,0:0:0:0:
360,242,186885,2,0,P|305:235|251:229,1,109.199999333496,8|0,0:0|0:0,0:0:0:0:
150,280,187313,1,0,0:0:0:0:
150,280,187456,6,0,P|205:271|266:271,1,109.199999333496,2|0,0:0|0:0,0:0:0:0:
68,305,187885,1,0,0:0:0:0:
68,305,188027,2,0,L|67:184,2,109.199999333496,8|0|8,0:0|0:0|0:0,0:0:0:0:
26,200,188885,6,0,L|36:141,1,54.599999666748,2|0,0:0|0:0,0:0:0:0:
125,154,189170,2,0,L|117:95,1,54.599999666748,8|0,0:0|0:0,0:0:0:0:
216,92,189456,1,0,0:0:0:0:
216,92,189599,1,0,0:0:0:0:
216,92,189742,6,0,L|230:162,1,54.599999666748,2|0,0:0|0:0,0:0:0:0:
304,210,190027,2,0,L|314:156,1,54.599999666748
202,78,190313,2,0,L|203:160,1,54.599999666748,8|0,0:0|0:0,0:0:0:0:
284,221,190599,2,0,L|306:162,1,54.599999666748
328,84,190885,6,0,P|374:97|448:109,1,109.199999333496,2|0,0:0|0:0,0:0:0:0:
280,179,191313,1,0,0:0:0:0:
280,179,191456,2,0,L|149:195,1,109.199999333496,8|0,0:0|0:0,0:0:0:0:
57,180,191885,1,0,0:0:0:0:
57,180,192027,6,0,P|89:223|66:283,1,109.199999333496,2|0,0:0|0:0,0:0:0:0:
37,362,192456,1,0,0:0:0:0:
37,362,192599,2,0,P|81:349|157:359,1,109.199999333496,8|0,0:0|0:0,0:0:0:0:
245,377,193027,1,0,0:0:0:0:
245,377,193170,6,0,P|233:332|211:258,1,109.199999333496,2|0,0:0|0:0,0:0:0:0:
318,246,193599,1,0,0:0:0:0:
318,246,193742,2,0,P|303:284|301:321,1,54.599999666748,8|0,0:0|0:0,0:0:0:0:
227,249,194027,2,0,P|221:222|209:197,1,54.599999666748
293,118,194313,6,0,P|292:145|285:171,1,54.599999666748,2|0,0:0|0:0,0:0:0:0:
362,124,194599,2,0,P|347:147|328:166,1,54.599999666748
418,163,194885,2,0,P|393:175|367:182,1,54.599999666748,8|0,0:0|0:0,0:0:0:0:
446,224,195170,2,0,P|418:223|392:216,1,54.599999666748
492,285,195456,6,0,P|474:342|433:381,1,109.199999333496,2|0,0:0|0:0,0:0:0:0:
333,375,195885,1,0,0:0:0:0:
333,375,196027,2,0,P|312:329|309:259,1,109.199999333496,8|0,0:0|0:0,0:0:0:0:
282,186,196456,1,0,0:0:0:0:
282,186,196599,6,0,P|278:217|282:257,1,54.599999666748,2|0,0:0|0:0,0:0:0:0:
201,344,196885,2,0,P|188:315|165:282,1,54.599999666748
260,170,197170,2,0,P|264:200|278:238,1,54.599999666748,8|0,0:0|0:0,0:0:0:0:
222,352,197456,2,0,P|202:327|171:301,1,54.599999666748
153,175,197742,5,2,0:0:0:0:
160,136,197885,1,8,0:0:0:0:
185,110,198027,1,8,0:0:0:0:
228,96,198170,1,8,0:0:0:0:
280,120,198313,1,8,0:0:0:0:
291,169,198456,1,8,0:0:0:0:
264,211,198599,1,8,0:0:0:0:
221,222,198742,1,8,0:0:0:0:
125,176,198885,5,2,0:0:0:0:
296,223,199456,1,2,0:0:0:0:
155,285,200027,6,0,P|189:272|244:283,2,86.7999965563966,2|0|0,0:0|0:0|0:0,0:0:0:0:
200,356,200599,6,0,B|187:390|121:406|77:323|131:288|134:290|138:292|188:269|207:232|176:163|118:163,1,321.30000196106,4|8,0:0|0:0,0:0:0:0:
43,170,201170,6,0,P|97:133|171:151,1,130.199994834595,2|0,0:0|0:0,0:0:0:0:
247,277,201599,1,0,0:0:0:0:
247,277,201742,2,0,P|181:282|126:229,1,130.199994834595,8|0,0:0|0:0,0:0:0:0:
226,69,202170,1,0,0:0:0:0:
226,69,202313,6,0,P|213:131|214:207,1,130.199994834595,2|0,0:0|0:0,0:0:0:0:
323,94,202742,1,0,0:0:0:0:
323,94,202885,2,0,P|318:72|309:30,1,65.0999974172975,8|0,0:0|0:0,0:0:0:0:
421,80,203170,2,0,P|416:111|414:144,1,65.0999974172975,8|0,0:0|0:0,0:0:0:0:
474,220,203456,6,0,P|427:185|356:221,1,130.199994834595,2|0,0:0|0:0,0:0:0:0:
388,305,203885,1,0,0:0:0:0:
388,305,204027,2,0,P|397:343|399:380,1,65.0999974172975,8|0,0:0|0:0,0:0:0:0:
261,381,204313,2,0,P|264:348|272:317,1,65.0999974172975,8|0,0:0|0:0,0:0:0:0:
240,216,204599,6,0,P|227:271|239:308,1,86.7999965563966,2|8,0:0|0:0,0:0:0:0:
230,320,204885,1,8,0:0:0:0:
175,264,205027,1,8,0:0:0:0:
155,337,205170,2,0,P|126:346|91:348,1,65.0999974172975,8|0,0:0|0:0,0:0:0:0:
9,205,205456,2,0,P|38:211|69:227,1,65.0999974172975,8|0,0:0|0:0,0:0:0:0:
152,170,205742,6,0,P|157:109|201:46,1,130.199994834595,2|0,0:0|0:0,0:0:0:0:
275,256,206170,1,0,0:0:0:0:
275,256,206313,2,0,P|267:191|231:138,1,130.199994834595,8|0,0:0|0:0,0:0:0:0:
338,36,206742,1,0,0:0:0:0:
338,36,206885,6,0,P|328:99|349:160,1,130.199994834595,2|0,0:0|0:0,0:0:0:0:
343,296,207313,1,0,0:0:0:0:
343,296,207456,2,0,P|298:283|271:257,1,65.0999974172975,8|0,0:0|0:0,0:0:0:0:
477,297,207742,2,0,P|464:341|438:368,1,65.0999974172975,8|0,0:0|0:0,0:0:0:0:
392,164,208027,6,0,P|414:152|470:145,1,65.0999974172975,2|0,0:0|0:0,0:0:0:0:
351,327,208313,2,0,P|331:349|289:374,1,65.0999974172975
419,184,208599,2,0,P|440:163|503:137,1,65.0999974172975,8|0,0:0|0:0,0:0:0:0:
370,326,208885,2,0,P|353:357|312:399,1,65.0999974172975
329,160,209170,6,0,P|277:141|212:155,1,97.6499961259462,2|8,0:0|0:0,0:0:0:0:
194,130,209456,1,8,0:0:0:0:
198,159,209527,1,8,0:0:0:0:
199,184,209599,1,8,0:0:0:0:
203,212,209670,1,8,0:0:0:0:
205,239,209742,2,0,P|131:266|66:244,1,130.199994834595,2|0,0:1|0:0,0:0:0:0:
20,150,210170,1,0,0:0:0:0:
20,150,210313,6,0,P|37:232|29:284,1,130.199994834595,4|0,0:0|0:0,0:0:0:0:
136,384,210742,1,0,0:0:0:0:
136,384,210885,2,0,P|119:302|127:250,1,130.199994834595,8|0,0:0|0:0,0:0:0:0:
225,276,211313,1,0,0:0:0:0:
225,276,211456,6,0,P|279:289|369:271,1,130.199994834595,2|0,0:0|0:0,0:0:0:0:
437,375,211885,1,0,0:0:0:0:
437,375,212027,2,0,P|394:371|346:380,1,65.0999974172975,8|0,0:0|0:0,0:0:0:0:
316,222,212313,2,0,P|357:233|406:232,1,65.0999974172975,8|0,0:0|0:0,0:0:0:0:
512,334,212599,6,0,P|488:274|504:212,1,130.199994834595,2|0,0:0|0:0,0:0:0:0:
415,180,213027,1,0,0:0:0:0:
415,180,213170,2,0,P|378:189|341:187,1,65.0999974172975,8|0,0:0|0:0,0:0:0:0:
245,275,213456,2,0,P|281:285|312:305,1,65.0999974172975,8|0,0:0|0:0,0:0:0:0:
423,345,213742,6,0,P|395:305|372:258,1,86.7999965563966,2|8,0:0|0:0,0:0:0:0:
385,259,214028,1,8,0:0:0:0:
319,215,214171,1,8,0:0:0:0:
328,138,214313,2,0,P|290:112|258:112,1,65.0999974172975,8|0,0:0|0:0,0:0:0:0:
166,230,214599,2,0,P|208:211|230:185,1,65.0999974172975,8|0,0:0|0:0,0:0:0:0:
67,146,214885,6,0,P|39:213|53:288,1,130.199994834595,2|0,0:0|0:0,0:0:0:0:
170,343,215313,1,0,0:0:0:0:
170,343,215456,2,0,P|155:273|111:213,1,130.199994834595,8|0,0:0|0:0,0:0:0:0:
213,283,215885,1,0,0:0:0:0:
213,283,216027,6,0,P|263:286|345:252,1,130.199994834595,2|0,0:0|0:0,0:0:0:0:
445,305,216456,1,0,0:0:0:0:
445,305,216599,2,0,P|456:339|441:380,1,65.0999974172975,8|0,0:0|0:0,0:0:0:0:
325,234,216885,2,0,P|318:202|329:172,1,65.0999974172975,8|0,0:0|0:0,0:0:0:0:
464,68,217170,6,0,P|461:133|454:197,1,130.199994834595,2|0,0:0|0:0,0:0:0:0:
359,136,217599,1,8,0:0:0:0:
291,94,217742,1,8,0:0:0:0:
211,102,217885,1,8,0:0:0:0:
155,153,218027,2,0,P|137:188|141:227,1,65.0999974172975,8|0,0:0|0:0,0:0:0:0:
169,343,218313,6,0,P|204:330|243:300,1,70.3499966722871,2|8,0:0|0:0,0:0:0:0:
374,163,218599,1,8,0:0:0:0:
355,238,218742,1,8,0:0:0:0:
300,151,218885,6,0,B|263:202|293:257|298:258|302:259|358:262|376:348|345:399|244:388|244:325,1,321.30000196106,4|8,0:0|0:0,0:0:0:0:
347,281,219456,6,0,P|426:247|514:289,1,172.200002627564,2|8,0:0|0:0,0:0:0:0:
359,181,219885,1,0,0:0:0:0:
359,181,220027,2,0,P|315:145|290:103,1,86.1000013137818,8|0,0:1|0:0,0:0:0:0:
466,30,220313,2,0,P|456:86|432:128,1,86.1000013137818,8|0,0:0|0:0,0:0:0:0:
321,21,220599,6,0,P|228:6|150:27,1,172.200002627564,2|8,0:1|0:0,0:0:0:0:
57,175,221027,1,0,0:0:0:0:
57,175,221170,2,0,P|57:135|21:89,1,86.1000013137818,8|0,0:1|0:0,0:0:0:0:
1,283,221456,2,0,P|35:302|93:294,1,86.1000013137818,8|0,0:0|0:0,0:0:0:0:
195,204,221742,6,0,P|138:251|140:350,1,172.200002627564,2|8,0:1|0:0,0:0:0:0:
288,381,222170,1,0,0:0:0:0:
288,381,222313,2,0,P|222:350|122:376,1,172.200002627564,8|8,0:1|0:0,0:0:0:0:
291,252,222742,1,0,0:0:0:0:
291,252,222885,6,0,P|313:218|313:162,1,86.1000013137818,2|0,0:1|0:0,0:0:0:0:
383,324,223170,2,0,P|401:360|449:388,1,86.1000013137818,8|0,0:0|0:0,0:0:0:0:
491,202,223456,2,0,P|450:202|402:230,1,86.1000013137818,8|0,0:1|0:0,0:0:0:0:
473,298,223742,1,8,0:0:0:0:
473,298,223885,1,0,0:0:0:0:
392,242,224027,6,0,P|381:167|404:72,1,172.200002627564,2|8,0:1|0:0,0:0:0:0:
286,43,224456,1,0,0:0:0:0:
286,43,224599,2,0,P|310:93|305:125,1,86.1000013137818,8|0,0:1|0:0,0:0:0:0:
151,167,224885,2,0,P|182:121|212:109,1,86.1000013137818,8|0,0:0|0:0,0:0:0:0:
223,248,225170,6,0,P|162:277|68:236,1,172.200002627564,2|8,0:1|0:0,0:0:0:0:
39,148,225599,1,0,0:0:0:0:
39,148,225742,2,0,P|33:198|20:252,1,86.1000013137818,8|0,0:1|0:0,0:0:0:0:
155,100,226027,2,0,P|141:59|124:19,1,86.1000013137818,8|0,0:0|0:0,0:0:0:0:
119,239,226313,6,0,P|113:299|207:354,1,172.200002627564,2|8,0:1|0:0,0:0:0:0:
300,286,226742,1,0,0:0:0:0:
300,286,226885,2,0,P|288:329|302:376,1,86.1000013137818,8|0,0:1|0:0,0:0:0:0:
377,237,227170,1,8,0:0:0:0:
377,237,227313,1,0,0:0:0:0:
450,295,227456,6,0,P|465:230|450:116,1,172.200002627564,2|8,0:1|0:0,0:0:0:0:
388,18,227885,1,8,0:0:0:0:
388,18,228027,2,0,P|334:93|273:61,1,172.200002627564,2|8,0:1|0:0,0:0:0:0:
169,17,228456,1,0,0:0:0:0:
169,17,228599,6,0,P|180:100|165:198,1,172.200002627564,4|8,0:0|0:0,0:0:0:0:
61,243,229027,1,0,0:0:0:0:
61,243,229170,2,0,P|64:196|45:136,1,86.1000013137818,8|0,0:1|0:0,0:0:0:0:
8,345,229456,2,0,P|47:371|108:384,1,86.1000013137818,8|0,0:0|0:0,0:0:0:0:
270,324,229742,6,0,P|196:316|104:356,1,172.200002627564,2|8,0:1|0:0,0:0:0:0:
351,381,230170,1,0,0:0:0:0:
351,381,230313,2,0,P|368:342|357:287,1,86.1000013137818,8|0,0:1|0:0,0:0:0:0:
185,268,230599,2,0,P|168:307|179:362,1,86.1000013137818,8|0,0:0|0:0,0:0:0:0:
305,200,230885,6,0,P|249:138|153:143,1,172.200002627564,2|8,0:1|0:0,0:0:0:0:
402,150,231313,1,0,0:0:0:0:
402,150,231456,2,0,P|426:116|415:67,1,86.1000013137818,8|0,0:1|0:0,0:0:0:0:
286,230,231742,2,0,P|303:267|351:282,1,86.1000013137818,8|0,0:0|0:0,0:0:0:0:
500,208,232027,6,0,P|466:258|484:383,1,172.200002627564,2|8,0:1|0:0,0:0:0:0:
354,337,232456,1,0,0:0:0:0:
354,337,232599,2,0,P|316:320|263:322,1,86.1000013137818,8|0,0:1|0:0,0:0:0:0:
175,362,232885,1,8,0:0:0:0:
175,362,233027,1,0,0:0:0:0:
89,306,233170,6,0,P|155:262|248:296,1,172.200002627564,2|8,0:1|0:0,0:0:0:0:
107,199,233599,1,0,0:0:0:0:
107,199,233742,2,0,P|76:179|28:177,1,86.1000013137818,8|0,0:1|0:0,0:0:0:0:
228,260,234027,2,0,P|260:243|286:202,1,86.1000013137818,8|0,0:0|0:0,0:0:0:0:
173,10,234313,6,0,P|164:81|200:187,1,172.200002627564,2|8,0:1|0:0,0:0:0:0:
270,109,234742,1,0,0:0:0:0:
270,109,234885,1,8,0:1:0:0:
359,210,235027,1,0,0:0:0:0:
343,101,235170,1,8,0:0:0:0:
337,223,235313,1,0,0:0:0:0:
412,132,235456,6,0,P|400:244|415:302,1,172.200002627564,2|8,0:1|0:0,0:0:0:0:
453,376,235885,1,8,0:0:0:0:
453,376,236027,5,8,0:0:0:0:
429,221,236170,1,8,0:0:0:0:
359,362,236313,1,8,0:0:0:0:
498,290,236456,1,8,0:0:0:0:
343,266,236599,6,0,P|302:267|250:275,1,86.1000013137818,2|0,0:0|0:0,0:0:0:0:
189,291,236885,1,8,0:0:0:0:
189,291,237027,1,8,0:0:0:0:
161,384,237170,2,0,P|158:341|139:298,1,86.1000013137818,8|0,0:0|0:0,0:0:0:0:
0,356,237456,2,0,P|38:375|80:380,1,86.1000013137818,8|0,0:0|0:0,0:0:0:0:
54,282,237742,6,0,P|46:227|60:159,1,109.199999333496,4|0,0:0|0:0,0:0:0:0:
105,105,238170,1,0,0:0:0:0:
105,105,238313,1,8,0:0:0:0:
186,157,238599,1,0,0:0:0:0:
210,66,238885,6,0,P|261:50|336:68,1,109.199999333496,2|0,0:0|0:0,0:0:0:0:
339,87,239313,1,0,0:0:0:0:
339,87,239456,1,8,0:0:0:0:
418,51,239742,1,0,0:0:0:0:
427,139,240027,6,0,P|426:110|436:81,1,54.599999666748,2|0,0:0|0:0,0:0:0:0:
416,220,240313,2,0,P|400:195|394:165,1,54.599999666748
446,295,240599,2,0,P|420:281|400:258,1,54.599999666748,8|0,0:0|0:0,0:0:0:0:
509,344,240885,2,0,P|480:345|451:335,1,54.599999666748
336,323,241170,6,0,P|306:317|248:336,1,72.7999995556641,2|0,0:0|0:0,0:0:0:0:
233,357,241456,1,0,0:0:0:0:
233,357,241599,1,0,0:0:0:0:
233,357,241742,2,0,P|224:323|230:289,1,54.599999666748,8|0,0:0|0:0,0:0:0:0:
136,326,242027,2,0,P|126:359|104:386,1,54.599999666748
45,298,242313,6,0,P|74:246|127:226,1,109.199999333496,2|0,0:0|0:0,0:0:0:0:
151,230,242742,1,0,0:0:0:0:
151,230,242885,1,8,0:0:0:0:
231,266,243170,1,0,0:0:0:0:
289,191,243456,6,0,P|271:152|233:99,1,109.199999333496,2|0,0:0|0:0,0:0:0:0:
205,136,243885,1,0,0:0:0:0:
205,136,244027,2,0,P|171:142|141:145,1,54.599999666748,8|0,0:0|0:0,0:0:0:0:
266,73,244313,2,0,P|300:79|330:82,1,54.599999666748
408,145,244599,6,0,P|402:108|405:81,1,54.599999666748,2|0,0:0|0:0,0:0:0:0:
349,215,244885,2,0,P|372:236|408:255,1,54.599999666748
421,141,245170,2,0,P|405:106|401:79,1,54.599999666748,8|0,0:0|0:0,0:0:0:0:
382,223,245456,2,0,P|409:237|449:246,1,54.599999666748
284,175,245742,6,0,P|276:223|301:284,1,109.199999333496,2|0,0:0|0:0,0:0:0:0:
367,354,246170,1,0,0:0:0:0:
326,343,246313,1,8,0:0:0:0:
288,367,246456,1,0,0:0:0:0:
242,344,246599,1,0,0:0:0:0:
199,367,246742,1,0,0:0:0:0:
120,368,246885,6,0,P|116:324|95:261,1,109.199999333496,4|0,0:0|0:0,0:0:0:0:
75,247,247313,1,0,0:0:0:0:
75,247,247456,1,8,0:0:0:0:
107,155,247742,1,0,0:0:0:0:
188,209,248027,6,0,P|242:191|307:203,1,109.199999333496,2|0,0:0|0:0,0:0:0:0:
311,223,248456,1,0,0:0:0:0:
311,223,248599,1,8,0:0:0:0:
336,323,248885,1,0,0:0:0:0:
409,253,249170,6,0,P|404:224|412:191,1,54.599999666748,2|0,0:0|0:0,0:0:0:0:
375,191,249456,2,0,P|385:163|408:138,1,54.599999666748
376,120,249742,2,0,P|398:101|431:91,1,54.599999666748,8|0,0:0|0:0,0:0:0:0:
412,59,250027,2,0,P|441:54|474:61,1,54.599999666748
323,64,250313,6,0,P|299:72|266:77,1,36.399999777832,2|8,0:0|0:0,0:0:0:0:
253,79,250504,1,8,0:0:0:0:
220,64,250599,2,0,P|198:63|177:68,2,36.399999777832,8|8|8,0:0|0:0|0:0,0:0:0:0:
160,70,250885,6,0,L|167:134,1,54.599999666748,2|0,0:0|0:0,0:0:0:0:
237,213,251170,2,0,L|243:158,1,54.599999666748,8|0,0:0|0:0,0:0:0:0:
156,213,251456,6,0,P|148:254|105:307,1,109.199999333496,2|0,0:0|0:0,0:0:0:0:
77,302,251885,1,0,0:0:0:0:
77,302,252027,1,8,0:0:0:0:
154,358,252313,1,0,0:0:0:0:
225,292,252599,6,0,P|264:289|344:311,1,109.199999333496,2|0,0:0|0:0,0:0:0:0:
408,357,253027,1,0,0:0:0:0:
408,357,253170,2,0,P|407:325|400:291,1,54.599999666748,8|0,0:0|0:0,0:0:0:0:
328,221,253456,2,0,P|325:248|318:274,1,54.599999666748
422,216,253742,6,0,P|421:180|403:102,1,109.199999333496,2|0,0:0|0:0,0:0:0:0:
383,99,254170,1,0,0:0:0:0:
383,99,254313,5,2,0:0:0:0:
318,59,254456,1,8,0:0:0:0:
247,69,254599,1,8,0:0:0:0:
205,127,254742,1,8,0:0:0:0:
236,208,254885,6,0,P|193:218|146:194,1,86.1000013137818,2|8,0:0|0:0,0:0:0:0:
109,145,255170,1,8,0:0:0:0:
109,145,255313,1,8,0:0:0:0:
67,232,255456,6,0,P|198:170|283:181,2,214.200001307373,4|0|0,0:0|0:0|0:0,0:0:0:0:
