osu file format v14

[General]
AudioFilename: audio.mp3
AudioLeadIn: 0
PreviewTime: 127366
Countdown: 0
SampleSet: Soft
StackLeniency: 0.2
Mode: 0
LetterboxInBreaks: 0
WidescreenStoryboard: 1

[Editor]
DistanceSpacing: 1
BeatDivisor: 4
GridSize: 16
TimelineZoom: 1.2

[Metadata]
Title:Sugiyuku Hi to Kimi e (feat. nayuta)
TitleUnicode:過ぎゆく日と君へ (feat. nayuta)
Artist:Aiobahn
ArtistUnicode:Aiobahn
Creator:Sakurauchi Riko
Version:Insane
Source:
Tags:phyloukz japanese 春夏秋冬 しゅんかしゅうとう four seasons hanabira electro electronic
BeatmapID:2310806
BeatmapSetID:1078570

[Difficulty]
HPDrainRate:5
CircleSize:4
OverallDifficulty:7.5
ApproachRate:8
SliderMultiplier:1.5
SliderTickRate:1

[Events]
//Background and Video events
0,0,"newbg.jpg",0,0
//Break Periods
//Storyboard Layer 0 (Background)
//Storyboard Layer 1 (Fail)
//Storyboard Layer 2 (Pass)
//Storyboard Layer 3 (Foreground)
//Storyboard Layer 4 (Overlay)
//Storyboard Sound Samples

[TimingPoints]
33,571.428571428571,4,2,1,40,1,0
33,-166.666666666667,4,2,1,40,0,0
1461,-166.666666666667,4,2,4,20,0,0
1747,-166.666666666667,4,2,4,50,0,0
2032,-166.666666666667,4,2,1,40,0,0
2604,-166.666666666667,4,2,4,20,0,0
2890,-166.666666666667,4,2,4,50,0,0
3175,-166.666666666667,4,2,1,40,0,0
3747,-166.666666666667,4,2,4,20,0,0
4032,-166.666666666667,4,2,4,50,0,0
4318,-166.666666666667,4,2,1,40,0,0
6032,-166.666666666667,4,2,4,20,0,0
6318,-166.666666666667,4,2,4,50,0,0
6604,-166.666666666667,4,2,1,40,0,0
7175,-166.666666666667,4,2,4,20,0,0
7461,-166.666666666667,4,2,4,50,0,0
7747,-166.666666666667,4,2,1,40,0,0
8175,-100,4,2,1,30,0,0
8318,-100,4,2,1,40,0,0
8366,-33.3333333333333,4,2,1,50,0,0
8413,-33.3333333333333,4,2,1,60,0,0
8461,-33.3333333333333,4,2,1,70,0,0
8509,-33.3333333333333,4,2,1,80,0,0
8556,-33.3333333333333,4,2,1,90,0,0
8604,-50,4,2,4,60,0,0
8747,-200,4,2,1,30,0,0
9175,-100,4,2,1,60,0,0
10890,-100,4,2,4,60,0,0
11032,-100,4,2,1,60,0,0
12032,-100,4,2,4,60,0,0
12175,-100,4,2,1,60,0,0
13175,-100,4,2,4,60,0,0
13318,-100,4,2,1,60,0,0
13747,-100,4,2,3,60,0,0
15461,-100,4,2,5,60,0,0
15604,-100,4,2,3,60,0,0
16032,-100,4,2,1,60,0,0
17175,-50,4,2,2,60,0,0
17366,-50,4,2,2,60,0,0
17461,-66.6666666666667,4,2,2,60,0,0
17747,-200,4,2,50,60,0,0
18032,-200,4,2,1,60,0,0
18318,-33.3333333333333,4,2,1,80,0,1
18366,-33.3333333333333,4,2,1,50,0,1
18890,-66.6666666666667,4,2,1,80,0,1
19461,-50,4,2,1,80,0,1
20032,-66.6666666666667,4,2,1,80,0,1
21747,-50,4,2,1,80,0,1
22318,-66.6666666666667,4,2,1,80,0,1
24032,-50,4,2,1,80,0,1
24223,-50,4,2,1,5,0,1
24318,-50,4,2,1,80,0,1
24604,-66.6666666666667,4,2,1,80,0,1
26318,-50,4,2,1,80,0,1
27461,-33.3333333333333,4,2,1,80,0,1
27509,-33.3333333333333,4,2,1,50,0,1
28032,-66.6666666666667,4,2,2,80,0,1
28604,-50,4,2,2,80,0,1
29175,-66.6666666666667,4,2,2,80,0,1
30890,-50,4,2,2,80,0,1
31318,-50,4,2,1,80,0,1
31461,-66.6666666666667,4,2,2,80,0,1
33175,-50,4,2,2,80,0,1
33747,-66.6666666666667,4,2,2,80,0,1
35461,-55.5555555555556,4,2,1,80,0,1
35652,-55.5555555555556,4,2,1,5,0,1
35747,-55.5555555555556,4,2,1,80,0,1
35937,-55.5555555555556,4,2,1,5,0,1
36032,-66.6666666666667,4,2,1,80,0,1
36604,-125,4,2,2,40,0,0
37747,-125,4,2,14,40,0,0
38032,-125,4,2,2,40,0,0
38318,-125,4,2,4,40,0,0
38604,-125,4,2,2,40,0,0
38890,-125,4,2,14,40,0,0
39175,-125,4,2,2,40,0,0
39461,-125,4,2,4,40,0,0
39604,-125,4,2,2,40,0,0
40032,-125,4,2,14,40,0,0
40318,-125,4,2,2,40,0,0
40604,-125,4,2,4,40,0,0
40890,-125,4,2,2,40,0,0
41175,-125,4,2,14,40,0,0
41461,-125,4,2,2,40,0,0
42318,-125,4,2,14,40,0,0
42604,-125,4,2,2,40,0,0
42890,-125,4,2,4,40,0,0
43175,-125,4,2,2,40,0,0
43461,-125,4,2,14,40,0,0
43747,-125,4,2,2,40,0,0
44032,-125,4,2,4,40,0,0
44175,-125,4,2,2,40,0,0
44604,-125,4,2,14,40,0,0
44890,-125,4,2,2,40,0,0
45175,-125,4,2,4,40,0,0
45461,-125,4,2,2,40,0,0
45747,-100,4,2,2,50,0,0
46890,-100,4,2,14,50,0,0
47175,-100,4,2,2,50,0,0
47461,-100,4,2,10,50,0,0
47747,-100,4,2,2,50,0,0
48604,-100,4,2,10,50,0,0
48747,-100,4,2,2,50,0,0
49175,-100,4,2,14,50,0,0
49461,-100,4,2,2,50,0,0
49747,-100,4,2,10,50,0,0
50032,-100,4,2,2,50,0,0
50318,-100,4,2,15,50,0,0
50604,-100,4,2,2,50,0,0
51461,-100,4,2,14,50,0,0
51747,-100,4,2,2,50,0,0
52032,-100,4,2,10,50,0,0
52318,-100,4,2,2,50,0,0
52604,-100,4,2,15,50,0,0
53175,-100,4,2,2,50,0,0
53461,-100,4,2,4,50,0,0
53604,-100,4,2,2,50,0,0
53747,-100,4,2,14,50,0,0
54032,-100,4,2,2,50,0,0
54890,-83.3333333333333,4,2,2,60,0,0
56032,-83.3333333333333,4,2,15,60,0,0
56175,-83.3333333333333,4,2,2,60,0,0
56604,-83.3333333333333,4,2,10,60,0,0
56747,-83.3333333333333,4,2,2,60,0,0
57175,-83.3333333333333,4,2,15,60,0,0
57318,-83.3333333333333,4,2,2,60,0,0
57747,-83.3333333333333,4,2,10,60,0,0
57890,-83.3333333333333,4,2,2,60,0,0
58318,-83.3333333333333,4,2,15,60,0,0
58461,-83.3333333333333,4,2,2,60,0,0
58890,-83.3333333333333,4,2,10,60,0,0
59032,-83.3333333333333,4,2,2,60,0,0
59461,-83.3333333333333,4,2,15,60,0,0
59604,-83.3333333333333,4,2,2,60,0,0
60604,-83.3333333333333,4,2,15,60,0,0
60747,-83.3333333333333,4,2,2,60,0,0
61175,-83.3333333333333,4,2,10,60,0,0
61318,-83.3333333333333,4,2,2,60,0,0
61747,-83.3333333333333,4,2,15,60,0,0
61890,-83.3333333333333,4,2,2,60,0,0
62318,-83.3333333333333,4,2,10,60,0,0
62461,-83.3333333333333,4,2,2,60,0,0
62890,-83.3333333333333,4,2,30,60,0,0
63032,-83.3333333333333,4,2,2,5,0,0
63175,-83.3333333333333,4,2,2,60,0,0
63318,-83.3333333333333,4,2,2,5,0,0
63461,-83.3333333333333,4,2,31,60,0,0
63604,-83.3333333333333,4,2,2,5,0,0
63747,-83.3333333333333,4,2,2,60,0,0
64032,-83.3333333333333,4,2,15,60,0,0
64175,-83.3333333333333,4,2,1,60,0,0
65175,-83.3333333333333,4,2,15,60,0,0
65318,-83.3333333333333,4,2,1,60,0,0
65747,-83.3333333333333,4,2,4,60,0,0
65890,-83.3333333333333,4,2,1,60,0,0
66318,-83.3333333333333,4,2,15,60,0,0
66461,-83.3333333333333,4,2,1,60,0,0
66890,-83.3333333333333,4,2,4,60,0,0
67032,-83.3333333333333,4,2,1,60,0,0
67461,-83.3333333333333,4,2,15,60,0,0
67604,-83.3333333333333,4,2,1,60,0,0
68032,-83.3333333333333,4,2,4,60,0,0
68175,-83.3333333333333,4,2,1,60,0,0
68604,-83.3333333333333,4,2,25,60,0,0
68747,-83.3333333333333,4,2,3,60,0,0
69747,-83.3333333333333,4,2,25,60,0,0
69890,-83.3333333333333,4,2,3,60,0,0
70318,-83.3333333333333,4,2,5,60,0,0
70461,-83.3333333333333,4,2,3,60,0,0
70890,-83.3333333333333,4,2,15,60,0,0
71032,-83.3333333333333,4,2,2,60,0,0
72032,-40,4,2,1,60,0,0
72223,-40,4,2,1,5,0,0
72318,-55.5555555555556,4,2,1,60,0,0
72604,-200,4,2,50,60,0,0
72890,-200,4,2,1,60,0,0
73175,-33.3333333333333,4,2,1,70,0,0
73223,-33.3333333333333,4,2,1,50,0,0
73747,-71.4285714285714,4,2,1,70,0,0
74890,-71.4285714285714,4,2,4,70,0,0
75032,-71.4285714285714,4,2,1,70,0,0
76032,-71.4285714285714,4,2,4,70,0,0
76175,-71.4285714285714,4,2,1,70,0,0
77175,-71.4285714285714,4,2,4,70,0,0
77318,-71.4285714285714,4,2,1,70,0,0
79461,-71.4285714285714,4,2,4,70,0,0
79604,-71.4285714285714,4,2,1,70,0,0
80604,-71.4285714285714,4,2,4,70,0,0
80747,-71.4285714285714,4,2,1,70,0,0
81747,-71.4285714285714,4,2,4,70,0,0
82032,-71.4285714285714,4,2,1,70,0,0
82318,-33.3333333333333,4,2,1,70,0,0
82366,-33.3333333333333,4,2,1,50,0,0
82890,-71.4285714285714,4,2,1,70,0,0
84032,-71.4285714285714,4,2,4,70,0,0
84175,-71.4285714285714,4,2,1,70,0,0
85175,-71.4285714285714,4,2,4,70,0,0
85318,-71.4285714285714,4,2,1,70,0,0
86318,-71.4285714285714,4,2,4,70,0,0
86461,-71.4285714285714,4,2,1,70,0,0
88604,-71.4285714285714,4,2,4,70,0,0
88747,-71.4285714285714,4,2,1,70,0,0
90318,-55.5555555555556,4,2,1,70,0,0
90509,-55.5555555555556,4,2,1,5,0,0
90604,-55.5555555555556,4,2,1,70,0,0
90794,-55.5555555555556,4,2,1,5,0,0
90890,-55.5555555555556,4,2,50,70,0,0
91032,-55.5555555555556,4,2,1,70,0,0
91461,-33.3333333333333,4,2,1,80,0,1
91509,-33.3333333333333,4,2,1,50,0,1
92032,-66.6666666666667,4,2,1,80,0,1
92604,-50,4,2,1,80,0,1
93175,-66.6666666666667,4,2,1,80,0,1
94890,-50,4,2,1,80,0,1
95461,-66.6666666666667,4,2,1,80,0,1
97175,-50,4,2,1,80,0,1
97366,-50,4,2,1,5,0,1
97461,-50,4,2,1,80,0,1
97747,-66.6666666666667,4,2,1,80,0,1
99461,-50,4,2,1,80,0,1
100604,-33.3333333333333,4,2,1,80,0,1
100652,-33.3333333333333,4,2,1,50,0,1
101175,-66.6666666666667,4,2,2,80,0,1
101747,-50,4,2,2,80,0,1
102318,-66.6666666666667,4,2,2,80,0,1
104032,-50,4,2,2,80,0,1
104461,-50,4,2,1,80,0,1
104604,-66.6666666666667,4,2,2,80,0,1
106318,-50,4,2,2,80,0,1
106890,-66.6666666666667,4,2,2,80,0,1
108604,-55.5555555555556,4,2,1,80,0,1
108794,-55.5555555555556,4,2,1,5,0,1
108890,-55.5555555555556,4,2,1,80,0,1
109080,-55.5555555555556,4,2,1,5,0,1
109175,-66.6666666666667,4,2,1,80,0,1
109747,-125,4,2,2,50,0,0
110890,-125,4,2,14,50,0,0
111175,-125,4,2,2,50,0,0
111461,-125,4,2,10,50,0,0
111747,-125,4,2,2,50,0,0
112032,-125,4,2,14,50,0,0
112318,-125,4,2,2,50,0,0
112604,-125,4,2,10,50,0,0
112747,-125,4,2,2,50,0,0
113175,-125,4,2,14,50,0,0
113461,-125,4,2,2,50,0,0
113747,-125,4,2,10,50,0,0
114032,-125,4,2,2,50,0,0
114318,-125,4,2,14,50,0,0
114604,-125,4,2,2,50,0,0
115461,-125,4,2,14,50,0,0
115747,-125,4,2,2,50,0,0
116032,-125,4,2,10,50,0,0
116318,-125,4,2,2,50,0,0
118175,-125,4,2,2,5,0,0
118318,-125,4,2,2,50,0,0
118461,-125,4,2,2,5,0,0
118604,-125,4,2,2,50,0,0
118747,-125,4,2,2,5,0,0
118890,-100,4,2,2,50,0,0
120032,-100,4,2,14,50,0,0
120318,-100,4,2,2,50,0,0
120604,-100,4,2,10,50,0,0
120890,-100,4,2,2,50,0,0
121747,-100,4,2,10,50,0,0
121890,-100,4,2,2,50,0,0
122318,-100,4,2,14,50,0,0
122604,-100,4,2,2,50,0,0
122890,-100,4,2,10,50,0,0
123175,-100,4,2,2,50,0,0
123461,-100,4,2,15,50,0,0
123747,-100,4,2,2,50,0,0
124604,-100,4,2,14,50,0,0
124890,-100,4,2,2,50,0,0
125175,-100,4,2,10,50,0,0
125461,-100,4,2,2,50,0,0
125747,-100,4,2,15,50,0,0
126318,-100,4,2,2,50,0,0
126604,-100,4,2,4,50,0,0
126747,-100,4,2,2,50,0,0
126890,-100,4,2,14,50,0,0
127175,-100,4,2,2,50,0,0
128032,-83.3333333333333,4,2,2,60,0,0
129175,-83.3333333333333,4,2,15,60,0,0
129318,-83.3333333333333,4,2,2,60,0,0
129747,-83.3333333333333,4,2,10,60,0,0
129890,-83.3333333333333,4,2,2,60,0,0
130318,-83.3333333333333,4,2,15,60,0,0
130461,-83.3333333333333,4,2,2,60,0,0
130890,-83.3333333333333,4,2,10,60,0,0
131032,-83.3333333333333,4,2,2,60,0,0
131461,-83.3333333333333,4,2,15,60,0,0
131604,-83.3333333333333,4,2,2,60,0,0
132032,-83.3333333333333,4,2,10,60,0,0
132175,-83.3333333333333,4,2,2,60,0,0
132604,-83.3333333333333,4,2,15,60,0,0
132747,-83.3333333333333,4,2,2,60,0,0
133747,-83.3333333333333,4,2,15,60,0,0
133890,-83.3333333333333,4,2,2,60,0,0
134318,-83.3333333333333,4,2,10,60,0,0
134461,-83.3333333333333,4,2,2,60,0,0
134890,-83.3333333333333,4,2,15,60,0,0
135032,-83.3333333333333,4,2,2,60,0,0
135461,-83.3333333333333,4,2,10,60,0,0
135604,-83.3333333333333,4,2,2,60,0,0
136032,-83.3333333333333,4,2,100,60,0,0
136175,-83.3333333333333,4,2,2,60,0,0
136604,-83.3333333333333,4,2,10,60,0,0
136747,-83.3333333333333,4,2,2,60,0,0
137175,-83.3333333333333,4,2,15,60,0,0
137318,-83.3333333333333,4,2,1,60,0,0
138318,-83.3333333333333,4,2,15,60,0,0
138461,-83.3333333333333,4,2,1,60,0,0
138890,-83.3333333333333,4,2,4,60,0,0
139032,-83.3333333333333,4,2,1,60,0,0
139461,-83.3333333333333,4,2,15,60,0,0
139604,-83.3333333333333,4,2,1,60,0,0
140032,-83.3333333333333,4,2,4,60,0,0
140175,-83.3333333333333,4,2,1,60,0,0
140604,-83.3333333333333,4,2,15,60,0,0
140747,-83.3333333333333,4,2,1,60,0,0
141175,-83.3333333333333,4,2,4,60,0,0
141318,-83.3333333333333,4,2,1,60,0,0
141747,-83.3333333333333,4,2,25,60,0,0
141890,-83.3333333333333,4,2,3,60,0,0
142890,-83.3333333333333,4,2,25,60,0,0
143032,-83.3333333333333,4,2,3,60,0,0
143461,-83.3333333333333,4,2,5,60,0,0
143604,-83.3333333333333,4,2,3,60,0,0
144032,-83.3333333333333,4,2,15,60,0,0
144175,-83.3333333333333,4,2,2,60,0,0
144604,-83.3333333333333,4,2,2,60,0,0
144747,-83.3333333333333,4,2,1,60,0,0
145175,-40,4,2,1,60,0,0
145366,-40,4,2,1,5,0,0
145461,-55.5555555555556,4,2,1,60,0,0
145747,-200,4,2,50,60,0,0
146032,-200,4,2,1,60,0,0
146318,-55.5555555555556,4,2,1,70,0,0
146890,-71.4285714285714,4,2,1,70,0,0
148032,-71.4285714285714,4,2,4,70,0,0
148175,-71.4285714285714,4,2,1,70,0,0
149175,-71.4285714285714,4,2,4,70,0,0
149318,-71.4285714285714,4,2,1,70,0,0
150318,-71.4285714285714,4,2,4,70,0,0
150461,-71.4285714285714,4,2,1,70,0,0
152604,-71.4285714285714,4,2,4,70,0,0
152747,-71.4285714285714,4,2,1,70,0,0
153747,-71.4285714285714,4,2,4,70,0,0
153890,-71.4285714285714,4,2,1,70,0,0
154890,-71.4285714285714,4,2,4,70,0,0
155032,-71.4285714285714,4,2,1,70,0,0
155461,-55.5555555555556,4,2,1,70,0,0
156032,-71.4285714285714,4,2,1,70,0,0
157175,-71.4285714285714,4,2,4,70,0,0
157318,-71.4285714285714,4,2,1,70,0,0
158318,-71.4285714285714,4,2,4,70,0,0
158461,-71.4285714285714,4,2,1,70,0,0
159461,-71.4285714285714,4,2,4,70,0,0
159604,-71.4285714285714,4,2,1,70,0,0
161747,-71.4285714285714,4,2,4,70,0,0
161890,-71.4285714285714,4,2,1,70,0,0
163461,-55.5555555555556,4,2,1,70,0,0
163652,-55.5555555555556,4,2,1,5,0,0
163747,-55.5555555555556,4,2,1,70,0,0
163937,-55.5555555555556,4,2,1,5,0,0
164032,-55.5555555555556,4,2,50,70,0,0
164175,-55.5555555555556,4,2,1,70,0,0
164604,-66.6666666666667,4,2,1,80,0,1
165747,-50,4,2,1,80,0,1
166318,-66.6666666666667,4,2,1,80,0,1
168032,-50,4,2,1,80,0,1
168604,-66.6666666666667,4,2,1,80,0,1
170318,-50,4,2,1,80,0,1
170509,-50,4,2,1,5,0,1
170604,-50,4,2,1,80,0,1
170890,-66.6666666666667,4,2,1,80,0,1
172604,-50,4,2,1,80,0,1
173747,-66.6666666666667,4,2,2,80,0,1
174890,-50,4,2,2,80,0,1
175461,-66.6666666666667,4,2,2,80,0,1
177175,-50,4,2,2,80,0,1
177604,-50,4,2,1,80,0,1
177747,-66.6666666666667,4,2,2,80,0,1
179461,-50,4,2,2,80,0,1
180032,-66.6666666666667,4,2,2,80,0,1
181747,-55.5555555555556,4,2,1,80,0,1
181937,-55.5555555555556,4,2,1,5,0,1
182032,-55.5555555555556,4,2,1,80,0,1
182223,-55.5555555555556,4,2,1,5,0,1
182318,-66.6666666666667,4,2,1,80,0,1
182890,-125,4,2,1,80,0,0
183175,-125,4,2,1,50,0,0
188890,-100,4,2,1,50,0,0
192032,-125,4,2,1,50,0,0
196890,-100,4,2,1,50,0,0
198890,-200,4,2,1,50,0,0
200390,-100,4,2,1,50,0,0
200532,-100,4,2,1,5,0,0
200604,-125,4,2,50,50,0,0
201032,-125,4,2,1,5,0,0
201175,-33.3333333333333,4,2,1,70,0,0
201223,-33.3333333333333,4,2,1,50,0,0
201747,-71.4285714285714,4,2,1,70,0,0
202890,-71.4285714285714,4,2,4,70,0,0
203032,-71.4285714285714,4,2,1,70,0,0
205175,-71.4285714285714,4,2,4,70,0,0
205318,-71.4285714285714,4,2,1,70,0,0
207461,-71.4285714285714,4,2,4,70,0,0
207604,-71.4285714285714,4,2,1,70,0,0
208604,-71.4285714285714,4,2,4,70,0,0
208747,-71.4285714285714,4,2,1,70,0,0
209747,-71.4285714285714,4,2,4,70,0,0
209890,-71.4285714285714,4,2,1,70,0,0
210318,-33.3333333333333,4,2,1,70,0,0
210366,-33.3333333333333,4,2,1,50,0,0
210890,-71.4285714285714,4,2,1,70,0,0
212032,-71.4285714285714,4,2,4,70,0,0
212175,-71.4285714285714,4,2,1,70,0,0
213175,-71.4285714285714,4,2,4,70,0,0
213318,-71.4285714285714,4,2,1,70,0,0
216604,-71.4285714285714,4,2,4,70,0,0
216747,-71.4285714285714,4,2,1,70,0,0
218318,-55.5555555555556,4,2,1,70,0,0
218509,-55.5555555555556,4,2,1,5,0,0
218604,-55.5555555555556,4,2,1,70,0,0
218794,-55.5555555555556,4,2,1,5,0,0
218890,-55.5555555555556,4,2,50,70,0,0
219032,-55.5555555555556,4,2,1,70,0,0
219461,-33.3333333333333,4,2,1,80,0,1
219509,-33.3333333333333,4,2,1,50,0,1
220032,-55.5555555555556,4,2,1,80,0,1
220604,-43.4782608695652,4,2,1,80,0,1
221175,-55.5555555555556,4,2,1,80,0,1
222890,-43.4782608695652,4,2,1,80,0,1
223461,-55.5555555555556,4,2,1,80,0,1
225175,-43.4782608695652,4,2,1,80,0,1
225366,-43.4782608695652,4,2,1,5,0,1
225461,-43.4782608695652,4,2,1,80,0,1
225747,-55.5555555555556,4,2,1,80,0,1
227461,-43.4782608695652,4,2,1,80,0,1
228604,-33.3333333333333,4,2,2,80,0,1
228652,-33.3333333333333,4,2,1,50,0,1
229175,-55.5555555555556,4,2,2,80,0,1
229747,-43.4782608695652,4,2,2,80,0,1
230318,-55.5555555555556,4,2,2,80,0,1
232032,-43.4782608695652,4,2,2,80,0,1
232461,-43.4782608695652,4,2,1,80,0,1
232604,-55.5555555555556,4,2,2,80,0,1
234318,-43.4782608695652,4,2,2,80,0,1
234890,-55.5555555555556,4,2,2,80,0,1
236604,-47.6190476190476,4,2,1,80,0,1
236794,-47.6190476190476,4,2,1,5,0,1
236890,-47.6190476190476,4,2,1,80,0,1
237080,-47.6190476190476,4,2,1,5,0,1
237175,-55.5555555555556,4,2,1,80,0,1
237747,-50,4,2,1,60,0,0
237794,-50,4,2,1,40,0,0
238318,-100,4,2,1,60,0,0
239461,-100,4,2,4,60,0,0
239604,-100,4,2,1,60,0,0
241747,-100,4,2,4,60,0,0
241890,-100,4,2,1,60,0,0
242318,-125,4,2,1,60,0,0
244032,-125,4,2,4,60,0,0
244175,-125,4,2,1,60,0,0
246890,-50,4,2,1,50,0,0
246937,-50,4,2,1,40,0,0
247461,-142.857142857143,4,2,1,50,0,0
248604,-142.857142857143,4,2,4,50,0,0
248747,-142.857142857143,4,2,1,50,0,0
249747,-142.857142857143,4,2,4,50,0,0
249890,-142.857142857143,4,2,1,50,0,0
251461,-200,4,2,1,40,0,0
253175,-200,4,2,4,40,0,0
253318,-200,4,2,1,40,0,0
254890,-100,4,2,1,60,0,0
256032,-250,4,2,1,50,0,0
256318,-250,4,2,1,40,0,0
256890,-250,4,2,1,30,0,0
257175,-250,4,2,1,20,0,0
257747,-250,4,2,1,10,0,0
258032,-250,4,2,1,5,0,0

[Colours]
Combo1 : 224,196,95
Combo2 : 210,225,255
Combo3 : 115,115,185
Combo4 : 252,215,173
Combo5 : 205,150,114
Combo6 : 134,232,202
Combo7 : 80,220,115
Combo8 : 252,245,120

[HitObjects]
334,212,33,5,2,1:0:0:0:
382,279,318,2,0,L|349:323,1,44.999998626709,0|10,0:0|0:0,0:0:0:0:
177,172,1175,1,2,1:0:0:0:
177,172,1461,1,6,0:3:0:0:
117,87,1747,6,0,L|144:51,1,44.999998626709,14|0,0:3|0:0,0:0:0:0:
264,33,2318,2,0,L|216:46,1,44.999998626709,2|6,1:0|0:3,0:0:0:0:
117,87,2890,102,0,L|144:51,1,44.999998626709,14|0,0:3|0:0,0:0:0:0:
43,71,3461,2,0,L|0:82,1,44.999998626709,2|6,1:0|0:3,0:0:0:0:
117,87,4032,6,0,L|144:51,1,44.999998626709,14|0,0:3|0:0,0:0:0:0:
334,211,4604,101,2,1:0:0:0:
273,273,4890,2,0,L|225:263,1,44.999998626709,0|10,0:0|0:0,0:0:0:0:
386,91,5747,1,2,1:0:0:0:
386,91,6032,1,6,0:3:0:0:
323,167,6318,6,0,L|336:219,1,44.999998626709,14|0,0:3|0:0,0:0:0:0:
339,297,6890,2,0,L|387:267,1,44.999998626709,2|6,1:0|0:3,0:0:0:0:
323,167,7461,102,0,L|336:219,1,44.999998626709,14|0,0:3|0:0,0:0:0:0:
262,256,8032,1,10,1:0:0:0:
226,251,8318,2,0,L|210:263,6,12.5,8|8|8|8|8|8|12,0:0|0:0|0:0|0:0|0:0|0:0|0:3,0:0:0:0:
177,255,8890,1,0,3:0:0:0:
223,165,9175,6,0,P|236:132|246:48,1,112.5,6|0,1:0|0:0,0:0:0:0:
260,74,9747,2,0,B|266:127|266:127|275:165,1,75,2|2,0:0|0:0,0:0:0:0:
370,169,10318,2,0,B|394:186|394:186|468:215,1,75,2|0,1:0|0:0,0:0:0:0:
380,298,10890,1,6,0:3:0:0:
276,318,11175,1,2,0:0:0:0:
83,249,11461,101,2,1:0:0:0:
168,264,11747,2,0,L|173:301,1,37.5,2|0,0:0|0:0,0:0:0:0:
181,240,12032,2,0,L|192:317,1,75,6|2,0:3|0:0,0:0:0:0:
264,197,12604,2,0,P|276:169|319:124,1,75,2|0,1:0|0:0,0:0:0:0:
407,200,13175,1,6,0:3:0:0:
299,179,13461,1,2,0:0:0:0:
157,153,13747,6,0,L|148:92,3,37.5,2|0|2|0,3:0|3:0|3:0|3:0,0:0:0:0:
116,81,14318,2,0,L|107:20,3,37.5,10|0|2|0,3:0|3:0|3:0|3:0,0:0:0:0:
40,141,14890,2,0,P|67:149|94:149,1,37.5,2|0,3:0|3:0,0:0:0:0:
112,130,15175,2,0,P|134:124|159:104,1,37.5,2|0,3:0|3:0,0:0:0:0:
218,149,15461,2,0,P|243:143|271:145,1,37.5,14|0,3:0|3:0,0:0:0:0:
286,171,15747,2,0,P|306:181|334:205,1,37.5,2|0,3:0|3:0,0:0:0:0:
411,102,16032,102,0,L|403:57,2,37.5,2|0|8,1:0|3:0|3:0,0:0:0:0:
438,145,16461,1,8,0:0:0:0:
412,177,16604,1,8,0:0:0:0:
432,200,16747,1,0,3:0:0:0:
432,217,16890,1,8,3:0:0:0:
224,331,17175,2,0,L|330:340,1,75,4|4,3:0|3:0,0:0:0:0:
347,316,17461,2,0,L|246:330,1,56.2500021457673,4|4,3:0|3:0,0:0:0:0:
283,303,17747,6,0,L|300:340,1,37.5,4|0,0:0|0:0,0:0:0:0:
147,141,18318,6,0,L|131:179,9,37.5000014305115,4|8|8|8|8|8|10|8|8|8,1:0|3:0|3:0|3:0|3:0|3:0|3:0|3:0|3:0|3:0,0:0:0:0:
126,69,18890,2,0,P|159:60|202:61,1,56.2500021457673,10|0,1:0|0:0,0:0:0:0:
249,22,19175,2,0,P|280:36|312:64,1,56.2500021457673,2|0,0:0|0:0,0:0:0:0:
457,109,19461,102,0,B|432:117|410:134|410:134|266:146,1,150,6|0,1:0|0:0,0:0:0:0:
290,128,19890,1,0,0:0:0:0:
331,235,20032,2,0,L|314:331,1,56.2500021457673,10|0,1:0|0:0,0:0:0:0:
484,253,20318,2,0,L|470:175,1,56.2500021457673,2|0,0:0|0:0,0:0:0:0:
222,214,20604,5,6,1:0:0:0:
119,151,20890,1,2,0:0:0:0:
98,163,21032,1,0,0:0:0:0:
47,151,21175,2,0,P|80:171|98:196,1,56.2500021457673,10|0,1:0|0:0,0:0:0:0:
86,82,21461,2,0,P|105:61|130:48,1,56.2500021457673,2|0,0:0|0:0,0:0:0:0:
223,215,21747,102,0,B|201:307|201:307|192:345|222:366,1,150,6|0,1:0|0:0,0:0:0:0:
230,347,22175,1,0,3:0:0:0:
296,296,22318,2,0,L|373:312,1,56.2500021457673,10|0,1:0|0:0,0:0:0:0:
445,313,22604,2,0,L|404:382,1,56.2500021457673,2|0,0:0|0:0,0:0:0:0:
381,158,22890,5,4,1:0:0:0:
319,78,23175,1,2,0:0:0:0:
345,81,23318,1,0,0:0:0:0:
383,46,23461,2,0,P|409:36|446:38,1,56.2500021457673,10|0,1:0|0:0,0:0:0:0:
282,10,23747,2,0,P|256:0|219:2,1,56.2500021457673,2|0,0:0|0:0,0:0:0:0:
155,197,24032,102,0,B|193:161|193:161|242:75,1,150,6|2,1:0|0:0,0:0:0:0:
217,82,24461,1,0,0:0:0:0:
298,184,24604,2,0,L|308:275,1,56.2500021457673,10|0,1:0|0:0,0:0:0:0:
418,349,24890,2,0,L|480:366,1,56.2500021457673,2|0,0:0|0:0,0:0:0:0:
434,192,25175,6,0,L|355:218,1,56.2500021457673,6|0,1:0|0:0,0:0:0:0:
251,264,25461,1,2,0:0:0:0:
227,248,25604,1,0,0:0:0:0:
184,277,25747,2,0,L|105:303,1,56.2500021457673,10|0,1:0|0:0,0:0:0:0:
42,326,26032,2,0,L|108:378,1,56.2500021457673,2|0,0:0|0:0,0:0:0:0:
137,199,26318,102,0,B|132:165|124:139|124:139|86:100|69:60,1,150,6|10,1:0|0:0,0:0:0:0:
106,85,26675,2,0,L|79:132,1,37.5,8|8,0:0|0:0,0:0:0:0:
216,64,26890,2,0,B|213:55|213:55|305:70|298:114|400:128|400:128|392:118,1,225,14|0,1:0|0:0,0:0:0:0:
390,5,27461,6,0,L|371:37,9,37.5000014305115,4|8|8|8|8|8|10|8|8|8,1:0|3:0|3:0|3:0|3:0|3:0|3:0|3:0|3:0|3:0,0:0:0:0:
289,67,28032,2,0,P|310:100|320:149,1,56.2500021457673,10|0,1:0|0:0,0:0:0:0:
401,128,28318,2,0,P|393:166|377:199,1,56.2500021457673,2|0,0:0|0:0,0:0:0:0:
253,248,28604,102,0,B|293:279|351:291|351:291|393:328,1,150,6|0,1:0|0:0,0:0:0:0:
374,294,29032,1,0,0:0:0:0:
251,353,29175,2,0,L|183:367,1,56.2500021457673,10|0,1:0|0:0,0:0:0:0:
115,270,29461,2,0,L|178:305,1,56.2500021457673,2|0,0:0|0:0,0:0:0:0:
193,67,29747,5,6,1:0:0:0:
242,145,30032,1,2,0:0:0:0:
220,154,30175,1,0,0:0:0:0:
187,194,30318,2,0,P|161:180|98:174,1,56.2500021457673,10|0,1:0|0:0,0:0:0:0:
0,222,30604,2,0,P|26:214|51:202,1,56.2500021457673,2|0,0:0|0:0,0:0:0:0:
307,248,30890,102,0,B|327:198|327:198|338:93,1,150,6|0,1:0|0:0,0:0:0:0:
321,116,31318,1,0,3:0:0:0:
409,173,31461,2,0,L|491:156,1,56.2500021457673,10|0,1:0|0:0,0:0:0:0:
512,227,31747,2,0,L|459:275,1,56.2500021457673,2|0,0:0|0:0,0:0:0:0:
234,160,32032,5,4,1:0:0:0:
144,97,32318,1,2,0:0:0:0:
150,72,32461,1,0,0:0:0:0:
195,56,32604,2,0,P|194:29|181:0,1,56.2500021457673,10|0,1:0|0:0,0:0:0:0:
273,32,32890,2,0,P|302:52|337:62,1,56.2500021457673,2|0,0:0|0:0,0:0:0:0:
360,223,33175,102,0,B|265:247|265:247|228:256|219:290,1,150,4|0,1:0|0:0,0:0:0:0:
219,304,33604,1,0,0:0:0:0:
140,225,33747,1,10,1:0:0:0:
106,258,33890,1,2,0:0:0:0:
157,239,34032,1,2,0:0:0:0:
273,32,34318,5,6,1:0:0:0:
401,112,34604,1,2,0:0:0:0:
369,101,34747,1,8,0:0:0:0:
338,202,34890,1,10,1:0:0:0:
305,159,35032,1,0,3:0:0:0:
324,168,35175,1,2,3:0:0:0:
71,166,35461,102,0,L|91:76,1,67.4999979400635,10|0,0:0|0:0,0:0:0:0:
63,21,35747,2,0,L|75:90,1,67.4999979400635,10|0,0:0|0:0,0:0:0:0:
196,71,36032,1,10,0:0:0:0:
210,47,36175,1,2,0:0:0:0:
231,98,36318,1,2,0:0:0:0:
200,333,36604,6,0,B|153:343|153:343|115:367|74:376,2,120,0|0|6,1:0|1:0|1:3,0:0:0:0:
191,206,38318,2,0,L|159:268,1,60,6|0,1:3|0:0,0:0:0:0:
349,66,38890,2,0,B|386:85|386:85|457:160,1,120,6|6,1:3|1:3,0:0:0:0:
250,118,40032,2,0,L|226:42,1,60,6|0,1:3|0:0,0:0:0:0:
139,46,40604,1,6,1:3:0:0:
223,324,41175,102,0,B|259:305|259:305|304:306|344:292,1,120,6|0,1:3|1:0,0:0:0:0:
439,147,42318,2,0,P|411:129|383:96,1,60,6|0,1:3|0:0,0:0:0:0:
302,140,42890,2,0,P|290:168|283:204,1,60,6|0,1:3|0:0,0:0:0:0:
174,78,43461,1,6,1:3:0:0:
337,294,44032,2,0,L|282:347,1,60,6|0,1:3|0:0,0:0:0:0:
155,290,44604,2,0,L|222:277,1,60,6|0,1:3|0:0,0:0:0:0:
174,78,45175,1,6,1:3:0:0:
453,205,45747,5,6,1:0:0:0:
371,121,46032,2,0,B|359:148|359:148|358:171|349:206,2,75,0|8|0,0:0|1:0|0:0,0:0:0:0:
175,219,46890,2,0,P|142:251|101:272,1,75,6|0,1:3|0:0,0:0:0:0:
0,184,47461,2,0,P|43:193|102:190,1,75,14|0,1:3|0:0,0:0:0:0:
236,323,48032,102,0,B|283:302|321:298|321:298|390:260,1,150,4|14,1:0|1:3,0:0:0:0:
356,262,48747,1,0,0:0:0:0:
391,300,48890,2,0,P|374:365|377:398,1,75,0|6,0:0|1:3,0:0:0:0:
502,229,49461,1,0,0:0:0:0:
370,185,49747,1,14,1:3:0:0:
239,152,50032,1,0,0:0:0:0:
122,288,50318,6,0,L|145:367,2,75,14|0|8,1:3|0:0|1:0,0:0:0:0:
23,262,51175,1,0,0:0:0:0:
142,360,51461,2,0,L|116:267,1,75,6|0,1:3|0:0,0:0:0:0:
185,220,52032,101,14,1:3:0:0:
152,133,52318,1,0,0:0:0:0:
246,52,52604,2,0,B|325:11|333:74|416:57,1,150,14|8,1:3|1:0,0:0:0:0:
400,53,53461,5,6,0:3:0:0:
336,97,53604,2,0,B|340:112|349:127|349:127|357:127|357:127|379:162|420:167,1,112.5,2|0,0:0|0:0,0:0:0:0:
322,335,54318,2,0,L|332:279,1,37.5,6|4,3:0|3:0,0:0:0:0:
338,355,54604,1,6,3:0:0:0:
146,200,54890,102,0,P|121:210|73:214,3,44.999998626709,6|0|0|0,1:0|0:0|0:0|0:0,0:0:0:0:
117,201,55461,2,0,P|99:259|81:283,1,89.9999972534181,10|2,1:0|0:0,0:0:0:0:
109,324,55890,1,0,0:0:0:0:
221,301,56032,2,0,P|242:305|263:314,3,44.999998626709,14|0|0|0,1:3|0:0|0:0|0:0,0:0:0:0:
264,301,56604,2,0,P|310:303|373:275,1,89.9999972534181,14|2,1:3|0:0,0:0:0:0:
379,253,57032,1,0,0:0:0:0:
320,165,57175,6,0,L|334:108,1,44.999998626709,14|0,1:3|0:0,0:0:0:0:
248,25,57461,2,0,B|231:85|231:85|214:97|187:130,1,89.9999972534181,2|14,0:0|1:3,0:0:0:0:
427,157,58032,2,0,B|444:97|444:97|461:85|488:52,1,89.9999972534181,2|14,0:0|1:3,0:0:0:0:
136,338,58890,1,14,1:3:0:0:
93,331,59032,1,2,0:0:0:0:
126,327,59175,1,2,0:0:0:0:
276,165,59461,102,0,P|300:157|328:137,3,44.999998626709,14|0|0|0,1:3|0:0|0:0|0:0,0:0:0:0:
320,165,60032,2,0,P|337:182|374:201,1,44.999998626709,10|0,1:0|0:0,0:0:0:0:
419,234,60318,2,0,P|450:230|485:209,1,44.999998626709,2|0,0:0|0:0,0:0:0:0:
357,323,60604,2,0,B|324:328|324:328|297:347|255:357,1,89.9999972534181,14|2,1:3|0:0,0:0:0:0:
93,331,61175,2,0,B|126:326|126:326|153:307|195:297,1,89.9999972534181,14|2,1:3|0:0,0:0:0:0:
228,53,61747,6,0,L|238:98,1,44.999998626709,14|0,1:3|0:0,0:0:0:0:
314,95,62032,2,0,L|304:140,1,44.999998626709,2|0,0:0|0:0,0:0:0:0:
173,156,62318,2,0,L|112:58,1,89.9999972534181,14|2,1:3|0:0,0:0:0:0:
387,233,62890,101,14,1:3:0:0:
393,228,63175,1,4,3:0:0:0:
398,223,63461,1,14,1:3:0:0:
403,219,63747,1,6,3:0:0:0:
92,277,64032,6,0,P|119:280|157:303,1,44.999998626709,12|0,1:3|0:0,0:0:0:0:
45,333,64318,2,0,P|18:330|-20:307,1,44.999998626709,2|0,0:0|0:0,0:0:0:0:
94,200,64604,2,0,B|91:172|84:147|84:147|92:127|97:95,1,89.9999972534181,10|2,0:0|0:0,0:0:0:0:
84,80,65032,1,0,0:0:0:0:
187,136,65175,2,0,L|263:123,1,44.999998626709,14|0,1:3|0:0,0:0:0:0:
273,64,65461,2,0,L|307:103,1,44.999998626709,2|0,0:0|0:0,0:0:0:0:
460,97,65747,1,14,1:3:0:0:
375,168,66032,1,2,0:0:0:0:
512,349,66318,101,14,1:3:0:0:
353,257,66604,1,2,0:0:0:0:
174,296,66890,1,14,1:3:0:0:
152,384,67176,1,2,0:0:0:0:
197,162,67461,6,0,L|143:152,3,44.999998626709,14|0|0|0,1:3|0:0|0:0|0:0,0:0:0:0:
130,121,68032,1,14,1:3:0:0:
140,174,68175,1,2,0:0:0:0:
152,154,68318,1,2,0:0:0:0:
343,95,68604,102,0,P|366:88|408:90,3,44.999998626709,14|0|2|0,3:0|3:0|3:0|3:0,0:0:0:0:
466,163,69175,2,0,P|444:156|422:154,3,44.999998626709,10|0|2|0,3:0|3:0|3:0|3:0,0:0:0:0:
379,239,69747,2,0,L|395:301,1,44.999998626709,14|0,3:0|3:0,0:0:0:0:
362,357,70032,2,0,L|327:328,1,44.999998626709,2|0,3:0|3:0,0:0:0:0:
241,259,70318,2,0,L|158:282,1,44.999998626709,14|0,3:3|3:0,0:0:0:0:
211,235,70604,2,0,L|143:253,1,44.999998626709,2|0,3:0|3:0,0:0:0:0:
96,157,70890,6,0,P|71:154|37:137,2,44.999998626709,14|0|0,1:3|3:0|0:0,0:0:0:0:
156,115,71318,1,8,0:0:0:0:
175,24,71461,1,8,0:0:0:0:
172,97,71604,1,0,3:0:0:0:
150,66,71747,1,0,3:0:0:0:
392,209,72032,2,0,L|254:226,1,93.75,8|0,0:0|0:0,0:0:0:0:
254,200,72318,2,0,L|360:212,1,67.4999979400635,8|8,0:0|0:0,0:0:0:0:
331,243,72604,6,0,L|319:203,1,37.5,4|0,0:0|0:0,0:0:0:0:
59,335,73175,6,0,P|81:333|111:317,9,37.5000014305115,4|8|8|8|8|8|10|8|8|8,1:0|3:0|3:0|3:0|3:0|3:0|3:0|3:0|3:0|3:0,0:0:0:0:
170,271,73747,2,0,B|186:290|186:290|212:346,1,52.4999983978272,2|0,0:0|0:0,0:0:0:0:
268,341,74032,2,0,B|273:320|273:320|300:269,1,52.4999983978272,2|0,0:0|0:0,0:0:0:0:
410,323,74318,6,0,P|460:329|530:361,1,104.999996795654,2|0,1:0|0:0,0:0:0:0:
499,328,74747,1,0,0:0:0:0:
453,243,74890,2,0,P|470:225|507:209,1,52.4999983978272,14|0,1:3|0:0,0:0:0:0:
391,158,75175,2,0,P|380:187|385:234,1,52.4999983978272,2|0,0:0|0:0,0:0:0:0:
170,271,75461,101,6,1:0:0:0:
216,171,75747,2,0,L|294:186,1,52.4999983978272,2|0,0:0|0:0,0:0:0:0:
151,52,76032,2,0,B|111:60|111:60|35:99,1,104.999996795654,14|2,1:3|0:0,0:0:0:0:
38,84,76604,5,2,1:0:0:0:
111,145,76794,2,0,B|119:191|89:192|82:232,1,87.499997329712,8|8,0:0|0:0,0:0:0:0:
148,315,77175,2,0,L|170:390,1,52.4999983978272,14|0,1:3|0:0,0:0:0:0:
74,340,77461,2,0,L|122:303,1,52.4999983978272,2|0,0:0|0:0,0:0:0:0:
370,230,77747,5,4,1:0:0:0:
402,321,78032,2,0,P|434:332|467:335,1,52.4999983978272,2|0,0:0|0:0,0:0:0:0:
370,230,78318,2,0,P|338:241|305:244,1,52.4999983978272,2|0,1:0|0:0,0:0:0:0:
263,196,78604,2,0,P|233:190|199:170,1,52.4999983978272,2|0,0:0|0:0,0:0:0:0:
171,28,78890,5,2,1:0:0:0:
84,86,79175,1,2,0:0:0:0:
107,78,79318,1,0,0:0:0:0:
141,101,79461,2,0,B|159:108|159:108|211:113,1,52.4999983978272,14|0,1:3|0:0,0:0:0:0:
259,66,79747,2,0,B|280:64|280:64|324:48,1,52.4999983978272,2|0,0:0|0:0,0:0:0:0:
437,123,80032,101,6,1:0:0:0:
72,269,80318,1,2,0:0:0:0:
295,209,80604,1,14,1:3:0:0:
215,168,80890,1,2,0:0:0:0:
244,350,81175,5,6,1:0:0:0:
261,236,81461,2,0,L|267:203,3,26.2499991989136,10|8|8|8,0:0|0:0|0:0|0:0,0:0:0:0:
252,186,81747,2,0,B|240:137|240:137|199:93|181:36,1,157.499995193482,14|0,1:3|3:0,0:0:0:0:
400,114,82318,38,0,P|421:120|450:123,9,37.5000014305115,4|8|8|8|8|8|10|8|8|8,1:0|3:0|3:0|3:0|3:0|3:0|3:0|3:0|3:0|3:0,0:0:0:0:
474,213,82890,2,0,B|446:219|446:219|396:243,1,52.4999983978272,2|0,1:0|0:0,0:0:0:0:
449,301,83175,2,0,B|448:328|448:328|441:365,1,52.4999983978272,2|0,0:0|0:0,0:0:0:0:
291,292,83461,6,0,P|251:273|179:266,1,104.999996795654,2|0,1:0|0:0,0:0:0:0:
212,252,83890,1,0,0:0:0:0:
213,165,84032,2,0,L|231:101,1,52.4999983978272,14|0,1:3|0:0,0:0:0:0:
294,74,84318,2,0,L|313:10,1,52.4999983978272,2|0,0:0|0:0,0:0:0:0:
24,127,84604,101,6,1:0:0:0:
90,54,84890,2,0,P|119:56|160:76,1,52.4999983978272,2|0,0:0|0:0,0:0:0:0:
327,86,85175,2,0,B|291:100|291:100|244:98|192:133,1,104.999996795654,14|2,1:3|0:0,0:0:0:0:
208,106,85747,5,2,1:0:0:0:
264,191,85937,2,0,P|235:227|216:275,1,87.499997329712,8|8,0:0|0:0,0:0:0:0:
320,372,86318,2,0,L|289:311,1,52.4999983978272,14|0,1:3|0:0,0:0:0:0:
391,348,86604,2,0,L|460:364,1,52.4999983978272,2|0,0:0|0:0,0:0:0:0:
218,264,86890,69,4,1:0:0:0:
136,352,87175,2,0,P|107:365|57:369,1,52.4999983978272,2|0,0:0|0:0,0:0:0:0:
0,274,87461,2,0,P|29:287|79:291,1,52.4999983978272,10|0,1:0|0:0,0:0:0:0:
103,231,87747,2,0,P|128:225|152:213,1,52.4999983978272,2|0,0:0|0:0,0:0:0:0:
240,14,88032,5,2,1:0:0:0:
184,98,88318,2,0,L|201:159,1,52.4999983978272,2|0,0:0|0:0,0:0:0:0:
278,161,88604,1,14,1:3:0:0:
301,151,88747,1,2,0:0:0:0:
346,187,88890,1,2,0:0:0:0:
465,295,89175,102,0,P|435:333|383:312,1,104.999996795654,6|2,1:0|0:0,0:0:0:0:
359,283,89604,1,8,0:0:0:0:
267,333,89747,2,0,P|291:350|322:331,1,52.4999983978272,10|0,1:0|3:0,0:0:0:0:
346,187,90032,1,2,3:0:0:0:
167,49,90318,6,0,L|137:151,1,67.4999979400635,10|0,0:0|0:0,0:0:0:0:
177,195,90604,2,0,L|155:116,1,67.4999979400635,10|0,0:0|0:0,0:0:0:0:
78,140,90890,1,14,0:0:0:0:
108,119,91032,1,2,0:0:0:0:
184,159,91175,1,2,0:0:0:0:
397,83,91461,38,0,L|410:39,10,37.5000014305115,4|8|8|8|8|8|10|8|8|8|8,1:0|3:0|3:0|3:0|3:0|3:0|3:0|3:0|3:0|3:0|3:0,0:0:0:0:
423,170,92032,2,0,P|392:170|342:190,1,56.2500021457673,10|0,1:0|0:0,0:0:0:0:
343,252,92318,2,0,P|315:245|287:245,1,56.2500021457673,2|0,0:0|0:0,0:0:0:0:
119,211,92604,22,0,B|148:306|148:306|152:370,1,150,6|0,1:0|0:0,0:0:0:0:
130,381,93032,1,0,0:0:0:0:
41,312,93175,2,0,L|54:236,1,56.2500021457673,10|0,1:0|0:0,0:0:0:0:
242,165,93461,2,0,L|201:218,1,56.2500021457673,2|0,0:0|0:0,0:0:0:0:
72,18,93747,53,4,1:0:0:0:
163,108,94032,1,2,0:0:0:0:
188,98,94175,1,0,0:0:0:0:
223,56,94318,2,0,P|254:71|298:71,1,56.2500021457673,10|0,1:0|0:0,0:0:0:0:
386,52,94604,2,0,P|368:82|364:125,1,56.2500021457673,2|0,0:0|0:0,0:0:0:0:
276,332,94890,86,0,B|295:279|293:237|293:237|337:146,1,150,6|0,1:0|0:0,0:0:0:0:
336,177,95318,1,0,3:0:0:0:
215,241,95461,2,0,L|140:264,1,56.2500021457673,10|0,1:0|0:0,0:0:0:0:
113,359,95747,2,0,L|188:335,1,56.2500021457673,2|0,0:0|0:0,0:0:0:0:
456,381,96032,69,4,1:0:0:0:
372,286,96318,2,0,P|380:326|400:361,1,56.2500021457673,2|0,0:0|0:0,0:0:0:0:
431,210,96604,2,0,P|399:197|370:170,1,56.2500021457673,10|0,1:0|0:0,0:0:0:0:
364,103,96890,2,0,P|341:86|315:76,1,56.2500021457673,2|0,0:0|0:0,0:0:0:0:
166,215,97175,22,0,B|208:187|208:187|326:153,1,150,6|2,1:0|0:0,0:0:0:0:
290,182,97604,1,0,0:0:0:0:
171,116,97747,2,0,L|196:35,1,56.2500021457673,10|0,1:0|0:0,0:0:0:0:
240,266,98032,2,0,L|215:347,1,56.2500021457673,2|0,0:0|0:0,0:0:0:0:
3,282,98318,53,6,1:0:0:0:
125,220,98604,1,2,0:0:0:0:
147,236,98747,1,0,0:0:0:0:
185,206,98890,2,0,P|213:187|270:183,1,56.2500021457673,10|0,1:0|0:0,0:0:0:0:
318,248,99175,2,0,P|344:239|367:222,1,56.2500021457673,2|0,0:0|0:0,0:0:0:0:
464,89,99461,86,0,B|438:82|415:61|415:61|302:35,1,150,6|10,1:0|0:0,0:0:0:0:
353,29,99818,2,0,L|383:84,1,37.5,8|8,0:0|0:0,0:0:0:0:
372,185,100032,2,0,B|367:176|367:176|315:254|352:279|293:363|293:363|291:350,1,225,14|0,1:0|0:0,0:0:0:0:
155,320,100604,38,0,L|105:331,9,37.5000014305115,4|8|8|8|8|8|10|8|8|8,1:0|3:0|3:0|3:0|3:0|3:0|3:0|3:0|3:0|3:0,0:0:0:0:
19,324,101175,2,0,L|38:403,1,56.2500021457673,10|0,1:0|0:0,0:0:0:0:
70,265,101461,2,0,L|100:187,1,56.2500021457673,2|0,0:0|0:0,0:0:0:0:
243,112,101747,22,0,B|283:96|283:96|323:46|416:21,1,150,6|0,1:0|0:0,0:0:0:0:
379,15,102175,1,0,0:0:0:0:
367,126,102318,2,0,P|353:161|353:209,1,56.2500021457673,10|0,1:0|0:0,0:0:0:0:
453,256,102604,2,0,P|434:229|424:186,1,56.2500021457673,2|0,0:0|0:0,0:0:0:0:
191,198,102890,53,4,1:0:0:0:
162,326,103175,1,2,0:0:0:0:
136,332,103318,1,0,0:0:0:0:
97,295,103461,2,0,B|79:284|79:284|21:277,1,56.2500021457673,10|0,1:0|0:0,0:0:0:0:
3,207,103747,2,0,B|37:202|37:202|55:191,1,56.2500021457673,2|0,0:0|0:0,0:0:0:0:
172,31,104032,86,0,B|192:72|192:72|190:127|217:204,1,150,6|0,1:0|0:0,0:0:0:0:
191,198,104461,1,0,3:0:0:0:
274,106,104604,2,0,P|283:77|304:45,1,56.2500021457673,10|0,1:0|0:0,0:0:0:0:
375,16,104890,2,0,P|389:41|398:68,1,56.2500021457673,2|0,0:0|0:0,0:0:0:0:
436,325,105175,69,4,1:0:0:0:
313,279,105461,1,2,0:0:0:0:
334,272,105604,1,0,0:0:0:0:
369,231,105747,2,0,B|387:241|387:241|425:247,1,56.2500021457673,10|0,1:0|0:0,0:0:0:0:
489,309,106032,2,0,B|471:319|471:319|433:325,1,56.2500021457673,2|0,0:0|0:0,0:0:0:0:
187,260,106318,22,0,B|177:158|177:158|171:121|135:113,1,150,6|2,1:0|0:0,0:0:0:0:
169,95,106747,1,0,0:0:0:0:
88,187,106890,1,10,1:0:0:0:
44,174,107032,1,2,0:0:0:0:
100,173,107175,1,2,0:0:0:0:
491,176,107461,53,6,1:0:0:0:
356,144,107747,1,2,0:0:0:0:
377,158,107890,1,8,0:0:0:0:
263,183,108032,1,10,1:0:0:0:
308,211,108175,1,0,3:0:0:0:
286,220,108318,1,2,3:0:0:0:
98,11,108604,86,0,L|73:117,1,67.4999979400635,10|0,0:0|0:0,0:0:0:0:
115,154,108890,2,0,L|88:56,1,67.4999979400635,10|0,0:0|0:0,0:0:0:0:
211,65,109175,1,10,0:0:0:0:
235,71,109318,1,2,0:0:0:0:
183,91,109461,1,2,0:0:0:0:
382,274,109747,102,0,B|429:284|429:284|467:308|508:317,2,120,0|8|6,1:0|1:0|1:3,0:0:0:0:
251,287,111461,2,0,L|279:363,1,60,14|0,1:3|0:0,0:0:0:0:
17,134,112032,2,0,B|46:61|46:61|77:22,1,120,6|14,1:3|1:3,0:0:0:0:
199,197,113175,2,0,L|281:208,1,60,6|0,1:3|0:0,0:0:0:0:
324,137,113747,1,14,1:3:0:0:
103,254,114318,6,0,B|122:290|122:290|121:335|135:375,1,120,6|8,1:3|1:0,0:0:0:0:
383,309,115461,2,0,P|405:327|443:342,1,60,6|0,1:3|0:0,0:0:0:0:
512,224,116032,2,0,P|482:240|451:244,1,60,14|2,1:3|0:0,0:0:0:0:
448,256,116461,1,8,0:0:0:0:
371,223,116604,102,0,L|348:162,1,60,0|0,1:0|0:0,0:0:0:0:
144,197,117461,2,0,P|125:190|97:187,2,30,2|2|2,0:0|0:0|0:0,0:0:0:0:
109,60,118032,2,0,B|59:70|59:70|45:61,2,60,6|6|6,3:0|3:0|3:0,0:0:0:0:
266,230,118890,5,6,1:0:0:0:
208,295,119175,2,0,B|202:317|202:317|201:346|185:376,2,75,0|8|0,0:0|1:0|0:0,0:0:0:0:
354,314,120032,2,0,P|391:336|442:341,1,75,6|0,1:3|0:0,0:0:0:0:
512,235,120604,2,0,P|475:257|424:262,1,75,14|0,1:3|0:0,0:0:0:0:
308,168,121175,102,0,B|281:68|281:68|274:17,1,150,4|14,1:0|1:3,0:0:0:0:
287,34,121890,1,0,0:0:0:0:
240,56,122032,2,0,P|205:44|152:38,1,75,0|6,0:0|1:3,0:0:0:0:
81,174,122604,1,0,0:0:0:0:
207,143,122890,1,14,1:3:0:0:
344,116,123175,1,0,0:0:0:0:
387,314,123461,6,0,L|342:384,2,75,14|0|8,1:3|0:0|1:0,0:0:0:0:
483,290,124318,1,0,0:0:0:0:
346,377,124604,2,0,L|386:313,1,75,6|0,1:3|0:0,0:0:0:0:
412,217,125175,101,14,1:3:0:0:
337,183,125461,1,0,0:0:0:0:
331,164,125604,2,0,L|307:151,1,18.75,8|8,0:0|0:0,0:0:0:0:
348,126,125747,2,0,B|334:60|280:74|273:-13,1,150,14|8,1:3|1:0,0:0:0:0:
289,11,126604,5,6,0:3:0:0:
246,80,126747,2,0,B|231:70|215:66|215:66|205:71|205:71|171:55|135:64,1,112.5,2|0,0:0|0:0,0:0:0:0:
183,285,127461,2,0,L|194:365,1,75,10|2,1:0|0:0,0:0:0:0:
31,174,128032,102,0,P|64:166|100:142,3,44.999998626709,6|0|0|0,1:0|0:0|0:0|0:0,0:0:0:0:
60,156,128604,2,0,P|107:166|169:207,1,89.9999972534181,10|2,1:0|0:0,0:0:0:0:
180,170,129032,1,0,0:0:0:0:
284,213,129175,2,0,P|293:244|289:285,3,44.999998626709,14|0|0|0,1:3|0:0|0:0|0:0,0:0:0:0:
309,242,129747,2,0,P|348:262|392:271,1,89.9999972534181,14|2,1:3|0:0,0:0:0:0:
429,264,130175,1,0,0:0:0:0:
456,154,130318,6,0,B|420:157|420:157|340:179,1,89.9999972534181,14|2,1:3|0:0,0:0:0:0:
196,77,130890,2,0,B|247:91|247:91|283:94,1,89.9999972534181,14|2,1:3|0:0,0:0:0:0:
250,306,131461,2,0,L|262:373,3,44.999998626709,14|0|0|0,1:3|0:0|0:0|0:0,0:0:0:0:
165,367,132032,1,14,1:3:0:0:
171,348,132175,1,2,0:0:0:0:
118,361,132318,1,2,0:0:0:0:
55,60,132604,102,0,P|39:87|35:127,3,44.999998626709,14|0|0|0,1:3|0:0|0:0|0:0,0:0:0:0:
60,120,133175,2,0,P|82:103|110:96,1,44.999998626709,10|0,1:0|0:0,0:0:0:0:
175,68,133461,2,0,P|200:76|228:99,1,44.999998626709,2|0,0:0|0:0,0:0:0:0:
302,193,133747,2,0,B|320:172|329:143|329:143|364:121,1,89.9999972534181,14|2,1:3|0:0,0:0:0:0:
465,314,134318,2,0,B|447:293|438:264|438:264|403:242,1,89.9999972534181,14|2,1:3|0:0,0:0:0:0:
184,264,134890,6,0,L|239:277,1,44.999998626709,14|0,1:3|0:0,0:0:0:0:
163,338,135175,2,0,L|110:351,1,44.999998626709,2|0,0:0|0:0,0:0:0:0:
116,219,135461,2,0,L|194:151,1,89.9999972534181,14|2,1:3|0:0,0:0:0:0:
422,209,136032,101,14,1:3:0:0:
412,238,136175,1,8,0:0:0:0:
382,168,136318,1,8,0:0:0:0:
408,247,136604,5,14,1:3:0:0:
369,180,136747,1,0,3:0:0:0:
328,116,136890,1,10,0:0:0:0:
194,282,137175,102,0,P|216:294|247:300,1,44.999998626709,12|0,1:3|0:0,0:0:0:0:
184,363,137461,2,0,P|162:375|131:381,1,44.999998626709,2|0,0:0|0:0,0:0:0:0:
131,233,137747,2,0,B|151:176|151:176|157:123,1,89.9999972534181,10|2,0:0|0:0,0:0:0:0:
132,119,138175,1,0,0:0:0:0:
228,125,138318,2,0,L|300:97,1,44.999998626709,14|0,1:3|0:0,0:0:0:0:
325,53,138604,2,0,L|388:95,1,44.999998626709,2|0,0:0|0:0,0:0:0:0:
455,189,138890,1,14,1:3:0:0:
339,167,139175,1,2,0:0:0:0:
183,39,139461,5,14,1:3:0:0:
252,230,139747,1,2,0:0:0:0:
134,315,140032,1,14,0:3:0:0:
46,298,140318,1,2,0:0:0:0:
348,280,140604,102,0,L|402:290,3,44.999998626709,14|0|0|0,1:3|0:0|0:0|0:0,0:0:0:0:
415,321,141175,1,14,0:3:0:0:
405,268,141318,1,2,0:0:0:0:
393,288,141461,1,2,0:0:0:0:
150,163,141747,6,0,P|122:168|91:188,3,44.999998626709,14|0|2|0,3:0|3:0|3:0|3:0,0:0:0:0:
42,127,142318,2,0,P|30:150|30:199,3,44.999998626709,10|0|2|0,3:0|3:0|3:0|3:0,0:0:0:0:
132,50,142890,2,0,L|205:67,1,44.999998626709,14|0,3:0|3:0,0:0:0:0:
247,142,143175,2,0,L|320:159,1,44.999998626709,2|0,3:0|3:0,0:0:0:0:
368,119,143461,2,0,L|441:136,1,44.999998626709,14|0,3:3|3:0,0:0:0:0:
464,182,143747,2,0,L|537:199,1,44.999998626709,2|0,3:0|3:0,0:0:0:0:
344,227,144032,102,0,P|354:251|359:281,2,44.999998626709,14|0|0,1:3|0:0|0:0,0:0:0:0:
279,273,144461,1,8,0:0:0:0:
189,249,144604,1,8,0:0:0:0:
261,256,144747,1,0,3:0:0:0:
231,276,144890,1,8,3:0:0:0:
219,23,145175,2,0,L|191:131,1,93.75,8|0,0:0|0:0,0:0:0:0:
232,182,145461,2,0,L|199:73,1,67.4999979400635,8|8,0:0|0:0,0:0:0:0:
176,107,145747,6,0,L|228:122,1,37.5,4|0,0:0|0:0,0:0:0:0:
50,317,146318,37,4,1:0:0:0:
147,322,146604,1,2,0:0:0:0:
156,344,146747,1,0,0:0:0:0:
181,297,146890,2,0,P|211:302|256:323,1,52.4999983978272,10|0,1:0|0:0,0:0:0:0:
317,329,147175,2,0,P|294:355|286:383,1,52.4999983978272,2|0,0:0|0:0,0:0:0:0:
234,219,147461,6,0,B|216:153|216:153|208:93,1,104.999996795654,2|0,1:0|0:0,0:0:0:0:
224,106,147890,1,0,0:0:0:0:
144,176,148032,2,0,L|87:143,1,52.4999983978272,14|0,1:3|0:0,0:0:0:0:
52,46,148318,2,0,L|109:79,1,52.4999983978272,2|0,0:0|0:0,0:0:0:0:
328,160,148604,101,6,1:0:0:0:
446,102,148890,2,0,P|456:78|480:52,1,52.4999983978272,2|0,0:0|0:0,0:0:0:0:
337,78,149175,2,0,B|297:86|297:86|211:137,1,104.999996795654,14|2,1:3|0:0,0:0:0:0:
221,116,149747,5,2,1:0:0:0:
246,205,149937,2,0,B|260:260|233:254|228:299,1,87.499997329712,8|8,0:0|0:0,0:0:0:0:
120,333,150318,2,0,L|56:351,1,52.4999983978272,14|0,1:3|0:0,0:0:0:0:
0,293,150604,2,0,L|62:309,1,52.4999983978272,2|0,0:0|0:0,0:0:0:0:
246,205,150890,5,4,1:0:0:0:
328,285,151175,2,0,P|357:282|393:262,1,52.4999983978272,2|0,0:0|0:0,0:0:0:0:
428,160,151461,2,0,P|399:157|363:137,1,52.4999983978272,10|0,1:0|0:0,0:0:0:0:
374,71,151747,2,0,P|400:73|424:83,1,52.4999983978272,2|0,0:0|0:0,0:0:0:0:
227,129,152032,5,2,1:0:0:0:
171,58,152318,1,2,0:0:0:0:
148,67,152461,1,0,0:0:0:0:
103,46,152604,2,0,B|95:28|95:28|70:5,1,52.4999983978272,14|0,1:3|0:0,0:0:0:0:
84,144,152890,2,0,B|92:162|92:162|117:185,1,52.4999983978272,2|0,0:0|0:0,0:0:0:0:
289,62,153175,101,6,1:0:0:0:
246,370,153461,1,2,0:0:0:0:
240,177,153747,1,14,1:3:0:0:
286,258,154032,1,2,0:0:0:0:
420,237,154318,5,6,1:0:0:0:
328,216,154604,2,0,L|287:229,3,26.2499991989136,10|8|8|8,0:0|0:0|0:0|0:0,0:0:0:0:
273,197,154890,2,0,B|256:192|239:177|239:177|108:148,1,157.499995193482,14|0,1:3|3:0,0:0:0:0:
36,347,155461,37,4,1:0:0:0:
106,291,155747,1,2,0:0:0:0:
78,284,155890,1,0,0:0:0:0:
129,270,156032,2,0,P|149:250|184:239,1,52.4999983978272,10|0,1:0|0:0,0:0:0:0:
212,171,156318,2,0,P|181:160|144:166,1,52.4999983978272,2|0,0:0|0:0,0:0:0:0:
311,111,156604,6,0,B|337:140|337:140|413:195,1,104.999996795654,2|0,1:0|0:0,0:0:0:0:
407,174,157032,1,0,0:0:0:0:
356,247,157175,2,0,B|359:269|359:269|382:327,1,52.4999983978272,14|0,1:3|0:0,0:0:0:0:
458,381,157461,2,0,B|455:359|455:359|432:301,1,52.4999983978272,2|0,0:0|0:0,0:0:0:0:
229,323,157747,101,6,1:0:0:0:
182,228,158032,2,0,L|258:244,1,52.4999983978272,2|0,0:0|0:0,0:0:0:0:
174,135,158318,2,0,B|173:84|135:81|138:14,1,104.999996795654,14|2,1:3|0:0,0:0:0:0:
128,54,158890,5,2,1:0:0:0:
220,33,159080,2,0,B|256:27|256:27|316:3,1,87.499997329712,8|8,0:0|0:0,0:0:0:0:
424,74,159461,2,0,P|396:63|342:66,1,52.4999983978272,14|0,1:3|0:0,0:0:0:0:
358,146,159747,2,0,P|346:113|347:82,1,52.4999983978272,2|0,0:0|0:0,0:0:0:0:
410,333,160032,69,4,1:0:0:0:
354,262,160318,2,0,B|330:268|330:268|285:291,1,52.4999983978272,2|0,0:0|0:0,0:0:0:0:
206,358,160604,2,0,B|191:342|191:342|166:301,1,52.4999983978272,10|0,1:0|0:0,0:0:0:0:
97,330,160890,2,0,B|80:318|80:318|20:308,1,52.4999983978272,2|0,0:0|0:0,0:0:0:0:
156,112,161175,5,2,1:0:0:0:
106,230,161461,2,0,L|150:194,1,52.4999983978272,2|0,0:0|0:0,0:0:0:0:
223,169,161747,1,14,1:3:0:0:
242,184,161890,1,2,0:0:0:0:
294,162,162032,1,2,0:0:0:0:
452,62,162318,102,0,P|418:24|364:65,1,104.999996795654,6|2,1:0|0:0,0:0:0:0:
354,20,162747,1,8,0:0:0:0:
453,154,162890,2,0,P|473:140|511:157,1,52.4999983978272,10|0,1:0|3:0,0:0:0:0:
494,231,163175,1,2,3:0:0:0:
163,270,163461,6,0,L|260:284,1,67.4999979400635,10|0,0:0|0:0,0:0:0:0:
304,288,163747,2,0,L|222:296,1,67.4999979400635,10|0,0:0|0:0,0:0:0:0:
254,208,164032,1,14,0:0:0:0:
265,233,164175,1,2,0:0:0:0:
244,311,164318,1,2,0:0:0:0:
29,35,164604,37,4,1:0:0:0:
89,105,164890,1,2,0:0:0:0:
70,128,165032,1,0,0:0:0:0:
125,120,165175,2,0,P|150:134|200:138,1,56.2500021457673,10|0,1:0|0:0,0:0:0:0:
238,91,165461,2,0,P|266:84|294:63,1,56.2500021457673,2|0,0:0|0:0,0:0:0:0:
384,165,165747,22,0,B|362:207|362:207|338:308,1,150,6|0,1:0|0:0,0:0:0:0:
360,294,166175,1,0,0:0:0:0:
268,241,166318,2,0,L|187:261,1,56.2500021457673,10|0,1:0|0:0,0:0:0:0:
221,376,166604,2,0,L|258:318,1,56.2500021457673,2|0,0:0|0:0,0:0:0:0:
125,120,166890,53,4,1:0:0:0:
246,44,167175,1,2,0:0:0:0:
230,65,167318,1,0,0:0:0:0:
178,45,167461,2,0,P|148:32|97:33,1,56.2500021457673,10|0,1:0|0:0,0:0:0:0:
46,72,167747,2,0,P|32:106|37:155,1,56.2500021457673,2|0,0:0|0:0,0:0:0:0:
174,225,168032,86,0,B|220:204|220:204|281:204|334:163,1,150,6|0,1:0|0:0,0:0:0:0:
298,171,168461,1,0,3:0:0:0:
281,274,168604,2,0,L|300:340,1,56.2500021457673,10|0,1:0|0:0,0:0:0:0:
443,335,168890,2,0,L|386:316,1,56.2500021457673,2|0,0:0|0:0,0:0:0:0:
426,70,169175,69,4,1:0:0:0:
422,169,169461,2,0,B|445:165|445:165|493:139,1,56.2500021457673,2|0,0:0|0:0,0:0:0:0:
338,48,169747,2,0,P|304:32|251:38,1,56.2500021457673,10|0,1:0|0:0,0:0:0:0:
191,7,170032,2,0,P|152:24|128:55,1,56.2500021457673,2|0,0:0|0:0,0:0:0:0:
161,230,170318,22,0,B|188:177|188:177|208:66,1,150,6|2,1:0|0:0,0:0:0:0:
190,97,170747,1,0,0:0:0:0:
275,170,170890,2,0,L|291:234,1,56.2500021457673,10|0,1:0|0:0,0:0:0:0:
271,372,171175,2,0,L|224:325,1,56.2500021457673,2|0,0:0|0:0,0:0:0:0:
6,255,171461,53,6,1:0:0:0:
129,238,171747,1,2,0:0:0:0:
152,258,171890,1,0,0:0:0:0:
124,301,172032,2,0,P|112:330|110:371,1,56.2500021457673,10|0,1:0|0:0,0:0:0:0:
61,190,172318,2,0,P|89:165|136:153,1,56.2500021457673,2|0,0:0|0:0,0:0:0:0:
243,59,172604,86,0,B|255:86|286:89|286:89|403:98,1,150,6|10,1:0|0:0,0:0:0:0:
373,79,172961,2,0,L|349:114,1,37.5,8|8,0:0|0:0,0:0:0:0:
454,213,173175,2,0,B|455:202|455:202|365:229|377:271|278:298|278:298|285:286,1,225,14|0,1:0|0:0,0:0:0:0:
443,365,173747,37,4,1:0:0:0:
396,273,174032,1,2,0:0:0:0:
379,294,174175,1,0,0:0:0:0:
359,241,174318,2,0,L|322:181,1,56.2500021457673,10|0,1:0|0:0,0:0:0:0:
252,207,174604,2,0,L|183:188,1,56.2500021457673,2|0,0:0|0:0,0:0:0:0:
94,24,174890,22,0,B|66:63|66:63|63:117|31:198,1,150,6|0,1:0|0:0,0:0:0:0:
32,146,175318,1,0,0:0:0:0:
141,137,175461,2,0,P|167:122|207:115,1,56.2500021457673,10|0,1:0|0:0,0:0:0:0:
297,28,175747,2,0,P|271:13|231:6,1,56.2500021457673,2|0,0:0|0:0,0:0:0:0:
425,166,176032,53,4,1:0:0:0:
275,133,176318,1,2,0:0:0:0:
296,151,176461,1,0,0:0:0:0:
274,201,176604,2,0,L|261:284,1,56.2500021457673,10|0,1:0|0:0,0:0:0:0:
194,288,176890,2,0,L|223:336,1,56.2500021457673,2|0,0:0|0:0,0:0:0:0:
454,382,177175,86,0,B|433:371|417:353|417:353|290:330,1,150,6|0,1:0|0:0,0:0:0:0:
333,323,177604,1,0,3:0:0:0:
223,336,177747,2,0,P|199:357|150:370,1,56.2500021457673,10|0,1:0|0:0,0:0:0:0:
72,289,178032,2,0,P|76:320|89:345,1,56.2500021457673,2|0,0:0|0:0,0:0:0:0:
203,126,178318,69,4,1:0:0:0:
108,200,178604,1,2,0:0:0:0:
128,211,178747,1,0,0:0:0:0:
111,158,178890,2,0,L|129:94,1,56.2500021457673,10|0,1:0|0:0,0:0:0:0:
194,46,179175,2,0,L|270:60,1,56.2500021457673,2|0,0:0|0:0,0:0:0:0:
421,112,179461,22,0,B|392:164|316:153|341:108|244:153,1,150,6|2,1:0|0:0,0:0:0:0:
269,151,179890,1,0,0:0:0:0:
310,229,180032,1,10,1:0:0:0:
295,273,180175,1,2,0:0:0:0:
332,227,180318,1,2,0:0:0:0:
9,129,180604,53,6,1:0:0:0:
111,158,180890,1,2,0:0:0:0:
118,186,181032,1,8,0:0:0:0:
0,231,181175,1,10,1:0:0:0:
46,261,181318,1,0,3:0:0:0:
40,238,181461,1,2,3:0:0:0:
283,34,181747,86,0,L|208:97,1,67.4999979400635,10|0,0:0|0:0,0:0:0:0:
359,30,182032,2,0,L|292:45,1,67.4999979400635,10|0,0:0|0:0,0:0:0:0:
299,147,182318,1,10,0:0:0:0:
310,172,182461,1,2,0:0:0:0:
325,117,182604,1,2,0:0:0:0:
450,359,182890,101,0,0:0:0:0:
362,308,183175,2,0,B|338:300|328:320|304:309,3,60,2|10|2|2,0:0|0:0|0:0|0:0,0:0:0:0:
280,283,184604,2,0,L|240:357,1,60,10|2,0:0|0:0,0:0:0:0:
113,310,185175,2,0,B|137:321|147:301|171:309,3,60,2|2|10|2,0:0|0:0|0:0|0:0,0:0:0:0:
270,267,186318,2,0,L|334:148,1,120,2|10,0:0|0:0,0:0:0:0:
367,88,187175,1,2,0:0:0:0:
148,198,187461,5,0,0:0:0:0:
68,151,187747,2,0,B|60:127|80:117|69:93,3,60,2|10|2|2,0:0|0:0|0:0|0:0,0:0:0:0:
160,19,188890,1,2,0:0:0:0:
107,102,189175,1,10,0:0:0:0:
45,188,189461,1,2,0:0:0:0:
279,92,189747,101,2,0:0:0:0:
256,222,190032,1,2,0:0:0:0:
237,319,190318,1,10,0:0:0:0:
228,367,190604,1,2,0:0:0:0:
344,201,190890,1,2,0:0:0:0:
394,308,191175,1,2,0:0:0:0:
384,87,191461,2,0,L|299:58,2,75,10|0|0,0:0|0:0|0:0,0:0:0:0:
264,143,192318,6,0,B|240:135|230:155|206:144,3,60,2|10|2|2,0:0|0:0|0:0|0:0,0:0:0:0:
178,121,193747,2,0,L|148:189,1,60,10|2,0:0|0:0,0:0:0:0:
101,301,194318,2,0,B|77:293|67:313|43:302,3,60,2|2|10|2,0:0|0:0|0:0|0:0,0:0:0:0:
135,181,195461,2,0,L|197:50,1,120,2|10,0:0|0:0,0:0:0:0:
222,2,196318,1,2,0:0:0:0:
404,171,196604,101,0,0:0:0:0:
324,198,196890,2,0,L|261:186,1,37.5,2|8,0:0|0:0,0:0:0:0:
243,227,197175,2,0,L|280:218,1,37.5,10|0,0:0|0:0,0:0:0:0:
304,241,197461,2,0,L|263:232,1,37.5,2|0,0:0|0:0,0:0:0:0:
275,262,197747,2,0,L|312:253,1,37.5,2|0,0:0|0:0,0:0:0:0:
286,283,198032,2,0,L|275:341,1,37.5,2|0,0:0|0:0,0:0:0:0:
209,376,198318,1,10,0:0:0:0:
205,367,198461,1,2,0:0:0:0:
275,333,198604,1,10,0:0:0:0:
121,262,198890,6,0,L|46:297,1,75,0|0,0:0|0:0,0:0:0:0:
361,190,200032,2,0,P|380:201|394:218,1,37.5,2|0,0:0|0:0,0:0:0:0:
424,210,200604,2,0,L|316:191,1,90,14|0,0:0|0:0,0:0:0:0:
345,99,201175,38,0,L|389:77,9,37.5000014305115,4|8|8|8|8|8|10|8|8|8,1:0|3:0|3:0|3:0|3:0|3:0|3:0|3:0|3:0|3:0,0:0:0:0:
268,45,201747,2,0,P|241:36|169:39,1,52.4999983978272,10|0,1:0|0:0,0:0:0:0:
173,98,202032,2,0,P|192:124|199:163,1,52.4999983978272,2|0,0:0|0:0,0:0:0:0:
103,253,202318,6,0,B|101:235|92:217|92:217|113:129,1,104.999996795654,2|0,1:0|0:0,0:0:0:0:
119,161,202747,1,0,0:0:0:0:
12,226,202890,2,0,L|-3:285,1,52.4999983978272,14|0,1:3|0:0,0:0:0:0:
92,367,203175,2,0,L|167:338,1,52.4999983978272,2|0,0:0|0:0,0:0:0:0:
379,240,203461,101,6,1:0:0:0:
232,272,203747,2,0,P|253:292|278:302,1,52.4999983978272,2|0,0:0|0:0,0:0:0:0:
312,193,204032,2,0,P|341:163|402:135,1,104.999996795654,10|2,1:0|0:0,0:0:0:0:
401,121,204604,5,2,1:0:0:0:
313,87,204794,2,0,B|268:88|275:53|229:58,1,87.499997329712,10|8,0:0|0:0,0:0:0:0:
126,41,205175,2,0,L|149:110,1,52.4999983978272,14|0,1:3|0:0,0:0:0:0:
62,100,205461,2,0,L|129:130,1,52.4999983978272,2|0,0:0|0:0,0:0:0:0:
317,196,205747,5,4,1:0:0:0:
223,228,206032,2,0,P|200:258|192:295,1,52.4999983978272,2|0,0:0|0:0,0:0:0:0:
73,383,206318,2,0,P|63:351|35:322,1,52.4999983978272,10|0,1:0|0:0,0:0:0:0:
74,255,206604,2,0,P|101:268|119:288,1,52.4999983978272,2|0,0:0|0:0,0:0:0:0:
348,352,206890,5,2,1:0:0:0:
385,260,207175,1,2,0:0:0:0:
372,239,207318,1,0,0:0:0:0:
395,192,207461,2,0,L|466:175,1,52.4999983978272,14|0,1:3|0:0,0:0:0:0:
316,143,207747,2,0,L|258:188,1,52.4999983978272,2|0,0:0|0:0,0:0:0:0:
112,75,208032,101,6,1:0:0:0:
253,327,208318,1,2,0:0:0:0:
194,158,208604,1,14,1:3:0:0:
173,243,208890,1,2,0:0:0:0:
45,255,209175,5,6,1:0:0:0:
145,212,209461,2,0,L|192:219,3,26.2499991989136,10|8|8|8,0:0|0:0|0:0|0:0,0:0:0:0:
170,182,209747,2,0,B|219:137|219:137|231:90|262:51,1,157.499995193482,14|0,1:3|3:0,0:0:0:0:
405,97,210318,38,0,L|454:106,9,37.5000014305115,4|8|8|8|8|8|10|8|8|8,1:0|3:0|3:0|3:0|3:0|3:0|3:0|3:0|3:0|3:0,0:0:0:0:
444,202,210890,2,0,P|448:233|462:262,1,52.4999983978272,10|0,1:0|0:0,0:0:0:0:
427,325,211175,2,0,P|423:356|409:385,1,52.4999983978272,2|0,0:0|0:0,0:0:0:0:
299,240,211461,6,0,B|264:250|230:250|230:250|176:277,1,104.999996795654,2|0,1:0|0:0,0:0:0:0:
182,257,211890,1,0,0:0:0:0:
260,325,212032,2,0,L|249:387,1,52.4999983978272,14|0,1:3|0:0,0:0:0:0:
214,177,212318,2,0,L|229:98,1,52.4999983978272,2|0,0:0|0:0,0:0:0:0:
2,225,212604,101,6,1:0:0:0:
130,185,212890,2,0,P|107:199|81:239,1,52.4999983978272,2|0,0:0|0:0,0:0:0:0:
315,153,213175,2,0,P|346:178|419:206,1,104.999996795654,14|2,1:3|0:0,0:0:0:0:
416,217,213747,5,2,1:0:0:0:
410,127,213937,2,0,B|420:89|420:89|453:39,1,87.499997329712,8|8,0:0|0:0,0:0:0:0:
354,26,214318,2,0,P|327:43|291:49,1,52.4999983978272,10|0,1:0|0:0,0:0:0:0:
229,51,214604,2,0,P|254:58|275:73,1,52.4999983978272,2|0,0:0|0:0,0:0:0:0:
262,302,214890,69,4,1:0:0:0:
146,235,215175,2,0,L|85:254,1,52.4999983978272,2|0,0:0|0:0,0:0:0:0:
40,133,215461,2,0,L|25:192,1,52.4999983978272,10|0,1:0|0:0,0:0:0:0:
81,49,215747,2,0,L|33:5,1,52.4999983978272,2|0,0:0|0:0,0:0:0:0:
229,51,216032,5,2,1:0:0:0:
306,10,216318,2,0,P|316:37|314:72,1,52.4999983978272,2|0,0:0|0:0,0:0:0:0:
264,124,216604,1,14,1:3:0:0:
284,143,216747,1,2,0:0:0:0:
254,182,216890,1,2,0:0:0:0:
418,351,217175,102,0,P|372:369|337:329,1,104.999996795654,6|2,1:0|0:0,0:0:0:0:
343,313,217604,1,8,0:0:0:0:
232,345,217747,2,0,P|215:340|182:365,1,52.4999983978272,10|0,1:0|3:0,0:0:0:0:
58,298,218032,1,2,3:0:0:0:
212,46,218318,6,0,L|238:154,1,67.4999979400635,10|0,0:0|0:0,0:0:0:0:
139,38,218604,2,0,L|211:73,1,67.4999979400635,10|0,0:0|0:0,0:0:0:0:
295,44,218890,1,14,0:0:0:0:
307,22,219032,1,2,0:0:0:0:
351,30,219175,1,2,0:0:0:0:
276,290,219461,38,0,P|268:274|263:240,9,37.5000014305115,4|8|8|8|8|8|10|8|8|8,1:0|3:0|3:0|3:0|3:0|3:0|3:0|3:0|3:0|3:0,0:0:0:0:
171,192,220032,2,0,L|146:274,1,67.4999979400635,10|0,1:0|0:0,0:0:0:0:
2,255,220318,2,0,L|80:234,1,67.4999979400635,2|0,0:0|0:0,0:0:0:0:
280,103,220604,22,0,B|307:112|342:115|342:115|373:147|466:188,1,172.500003290176,6|0,1:0|0:0,0:0:0:0:
465,172,221032,1,0,0:0:0:0:
331,217,221175,2,0,P|336:254|360:308,1,67.4999979400635,10|0,1:0|0:0,0:0:0:0:
413,73,221461,2,0,P|418:36|442:-18,1,67.4999979400635,2|0,0:0|0:0,0:0:0:0:
212,201,221747,53,4,1:0:0:0:
132,122,222032,1,2,0:0:0:0:
101,136,222175,1,0,0:0:0:0:
64,72,222318,2,0,L|1:19,1,67.4999979400635,10|0,1:0|0:0,0:0:0:0:
14,174,222604,2,0,L|-5:263,1,67.4999979400635,2|0,0:0|0:0,0:0:0:0:
133,344,222890,86,0,B|176:309|176:309|242:310|300:285,1,172.500003290176,6|0,1:0|0:0,0:0:0:0:
315,303,223318,1,0,3:0:0:0:
224,216,223461,2,0,P|188:210|142:188,1,67.4999979400635,10|0,1:0|0:0,0:0:0:0:
178,58,223747,2,0,P|193:92|201:153,1,67.4999979400635,2|0,0:0|0:0,0:0:0:0:
467,175,224032,69,4,1:0:0:0:
329,157,224318,2,0,L|393:136,1,67.4999979400635,2|0,0:0|0:0,0:0:0:0:
512,252,224604,2,0,B|513:278|513:278|493:320,1,67.4999979400635,10|0,1:0|0:0,0:0:0:0:
404,323,224890,2,0,B|389:344|389:344|347:365,1,67.4999979400635,2|0,0:0|0:0,0:0:0:0:
164,247,225175,22,0,B|222:207|296:242|259:271|344:272,1,172.500003290176,6|2,1:0|0:0,0:0:0:0:
336,261,225604,1,0,0:0:0:0:
218,311,225747,2,0,L|197:382,1,67.4999979400635,10|0,1:0|0:0,0:0:0:0:
74,254,226032,2,0,L|95:183,1,67.4999979400635,2|0,0:0|0:0,0:0:0:0:
218,11,226318,53,6,1:0:0:0:
143,122,226604,1,2,0:0:0:0:
130,95,226747,1,0,0:0:0:0:
218,119,226890,2,0,P|253:129|326:114,1,67.4999979400635,10|0,1:0|0:0,0:0:0:0:
407,170,227175,2,0,P|442:158|490:120,1,67.4999979400635,2|0,0:0|0:0,0:0:0:0:
246,237,227461,86,0,B|275:272|293:331|293:331|360:384,1,172.500003290176,6|10,1:0|0:0,0:0:0:0:
313,322,227818,2,0,L|255:315,1,43.1250008225441,8|8,0:0|0:0,0:0:0:0:
71,338,228032,2,0,B|77:349|77:349|145:265|107:233|183:144|183:144|184:160,1,258.750004935265,14|0,1:0|0:0,0:0:0:0:
25,44,228604,38,0,P|48:34|74:31,9,37.5000014305115,4|8|8|8|8|8|10|8|8|8,1:0|3:0|3:0|3:0|3:0|3:0|3:0|3:0|3:0|3:0,0:0:0:0:
76,151,229175,2,0,L|141:247,1,67.4999979400635,10|0,1:0|0:0,0:0:0:0:
138,296,229461,2,0,L|230:309,1,67.4999979400635,2|0,0:0|0:0,0:0:0:0:
397,202,229747,22,0,B|359:205|328:199|328:199|282:204|225:237,1,172.500003290176,6|0,1:0|0:0,0:0:0:0:
202,223,230175,1,0,0:0:0:0:
267,109,230318,2,0,P|307:111|353:127,1,67.4999979400635,10|0,1:0|0:0,0:0:0:0:
421,37,230604,2,0,P|463:22|491:3,1,67.4999979400635,2|0,0:0|0:0,0:0:0:0:
199,45,230890,53,4,1:0:0:0:
111,103,231175,1,2,0:0:0:0:
118,135,231318,1,0,0:0:0:0:
50,174,231461,2,0,L|-13:233,1,67.4999979400635,10|0,1:0|0:0,0:0:0:0:
136,268,231747,2,0,L|127:347,1,67.4999979400635,2|0,0:0|0:0,0:0:0:0:
270,204,232032,86,0,B|317:305|317:305|333:339|375:336,1,172.500003290176,6|0,1:0|0:0,0:0:0:0:
353,355,232461,1,0,3:0:0:0:
387,239,232604,2,0,P|417:240|475:259,1,67.4999979400635,10|0,1:0|0:0,0:0:0:0:
202,277,232890,2,0,P|172:276|114:257,1,67.4999979400635,2|0,0:0|0:0,0:0:0:0:
239,17,233175,69,4,1:0:0:0:
340,144,233461,1,2,0:0:0:0:
330,177,233604,1,0,0:0:0:0:
284,85,233747,2,0,B|308:69|308:69|377:55,1,67.4999979400635,10|0,1:0|0:0,0:0:0:0:
486,117,234032,2,0,B|457:120|457:120|389:103,1,67.4999979400635,2|0,0:0|0:0,0:0:0:0:
146,65,234318,22,0,B|122:111|122:111|124:172|96:243,1,172.500003290176,6|2,1:0|0:0,0:0:0:0:
70,249,234747,1,0,0:0:0:0:
147,315,234890,1,10,1:0:0:0:
116,335,235032,1,2,0:0:0:0:
175,384,235175,1,2,0:0:0:0:
320,103,235461,53,4,1:0:0:0:
396,202,235747,1,2,0:0:0:0:
382,250,235890,1,8,0:0:0:0:
274,247,236032,1,10,1:0:0:0:
311,318,236175,1,0,3:0:0:0:
300,266,236318,1,2,3:0:0:0:
116,65,236604,86,0,L|-11:88,1,78.7499975967408,10|0,0:0|0:0,0:0:0:0:
199,104,236890,2,0,L|87:84,1,78.7499975967408,10|0,0:0|0:0,0:0:0:0:
274,48,237175,1,10,0:0:0:0:
292,78,237318,1,2,0:0:0:0:
354,35,237461,1,2,0:0:0:0:
326,282,237747,102,0,L|316:325,9,25,4|8|8|8|8|8|10|8|8|8,1:0|3:0|3:0|3:0|3:0|3:0|3:0|3:0|3:0|3:0,0:0:0:0:
329,321,238318,2,0,L|239:343,1,75,10|2,1:0|0:0,0:0:0:0:
55,245,238890,1,2,1:0:0:0:
131,347,239175,2,0,L|143:302,1,37.5,0|8,0:0|0:0,0:0:0:0:
158,321,239461,2,0,L|142:228,1,75,14|2,1:3|0:0,0:0:0:0:
255,123,240032,6,0,B|291:108|293:138|329:122,3,75,6|2|10|2,1:0|0:0|1:0|0:0,0:0:0:0:
198,48,241175,2,0,B|130:96|189:122|122:172,1,150,2|14,1:0|1:3,0:0:0:0:
39,34,242032,1,2,0:0:0:0:
62,47,242175,1,0,0:0:0:0:
81,101,242318,101,4,1:0:0:0:
299,55,242604,2,0,L|384:33,2,60,2|2|2,0:0|1:0|0:0,0:0:0:0:
224,250,243461,1,2,1:0:0:0:
232,99,243747,2,0,L|291:152,1,60,2|14,0:0|1:3,0:0:0:0:
355,248,244318,1,2,0:0:0:0:
165,347,244604,6,0,B|132:360|134:336|98:347,3,60,6|2|10|2,1:0|0:0|1:0|0:0,0:0:0:0:
69,178,245747,1,6,1:0:0:0:
170,95,246032,2,0,B|171:104|171:104|166:112|166:112|169:120|169:120|164:127|164:127|165:138,1,45,10|8,0:0|0:0,0:0:0:0:
174,128,246318,2,0,L|225:209,1,90,14|0,1:0|0:0,0:0:0:0:
339,186,246890,102,0,L|377:200,9,25,4|8|8|8|8|8|10|8|8|8,1:0|3:0|3:0|3:0|3:0|3:0|3:0|3:0|3:0|3:0,0:0:0:0:
374,186,247461,2,0,L|444:174,1,52.4999983978272,10|2,1:0|0:0,0:0:0:0:
380,91,248032,2,0,L|358:214,1,104.999996795654,2|14,1:0|1:3,0:0:0:0:
345,278,248890,1,2,0:0:0:0:
180,209,249175,5,6,1:0:0:0:
247,257,249461,2,0,L|297:210,2,52.4999983978272,2|14|2,0:0|1:3|0:0,0:0:0:0:
74,201,250318,2,0,L|124:308,1,104.999996795654,0|10,1:0|1:0,0:0:0:0:
131,261,251175,1,2,0:0:0:0:
345,278,251461,101,4,1:0:0:0:
234,292,251747,2,0,L|248:252,3,37.5,2|10|2|2,0:0|1:0|0:0|1:0,0:0:0:0:
259,220,252890,1,2,0:0:0:0:
224,142,253175,2,0,L|234:113,2,18.75,14|2|2,1:3|0:0|0:0,0:0:0:0:
468,184,253747,5,6,1:0:0:0:
383,176,254032,2,0,L|396:201,1,18.75,2|8,0:0|0:0,0:0:0:0:
355,184,254318,2,0,L|325:184,2,18.75,10|0|2,1:0|0:0|0:0,0:0:0:0:
292,81,254890,2,0,L|204:115,1,75,2|2,3:0|3:0,0:0:0:0:
30,41,255461,1,10,0:0:0:0:
134,60,255747,1,2,0:0:0:0:
69,114,256032,5,0,1:0:0:0:
