osu file format v14

[General]
AudioFilename: audio.mp3
AudioLeadIn: 0
PreviewTime: 18313
Countdown: 0
SampleSet: Drum
StackLeniency: 1
Mode: 3
LetterboxInBreaks: 0
SpecialStyle: 0
WidescreenStoryboard: 0

[Editor]
DistanceSpacing: 1
BeatDivisor: 4
GridSize: 4
TimelineZoom: 1

[Metadata]
Title:Sugiyuku Hi to Kimi e (feat. nayuta)
TitleUnicode:過ぎゆく日と君へ (feat. nayuta)
Artist:Aiobahn
ArtistUnicode:Aiobahn
Creator:Feerum
Version:Easy
Source:
Tags:アイオバーン electronic progressive house japanese hanabira bunko passing days
BeatmapID:2353498
BeatmapSetID:1126358

[Difficulty]
HPDrainRate:6.5
CircleSize:4
OverallDifficulty:6.5
ApproachRate:10
SliderMultiplier:1.4
SliderTickRate:1

[Events]
//Background and Video events
0,0,"BG.jpg",0,0
//Break Periods
//Storyboard Layer 0 (Background)
//Storyboard Layer 1 (Fail)
//Storyboard Layer 2 (Pass)
//Storyboard Layer 3 (Foreground)
//Storyboard Layer 4 (Overlay)
//Storyboard Sound Samples

[TimingPoints]
171,571.428571428571,4,3,1,50,1,0
18456,-100,4,3,1,70,0,1
36742,-100,4,3,1,50,0,0
91599,-100,4,3,1,70,0,1
109885,-100,4,3,1,50,0,0
164742,-100,4,3,1,70,0,1
183028,-100,4,3,1,50,0,0
219599,-100,4,3,1,70,0,1
237885,-100,4,3,1,40,0,0

[HitObjects]
64,192,171,5,0,0:0:0:0:
320,192,742,1,0,0:0:0:0:
192,192,1313,1,0,0:0:0:0:
448,192,1885,1,0,0:0:0:0:
320,192,2456,1,0,0:0:0:0:
64,192,3028,1,0,0:0:0:0:
448,192,3599,1,0,0:0:0:0:
192,192,4170,1,0,0:0:0:0:
64,192,4742,1,0,0:0:0:0:
320,192,5313,1,0,0:0:0:0:
192,192,5885,1,0,0:0:0:0:
448,192,6456,1,0,0:0:0:0:
320,192,7028,1,0,0:0:0:0:
64,192,7599,1,0,0:0:0:0:
192,192,8170,1,0,0:0:0:0:
448,192,8742,128,0,9313:0:0:0:0:
64,192,9313,1,2,0:0:0:0:
320,192,9885,1,8,0:0:0:0:
192,192,10456,1,2,0:0:0:0:
448,192,11028,1,8,0:0:0:0:
320,192,11599,1,2,0:0:0:0:
192,192,12170,1,8,0:0:0:0:
64,192,12742,1,2,0:0:0:0:
320,192,13313,1,8,0:0:0:0:
192,192,13885,1,2,0:0:0:0:
448,192,14456,1,8,0:0:0:0:
320,192,15028,1,2,0:0:0:0:
64,192,15599,1,8,0:0:0:0:
192,192,16170,128,2,16742:0:0:0:0:
320,192,16742,128,8,17313:0:0:0:0:
448,192,17313,128,2,17885:0:0:0:0:
64,192,17885,1,8,0:0:0:0:
320,192,18456,1,2,0:0:0:0:
192,192,19028,1,8,0:0:0:0:
448,192,19313,1,0,0:0:0:0:
320,192,19599,1,2,0:0:0:0:
64,192,20170,1,8,0:0:0:0:
192,192,20456,1,0,0:0:0:0:
320,192,20742,1,2,0:0:0:0:
448,192,21313,1,8,0:0:0:0:
320,192,21599,1,0,0:0:0:0:
64,192,21885,1,2,0:0:0:0:
192,192,22456,1,8,0:0:0:0:
320,192,23028,1,2,0:0:0:0:
64,192,23599,1,8,0:0:0:0:
192,192,23885,1,0,0:0:0:0:
320,192,24170,1,2,0:0:0:0:
192,192,24742,1,8,0:0:0:0:
320,192,25028,1,0,0:0:0:0:
448,192,25313,1,2,0:0:0:0:
320,192,25885,1,8,0:0:0:0:
192,192,26170,1,0,0:0:0:0:
64,192,26456,1,2,0:0:0:0:
448,192,27028,1,8,0:0:0:0:
320,192,27599,1,2,0:0:0:0:
448,192,28170,1,8,0:0:0:0:
192,192,28456,1,0,0:0:0:0:
64,192,28742,1,2,0:0:0:0:
320,192,29313,1,8,0:0:0:0:
192,192,29599,1,0,0:0:0:0:
64,192,29885,1,2,0:0:0:0:
320,192,30456,1,8,0:0:0:0:
448,192,30742,1,0,0:0:0:0:
64,192,31028,1,2,0:0:0:0:
320,192,31599,1,8,0:0:0:0:
192,192,32170,1,2,0:0:0:0:
448,192,32742,1,8,0:0:0:0:
64,192,33028,1,0,0:0:0:0:
192,192,33313,1,2,0:0:0:0:
320,192,33885,1,8,0:0:0:0:
448,192,34170,1,0,0:0:0:0:
64,192,34456,1,2,0:0:0:0:
320,192,35028,1,8,0:0:0:0:
192,192,35313,1,0,0:0:0:0:
64,192,35599,1,2,0:0:0:0:
320,192,35885,1,0,0:0:0:0:
448,192,36170,1,8,0:0:0:0:
64,192,36742,1,2,0:0:0:0:
64,192,37313,1,2,0:0:0:0:
64,192,37885,1,2,0:0:0:0:
64,192,38456,1,2,0:0:0:0:
192,192,39028,1,2,0:0:0:0:
192,192,39599,1,2,0:0:0:0:
192,192,40170,1,2,0:0:0:0:
192,192,40742,1,2,0:0:0:0:
320,192,41313,1,2,0:0:0:0:
320,192,41885,1,2,0:0:0:0:
320,192,42456,1,2,0:0:0:0:
320,192,43028,1,2,0:0:0:0:
448,192,43599,1,2,0:0:0:0:
448,192,44170,1,2,0:0:0:0:
448,192,44742,1,2,0:0:0:0:
448,192,45313,1,2,0:0:0:0:
320,192,45885,1,2,0:0:0:0:
64,192,46456,1,0,1:0:0:0:
320,192,47028,1,2,0:0:0:0:
64,192,47599,1,0,1:0:0:0:
320,192,48170,1,2,0:0:0:0:
64,192,48742,1,0,1:0:0:0:
320,192,49313,1,2,0:0:0:0:
64,192,49885,1,0,1:0:0:0:
192,192,50456,1,2,0:0:0:0:
448,192,51028,1,0,1:0:0:0:
192,192,51599,1,2,0:0:0:0:
448,192,52170,1,0,1:0:0:0:
192,192,52742,1,2,0:0:0:0:
448,192,53313,1,0,1:0:0:0:
192,192,53885,1,2,0:0:0:0:
448,192,54456,1,0,1:0:0:0:
320,192,54742,1,0,0:0:0:0:
64,192,55028,1,2,0:0:0:0:
448,192,55599,1,0,1:0:0:0:
192,192,56170,1,2,0:0:0:0:
320,192,56742,1,0,1:0:0:0:
192,192,57313,128,2,57885:0:0:0:0:
320,192,57885,128,0,58456:1:0:0:0:
448,192,58456,128,2,59028:0:0:0:0:
64,192,59028,1,0,1:0:0:0:
320,192,59599,1,2,0:0:0:0:
192,192,60170,1,0,1:0:0:0:
448,192,60742,1,2,0:0:0:0:
320,192,61313,1,0,1:0:0:0:
64,192,61885,128,2,62456:0:0:0:0:
192,192,62456,128,0,63028:1:0:0:0:
448,192,63028,128,2,63599:0:0:0:0:
320,192,63599,1,0,1:0:0:0:
64,192,64170,1,6,0:0:0:0:
448,192,64742,1,0,1:0:0:0:
192,192,65313,1,2,0:0:0:0:
320,192,65885,1,0,1:0:0:0:
64,192,66456,128,2,67028:0:0:0:0:
448,192,67028,128,0,67599:1:0:0:0:
320,192,67599,128,2,68170:0:0:0:0:
192,192,68170,1,0,1:0:0:0:
448,192,68742,1,2,0:0:0:0:
64,192,69313,1,0,1:0:0:0:
320,192,69885,1,2,0:0:0:0:
192,192,70456,1,0,1:0:0:0:
448,192,71028,1,2,0:0:0:0:
320,192,71599,1,0,1:0:0:0:
192,192,72170,1,2,0:0:0:0:
64,192,72742,1,0,1:0:0:0:
448,192,73313,1,2,0:0:0:0:
192,192,73885,1,8,0:0:0:0:
320,192,74456,1,2,0:0:0:0:
64,192,75028,1,8,0:0:0:0:
320,192,75599,1,2,0:0:0:0:
192,192,75885,1,0,0:0:0:0:
64,192,76170,1,8,0:0:0:0:
448,192,76742,1,2,0:0:0:0:
320,192,77028,1,0,0:0:0:0:
192,192,77313,1,8,0:0:0:0:
64,192,77885,1,2,0:0:0:0:
64,192,78456,1,8,0:0:0:0:
320,192,79028,1,2,0:0:0:0:
320,192,79599,1,8,0:0:0:0:
192,192,80170,1,2,0:0:0:0:
64,192,80456,1,0,0:0:0:0:
448,192,80742,1,8,0:0:0:0:
320,192,81313,1,2,0:0:0:0:
192,192,81599,1,0,0:0:0:0:
64,192,81885,1,8,0:0:0:0:
448,192,82456,1,2,0:0:0:0:
192,192,83028,1,8,0:0:0:0:
320,192,83599,1,2,0:0:0:0:
64,192,84170,1,8,0:0:0:0:
192,192,84742,1,2,0:0:0:0:
320,192,85028,1,0,0:0:0:0:
448,192,85313,1,8,0:0:0:0:
64,192,85885,1,2,0:0:0:0:
192,192,86170,1,0,0:0:0:0:
320,192,86456,1,8,0:0:0:0:
448,192,87028,1,2,0:0:0:0:
64,192,87599,1,8,0:0:0:0:
320,192,88170,1,2,0:0:0:0:
192,192,88742,1,8,0:0:0:0:
448,192,89313,1,2,0:0:0:0:
320,192,89599,1,0,0:0:0:0:
192,192,89885,1,8,0:0:0:0:
320,192,90456,1,2,0:0:0:0:
192,192,90742,1,0,0:0:0:0:
64,192,91028,1,8,0:0:0:0:
448,192,91599,1,2,0:0:0:0:
320,192,92170,1,8,0:0:0:0:
192,192,92456,1,0,0:0:0:0:
64,192,92742,1,2,0:0:0:0:
192,192,93313,1,8,0:0:0:0:
320,192,93599,1,0,0:0:0:0:
448,192,93885,1,2,0:0:0:0:
64,192,94456,1,8,0:0:0:0:
192,192,94742,1,0,0:0:0:0:
320,192,95028,1,2,0:0:0:0:
192,192,95599,1,8,0:0:0:0:
64,192,96170,1,2,0:0:0:0:
448,192,96742,1,8,0:0:0:0:
320,192,97028,1,0,0:0:0:0:
64,192,97313,1,2,0:0:0:0:
192,192,97885,1,8,0:0:0:0:
320,192,98170,1,0,0:0:0:0:
64,192,98456,1,2,0:0:0:0:
320,192,99028,1,8,0:0:0:0:
192,192,99313,1,0,0:0:0:0:
64,192,99599,1,2,0:0:0:0:
448,192,100170,1,8,0:0:0:0:
192,192,100742,1,2,0:0:0:0:
320,192,101313,1,8,0:0:0:0:
192,192,101599,1,0,0:0:0:0:
64,192,101885,1,2,0:0:0:0:
192,192,102456,1,8,0:0:0:0:
320,192,102742,1,0,0:0:0:0:
448,192,103028,1,2,0:0:0:0:
64,192,103599,1,8,0:0:0:0:
192,192,103885,1,0,0:0:0:0:
320,192,104170,1,2,0:0:0:0:
64,192,104742,1,8,0:0:0:0:
448,192,105313,1,2,0:0:0:0:
320,192,105885,1,8,0:0:0:0:
192,192,106170,1,0,0:0:0:0:
64,192,106456,1,2,0:0:0:0:
320,192,107028,1,8,0:0:0:0:
448,192,107313,1,0,0:0:0:0:
64,192,107599,1,2,0:0:0:0:
320,192,108170,1,8,0:0:0:0:
192,192,108456,1,0,0:0:0:0:
64,192,108742,1,2,0:0:0:0:
320,192,109028,1,0,0:0:0:0:
448,192,109313,1,8,0:0:0:0:
192,192,109885,1,2,0:0:0:0:
448,192,110456,1,0,1:0:0:0:
192,192,111028,1,2,0:0:0:0:
448,192,111599,1,0,1:0:0:0:
192,192,112170,1,2,0:0:0:0:
448,192,112742,1,0,1:0:0:0:
192,192,113313,1,2,0:0:0:0:
448,192,113885,1,0,1:0:0:0:
320,192,114456,1,2,0:0:0:0:
64,192,115028,1,0,1:0:0:0:
320,192,115599,1,2,0:0:0:0:
64,192,116170,1,0,1:0:0:0:
192,192,116456,1,0,0:0:0:0:
320,192,116742,1,0,0:0:0:0:
192,192,118170,1,0,0:0:0:0:
320,192,118456,1,0,0:0:0:0:
448,192,118742,1,0,0:0:0:0:
64,192,119028,1,2,0:0:0:0:
320,192,119599,1,0,1:0:0:0:
64,192,120170,1,2,0:0:0:0:
320,192,120742,1,0,1:0:0:0:
64,192,121313,1,2,0:0:0:0:
320,192,121885,1,0,1:0:0:0:
64,192,122456,1,2,0:0:0:0:
320,192,123028,1,0,1:0:0:0:
192,192,123599,1,2,0:0:0:0:
448,192,124170,1,0,1:0:0:0:
192,192,124742,1,2,0:0:0:0:
448,192,125313,1,0,1:0:0:0:
320,192,125599,1,0,0:0:0:0:
192,192,125885,1,2,0:0:0:0:
448,192,126456,1,0,1:0:0:0:
192,192,127028,1,2,0:0:0:0:
448,192,127599,1,0,1:0:0:0:
64,192,128170,128,2,128742:0:0:0:0:
320,192,128742,1,0,1:0:0:0:
192,192,129313,128,2,129885:0:0:0:0:
448,192,129885,1,0,1:0:0:0:
320,192,130456,128,2,131028:0:0:0:0:
64,192,131028,1,0,1:0:0:0:
448,192,131599,128,2,132170:0:0:0:0:
192,192,132170,1,0,1:0:0:0:
64,192,132742,128,2,133313:0:0:0:0:
320,192,133313,1,0,1:0:0:0:
192,192,133885,128,2,134456:0:0:0:0:
448,192,134456,1,0,1:0:0:0:
320,192,135028,128,2,135599:0:0:0:0:
64,192,135599,1,0,1:0:0:0:
448,192,136170,1,2,0:0:0:0:
320,192,136456,1,0,0:0:0:0:
192,192,136742,1,0,1:0:0:0:
320,192,137313,5,6,0:0:0:0:
192,192,137885,1,0,1:0:0:0:
192,192,139028,1,0,1:0:0:0:
192,192,140170,1,0,1:0:0:0:
192,192,141313,1,0,1:0:0:0:
448,192,141885,1,2,0:0:0:0:
320,192,142456,1,0,1:0:0:0:
64,192,143028,1,2,0:0:0:0:
192,192,143599,1,0,1:0:0:0:
448,192,144170,1,2,0:0:0:0:
320,192,144742,1,0,1:0:0:0:
192,192,145313,1,2,0:0:0:0:
64,192,145885,1,0,1:0:0:0:
320,192,146456,1,2,0:0:0:0:
192,192,147028,1,8,0:0:0:0:
448,192,147599,1,2,0:0:0:0:
64,192,148170,1,8,0:0:0:0:
320,192,148742,1,2,0:0:0:0:
192,192,149028,1,0,0:0:0:0:
64,192,149313,1,8,0:0:0:0:
448,192,149885,1,2,0:0:0:0:
320,192,150170,1,0,0:0:0:0:
192,192,150456,1,8,0:0:0:0:
448,192,151028,1,2,0:0:0:0:
64,192,151599,1,8,0:0:0:0:
320,192,152170,1,2,0:0:0:0:
192,192,152742,1,8,0:0:0:0:
64,192,153313,1,2,0:0:0:0:
192,192,153599,1,0,0:0:0:0:
320,192,153885,1,8,0:0:0:0:
192,192,154456,1,2,0:0:0:0:
320,192,154742,1,0,0:0:0:0:
448,192,155028,1,8,0:0:0:0:
320,192,155599,1,2,0:0:0:0:
192,192,156170,1,8,0:0:0:0:
448,192,156742,1,2,0:0:0:0:
320,192,157313,1,8,0:0:0:0:
192,192,157885,1,2,0:0:0:0:
64,192,158170,1,0,0:0:0:0:
448,192,158456,1,8,0:0:0:0:
320,192,159028,1,2,0:0:0:0:
448,192,159313,1,0,0:0:0:0:
64,192,159599,1,8,0:0:0:0:
192,192,160170,1,2,0:0:0:0:
320,192,160742,1,8,0:0:0:0:
64,192,161313,1,2,0:0:0:0:
448,192,161885,1,8,0:0:0:0:
192,192,162456,1,2,0:0:0:0:
320,192,162742,1,0,0:0:0:0:
64,192,163028,1,8,0:0:0:0:
320,192,163599,1,2,0:0:0:0:
192,192,163885,1,0,0:0:0:0:
448,192,164170,1,8,0:0:0:0:
64,192,164742,1,2,0:0:0:0:
192,192,165313,1,8,0:0:0:0:
320,192,165599,1,0,0:0:0:0:
448,192,165885,1,2,0:0:0:0:
320,192,166456,1,8,0:0:0:0:
192,192,166742,1,0,0:0:0:0:
64,192,167028,1,2,0:0:0:0:
448,192,167599,1,8,0:0:0:0:
320,192,167885,1,0,0:0:0:0:
192,192,168170,1,2,0:0:0:0:
320,192,168742,1,8,0:0:0:0:
448,192,169313,1,2,0:0:0:0:
64,192,169885,1,8,0:0:0:0:
192,192,170170,1,0,0:0:0:0:
448,192,170456,1,2,0:0:0:0:
320,192,171028,1,8,0:0:0:0:
192,192,171313,1,0,0:0:0:0:
448,192,171599,1,2,0:0:0:0:
192,192,172170,1,8,0:0:0:0:
320,192,172456,1,0,0:0:0:0:
448,192,172742,1,2,0:0:0:0:
64,192,173313,1,8,0:0:0:0:
320,192,173885,1,2,0:0:0:0:
192,192,174456,1,8,0:0:0:0:
320,192,174742,1,0,0:0:0:0:
448,192,175028,1,2,0:0:0:0:
320,192,175599,1,8,0:0:0:0:
192,192,175885,1,0,0:0:0:0:
64,192,176170,1,2,0:0:0:0:
448,192,176742,1,8,0:0:0:0:
320,192,177028,1,0,0:0:0:0:
192,192,177313,1,2,0:0:0:0:
448,192,177885,1,8,0:0:0:0:
64,192,178456,1,2,0:0:0:0:
192,192,179028,1,8,0:0:0:0:
320,192,179313,1,0,0:0:0:0:
448,192,179599,1,2,0:0:0:0:
192,192,180170,1,8,0:0:0:0:
64,192,180456,1,0,0:0:0:0:
448,192,180742,1,2,0:0:0:0:
192,192,181313,1,8,0:0:0:0:
320,192,181599,1,0,0:0:0:0:
448,192,181885,1,2,0:0:0:0:
192,192,182170,1,0,0:0:0:0:
64,192,182456,1,8,0:0:0:0:
448,192,183028,128,2,183599:0:0:0:0:
192,192,184170,128,0,184742:0:0:0:0:
320,192,185313,128,0,185885:0:0:0:0:
64,192,186456,128,0,187028:0:0:0:0:
448,192,187599,128,0,188170:0:0:0:0:
320,192,188742,128,0,189313:0:0:0:0:
192,192,189885,128,0,190456:0:0:0:0:
64,192,191028,128,0,191599:0:0:0:0:
192,192,192170,128,0,192742:0:0:0:0:
320,192,193313,128,0,193885:0:0:0:0:
448,192,194456,128,0,195028:0:0:0:0:
64,192,195599,128,0,196170:0:0:0:0:
320,192,196742,128,0,197313:0:0:0:0:
192,192,197885,128,0,198456:0:0:0:0:
448,192,199028,1,0,0:0:0:0:
320,192,199599,1,0,0:0:0:0:
192,192,200170,1,0,0:0:0:0:
64,192,200742,1,0,0:0:0:0:
448,192,201313,1,2,0:0:0:0:
192,192,201885,1,8,0:0:0:0:
320,192,202456,1,2,0:0:0:0:
64,192,203028,1,8,0:0:0:0:
448,192,203599,1,2,0:0:0:0:
320,192,203885,1,0,0:0:0:0:
192,192,204170,1,8,0:0:0:0:
320,192,204742,1,2,0:0:0:0:
192,192,205028,1,0,0:0:0:0:
64,192,205313,1,8,0:0:0:0:
192,192,205885,1,2,0:0:0:0:
320,192,206456,1,8,0:0:0:0:
64,192,207028,1,2,0:0:0:0:
448,192,207599,1,8,0:0:0:0:
64,192,208170,1,2,0:0:0:0:
192,192,208456,1,0,0:0:0:0:
320,192,208742,1,8,0:0:0:0:
192,192,209313,1,2,0:0:0:0:
320,192,209599,1,0,0:0:0:0:
448,192,209885,1,8,0:0:0:0:
192,192,210456,1,2,0:0:0:0:
64,192,211028,1,8,0:0:0:0:
320,192,211599,1,2,0:0:0:0:
192,192,212170,1,8,0:0:0:0:
320,192,212742,1,2,0:0:0:0:
448,192,213028,1,0,0:0:0:0:
64,192,213313,1,8,0:0:0:0:
192,192,213885,1,2,0:0:0:0:
64,192,214170,1,0,0:0:0:0:
448,192,214456,1,8,0:0:0:0:
320,192,215028,1,2,0:0:0:0:
64,192,215599,1,8,0:0:0:0:
448,192,216170,1,2,0:0:0:0:
192,192,216742,1,8,0:0:0:0:
320,192,217313,1,2,0:0:0:0:
64,192,217885,1,8,0:0:0:0:
448,192,218170,1,0,0:0:0:0:
320,192,218456,1,2,0:0:0:0:
192,192,218742,5,0,0:0:0:0:
64,192,219028,1,8,0:0:0:0:
448,192,219599,1,2,0:0:0:0:
320,192,220170,1,8,0:0:0:0:
192,192,220456,1,0,0:0:0:0:
64,192,220742,1,2,0:0:0:0:
192,192,221313,1,8,0:0:0:0:
320,192,221599,1,0,0:0:0:0:
448,192,221885,1,2,0:0:0:0:
64,192,222456,1,8,0:0:0:0:
192,192,222742,1,0,0:0:0:0:
320,192,223028,1,2,0:0:0:0:
192,192,223599,1,8,0:0:0:0:
64,192,224170,1,2,0:0:0:0:
448,192,224742,1,8,0:0:0:0:
320,192,225028,1,0,0:0:0:0:
64,192,225313,1,2,0:0:0:0:
192,192,225885,1,8,0:0:0:0:
320,192,226170,1,0,0:0:0:0:
64,192,226456,1,2,0:0:0:0:
320,192,227028,1,8,0:0:0:0:
192,192,227313,1,0,0:0:0:0:
64,192,227599,1,2,0:0:0:0:
448,192,228170,1,8,0:0:0:0:
192,192,228742,1,2,0:0:0:0:
320,192,229313,1,8,0:0:0:0:
192,192,229599,1,0,0:0:0:0:
64,192,229885,1,2,0:0:0:0:
192,192,230456,1,8,0:0:0:0:
320,192,230742,1,0,0:0:0:0:
448,192,231028,1,2,0:0:0:0:
64,192,231599,1,8,0:0:0:0:
192,192,231885,1,0,0:0:0:0:
320,192,232170,1,2,0:0:0:0:
64,192,232742,1,8,0:0:0:0:
448,192,233313,1,2,0:0:0:0:
320,192,233885,1,8,0:0:0:0:
192,192,234170,1,0,0:0:0:0:
64,192,234456,1,2,0:0:0:0:
320,192,235028,1,8,0:0:0:0:
448,192,235313,1,0,0:0:0:0:
64,192,235599,1,2,0:0:0:0:
320,192,236170,1,8,0:0:0:0:
192,192,236456,1,0,0:0:0:0:
64,192,236742,1,2,0:0:0:0:
320,192,237028,1,0,0:0:0:0:
448,192,237313,1,8,0:0:0:0:
192,192,237885,1,2,0:0:0:0:
320,192,238456,1,0,1:0:0:0:
320,192,239599,1,0,1:0:0:0:
192,192,240170,1,2,0:0:0:0:
320,192,240742,1,0,1:0:0:0:
192,192,241313,1,2,0:0:0:0:
320,192,241885,1,0,1:0:0:0:
64,192,242456,1,2,0:0:0:0:
192,192,243028,1,0,1:0:0:0:
192,192,244170,1,0,1:0:0:0:
320,192,244742,1,2,0:0:0:0:
192,192,245313,1,0,1:0:0:0:
320,192,245885,1,2,0:0:0:0:
192,192,246456,1,0,1:0:0:0:
448,192,247028,1,2,0:0:0:0:
64,192,247599,1,0,1:0:0:0:
64,192,248742,1,0,1:0:0:0:
64,192,249885,1,0,1:0:0:0:
64,192,251028,1,0,1:0:0:0:
192,192,251599,1,2,0:0:0:0:
448,192,252170,1,0,1:0:0:0:
448,192,253313,1,0,1:0:0:0:
192,192,253885,1,2,0:0:0:0:
448,192,254456,1,0,1:0:0:0:
64,192,255028,1,2,0:0:0:0:
448,192,255599,1,0,1:0:0:0:
192,192,256170,1,0,0:0:0:0:
