osu file format v14

[General]
AudioFilename: audio.mp3
AudioLeadIn: 0
PreviewTime: 87170
Countdown: 0
SampleSet: Normal
StackLeniency: 0.7
Mode: 1
LetterboxInBreaks: 0
WidescreenStoryboard: 0

[Editor]
Bookmarks: 18456,36742,55028,73313,91599,109885,128170,146456,164742,183028,201313,219599
DistanceSpacing: 1
BeatDivisor: 4
GridSize: 32
TimelineZoom: 0.7

[Metadata]
Title:Sugiyuku Hi to Kimi e (feat. nayuta)
TitleUnicode:過ぎゆく日と君へ (feat. nayuta)
Artist:Aiobahn
ArtistUnicode:Aiobahn
Creator:Faputa
Version:Muzukashii
Source:
Tags:アイオバーン electronic progressive house Japanese Hanabira Bunko passing days
BeatmapID:2348996
BeatmapSetID:1124134

[Difficulty]
HPDrainRate:6
CircleSize:2
OverallDifficulty:5
ApproachRate:10
SliderMultiplier:1.4
SliderTickRate:1

[Events]
//Background and Video events
0,0,"BG.jpg",0,0
//Break Periods
//Storyboard Layer 0 (Background)
//Storyboard Layer 1 (Fail)
//Storyboard Layer 2 (Pass)
//Storyboard Layer 3 (Foreground)
//Storyboard Layer 4 (Overlay)
//Storyboard Sound Samples

[TimingPoints]
171,571.428571428571,4,1,0,70,1,0
9170,-100,4,1,0,75,0,0
18456,-100,4,1,0,85,0,1
36742,-100,4,1,0,85,0,0
36885,-100,4,1,0,70,0,0
54885,-100,4,1,0,75,0,0
73170,-100,4,1,0,80,0,0
91599,-100,4,1,0,85,0,1
109885,-100,4,1,0,85,0,0
110028,-100,4,1,0,70,0,0
128028,-100,4,1,0,75,0,0
146313,-100,4,1,0,80,0,0
164742,-100,4,1,0,85,0,1
183028,-100,4,1,0,85,0,0
183170,-100,4,1,0,75,0,0
201170,-100,4,1,0,83,0,0
219599,-100,4,1,0,88,0,1
237885,-100,4,1,0,88,0,0
238028,-100,4,1,0,80,0,0
246885,-100,4,1,0,75,0,0
256028,-100,4,1,0,70,0,0

[HitObjects]
256,192,171,5,0,0:0:0:0:
256,192,456,1,8,0:0:0:0:
256,192,742,1,8,0:0:0:0:
256,192,1313,1,0,0:0:0:0:
256,192,1599,1,0,0:0:0:0:
256,192,1885,1,8,0:0:0:0:
256,192,2456,1,8,0:0:0:0:
256,192,2742,1,0,0:0:0:0:
256,192,3028,1,8,0:0:0:0:
256,192,3599,1,0,0:0:0:0:
256,192,3885,1,8,0:0:0:0:
256,192,4170,1,0,0:0:0:0:
256,192,4742,1,0,0:0:0:0:
256,192,5028,1,0,0:0:0:0:
256,192,5313,1,8,0:0:0:0:
256,192,5885,1,0,0:0:0:0:
256,192,6170,1,8,0:0:0:0:
256,192,6456,1,8,0:0:0:0:
256,192,7028,1,8,0:0:0:0:
256,192,7313,1,0,0:0:0:0:
256,192,7599,1,8,0:0:0:0:
256,192,8170,1,0,0:0:0:0:
256,192,8456,1,8,0:0:0:0:
256,192,8742,1,8,0:0:0:0:
256,192,9313,1,4,0:0:0:0:
256,192,9885,1,8,0:0:0:0:
256,192,10456,1,8,0:0:0:0:
256,192,11028,1,0,0:0:0:0:
256,192,11313,1,0,0:0:0:0:
256,192,11599,1,8,0:0:0:0:
256,192,12170,1,8,0:0:0:0:
256,192,12456,1,0,0:0:0:0:
256,192,12742,1,8,0:0:0:0:
256,192,13313,1,8,0:0:0:0:
256,192,13885,1,0,0:0:0:0:
256,192,14456,1,8,0:0:0:0:
256,192,14742,1,8,0:0:0:0:
256,192,15028,1,0,0:0:0:0:
256,192,15599,1,8,0:0:0:0:
256,192,15885,1,8,0:0:0:0:
256,192,16170,1,0,0:0:0:0:
256,192,16313,1,0,0:0:0:0:
256,192,16456,1,0,0:0:0:0:
256,192,16742,1,8,0:0:0:0:
256,192,16885,1,8,0:0:0:0:
256,192,17028,1,8,0:0:0:0:
256,192,17313,1,0,0:0:0:0:
256,192,17599,1,0,0:0:0:0:
256,192,17885,1,8,0:0:0:0:
256,192,18456,1,12,0:0:0:0:
256,192,18742,1,8,0:0:0:0:
256,192,19028,1,0,0:0:0:0:
256,192,19313,1,8,0:0:0:0:
256,192,19599,1,0,0:0:0:0:
256,192,20170,1,8,0:0:0:0:
256,192,20456,1,8,0:0:0:0:
256,192,20742,1,0,0:0:0:0:
256,192,21028,1,8,0:0:0:0:
256,192,21313,1,0,0:0:0:0:
256,192,21599,1,8,0:0:0:0:
256,192,21885,1,8,0:0:0:0:
256,192,22456,1,8,0:0:0:0:
256,192,23028,1,0,0:0:0:0:
256,192,23313,1,8,0:0:0:0:
256,192,23599,1,8,0:0:0:0:
256,192,23885,1,0,0:0:0:0:
256,192,24170,1,8,0:0:0:0:
256,192,24742,1,8,0:0:0:0:
256,192,25028,1,8,0:0:0:0:
256,192,25313,1,0,0:0:0:0:
256,192,25599,1,8,0:0:0:0:
256,192,25885,1,0,0:0:0:0:
256,192,26170,1,8,0:0:0:0:
256,192,26456,1,8,0:0:0:0:
256,192,26742,1,0,0:0:0:0:
256,192,27028,1,8,0:0:0:0:
256,192,27599,1,12,0:0:0:0:
256,192,27885,1,8,0:0:0:0:
256,192,28170,1,0,0:0:0:0:
256,192,28456,1,8,0:0:0:0:
256,192,28742,1,0,0:0:0:0:
256,192,29313,1,8,0:0:0:0:
256,192,29599,1,8,0:0:0:0:
256,192,29885,1,8,0:0:0:0:
256,192,30170,1,0,0:0:0:0:
256,192,30456,1,8,0:0:0:0:
256,192,30742,1,0,0:0:0:0:
256,192,31028,1,8,0:0:0:0:
256,192,31599,1,8,0:0:0:0:
256,192,32170,1,0,0:0:0:0:
256,192,32456,1,8,0:0:0:0:
256,192,32742,1,8,0:0:0:0:
256,192,33028,1,0,0:0:0:0:
256,192,33313,1,8,0:0:0:0:
256,192,33599,1,0,0:0:0:0:
256,192,33885,1,8,0:0:0:0:
256,192,34028,1,8,0:0:0:0:
256,192,34170,1,8,0:0:0:0:
256,192,34456,1,0,0:0:0:0:
256,192,34742,1,8,0:0:0:0:
256,192,35028,1,0,0:0:0:0:
256,192,35313,1,8,0:0:0:0:
256,192,35599,1,8,0:0:0:0:
256,192,35885,1,0,0:0:0:0:
256,192,36170,1,8,0:0:0:0:
256,192,36313,1,8,0:0:0:0:
256,192,36456,1,8,0:0:0:0:
256,192,36742,1,4,0:0:0:0:
256,192,37313,1,8,0:0:0:0:
256,192,37885,1,0,0:0:0:0:
256,192,38456,1,8,0:0:0:0:
256,192,39028,1,8,0:0:0:0:
256,192,39313,1,0,0:0:0:0:
256,192,39599,1,8,0:0:0:0:
256,192,40170,1,0,0:0:0:0:
256,192,40456,1,8,0:0:0:0:
256,192,40742,1,0,0:0:0:0:
256,192,41313,1,0,0:0:0:0:
256,192,41885,1,8,0:0:0:0:
256,192,42456,1,0,0:0:0:0:
256,192,43028,1,8,0:0:0:0:
256,192,43599,1,8,0:0:0:0:
256,192,43885,1,0,0:0:0:0:
256,192,44170,1,8,0:0:0:0:
256,192,44742,1,0,0:0:0:0:
256,192,45028,1,8,0:0:0:0:
256,192,45313,1,0,0:0:0:0:
256,192,45885,1,4,0:0:0:0:
256,192,46456,1,8,0:0:0:0:
256,192,47028,1,0,0:0:0:0:
256,192,47599,1,8,0:0:0:0:
256,192,47885,1,8,0:0:0:0:
256,192,48170,1,0,0:0:0:0:
256,192,48742,1,0,0:0:0:0:
256,192,49028,1,0,0:0:0:0:
256,192,49599,1,8,0:0:0:0:
256,192,49885,1,8,0:0:0:0:
256,192,50170,1,0,0:0:0:0:
256,192,50456,1,8,0:0:0:0:
256,192,51313,1,8,0:0:0:0:
256,192,51599,1,0,0:0:0:0:
256,192,52170,1,8,0:0:0:0:
256,192,52742,1,0,0:0:0:0:
256,192,53313,1,8,0:0:0:0:
256,192,53599,1,0,0:0:0:0:
256,192,53885,1,0,0:0:0:0:
256,192,54456,1,8,0:0:0:0:
256,192,54742,1,8,0:0:0:0:
256,192,55028,1,4,0:0:0:0:
256,192,55599,1,0,0:0:0:0:
256,192,56170,1,8,0:0:0:0:
256,192,56742,1,8,0:0:0:0:
256,192,57313,1,0,0:0:0:0:
256,192,57599,1,8,0:0:0:0:
256,192,57885,1,8,0:0:0:0:
256,192,58170,1,0,0:0:0:0:
256,192,58456,1,8,0:0:0:0:
256,192,59028,1,8,0:0:0:0:
256,192,59313,1,0,0:0:0:0:
256,192,59599,1,8,0:0:0:0:
256,192,60170,1,8,0:0:0:0:
256,192,60742,1,0,0:0:0:0:
256,192,61313,1,8,0:0:0:0:
256,192,61599,1,0,0:0:0:0:
256,192,61885,1,8,0:0:0:0:
256,192,62456,1,8,0:0:0:0:
256,192,62742,1,8,0:0:0:0:
256,192,63028,1,0,0:0:0:0:
256,192,63599,1,0,0:0:0:0:
256,192,63885,1,0,0:0:0:0:
256,192,64170,1,12,0:0:0:0:
256,192,64742,1,8,0:0:0:0:
256,192,65313,1,0,0:0:0:0:
256,192,65885,1,8,0:0:0:0:
256,192,66456,1,0,0:0:0:0:
256,192,66742,1,8,0:0:0:0:
256,192,67028,1,8,0:0:0:0:
256,192,67313,1,0,0:0:0:0:
256,192,67599,1,0,0:0:0:0:
256,192,68170,1,8,0:0:0:0:
256,192,68456,1,0,0:0:0:0:
256,192,68742,1,8,0:0:0:0:
256,192,69028,1,8,0:0:0:0:
256,192,69313,1,0,0:0:0:0:
256,192,69885,1,8,0:0:0:0:
256,192,70170,1,0,0:0:0:0:
256,192,70456,1,8,0:0:0:0:
256,192,70742,1,0,0:0:0:0:
256,192,71028,1,8,0:0:0:0:
256,192,71170,1,8,0:0:0:0:
256,192,71313,1,8,0:0:0:0:
256,192,71599,1,0,0:0:0:0:
256,192,71742,1,0,0:0:0:0:
256,192,71885,1,0,0:0:0:0:
256,192,72170,1,8,0:0:0:0:
256,192,72456,1,0,0:0:0:0:
256,192,72742,1,8,0:0:0:0:
256,192,73313,1,4,0:0:0:0:
256,192,73599,1,8,0:0:0:0:
256,192,73885,1,8,0:0:0:0:
256,192,74170,1,0,0:0:0:0:
256,192,74456,1,8,0:0:0:0:
256,192,75028,1,8,0:0:0:0:
256,192,75599,1,0,0:0:0:0:
256,192,75885,1,8,0:0:0:0:
256,192,76170,1,8,0:0:0:0:
256,192,76456,1,8,0:0:0:0:
256,192,76742,1,0,0:0:0:0:
256,192,77170,1,0,0:0:0:0:
256,192,77313,1,8,0:0:0:0:
256,192,77599,1,8,0:0:0:0:
256,192,77885,1,0,0:0:0:0:
256,192,78456,1,8,0:0:0:0:
256,192,79028,1,0,0:0:0:0:
256,192,79313,1,8,0:0:0:0:
256,192,79599,1,0,0:0:0:0:
256,192,79885,1,8,0:0:0:0:
256,192,80170,1,0,0:0:0:0:
256,192,80456,1,8,0:0:0:0:
256,192,80742,1,8,0:0:0:0:
256,192,81028,1,0,0:0:0:0:
256,192,81313,1,0,0:0:0:0:
256,192,81599,1,8,0:0:0:0:
256,192,81742,1,8,0:0:0:0:
256,192,81885,1,8,0:0:0:0:
256,192,82456,1,4,0:0:0:0:
256,192,82742,1,8,0:0:0:0:
256,192,83028,1,8,0:0:0:0:
256,192,83313,1,0,0:0:0:0:
256,192,83599,1,8,0:0:0:0:
256,192,84170,1,8,0:0:0:0:
256,192,84742,1,8,0:0:0:0:
256,192,85028,1,0,0:0:0:0:
256,192,85313,1,0,0:0:0:0:
256,192,85599,1,8,0:0:0:0:
256,192,85885,1,0,0:0:0:0:
256,192,86313,1,0,0:0:0:0:
256,192,86456,1,8,0:0:0:0:
256,192,86742,1,8,0:0:0:0:
256,192,87028,1,0,0:0:0:0:
256,192,87599,1,8,0:0:0:0:
256,192,88170,1,8,0:0:0:0:
256,192,88456,1,0,0:0:0:0:
256,192,88742,1,8,0:0:0:0:
256,192,88885,1,8,0:0:0:0:
256,192,89028,1,8,0:0:0:0:
256,192,89313,1,0,0:0:0:0:
256,192,89599,1,8,0:0:0:0:
256,192,89885,1,8,0:0:0:0:
256,192,90170,1,0,0:0:0:0:
256,192,90456,1,8,0:0:0:0:
256,192,90742,1,0,0:0:0:0:
256,192,91028,1,8,0:0:0:0:
256,192,91170,1,8,0:0:0:0:
256,192,91313,1,8,0:0:0:0:
256,192,91599,1,12,0:0:0:0:
256,192,91885,1,8,0:0:0:0:
256,192,92170,1,0,0:0:0:0:
256,192,92456,1,8,0:0:0:0:
256,192,92742,1,0,0:0:0:0:
256,192,93313,1,8,0:0:0:0:
256,192,93599,1,8,0:0:0:0:
256,192,93885,1,0,0:0:0:0:
256,192,94170,1,8,0:0:0:0:
256,192,94456,1,0,0:0:0:0:
256,192,94742,1,8,0:0:0:0:
256,192,95028,1,8,0:0:0:0:
256,192,95599,1,8,0:0:0:0:
256,192,96170,1,0,0:0:0:0:
256,192,96456,1,8,0:0:0:0:
256,192,96742,1,8,0:0:0:0:
256,192,97028,1,0,0:0:0:0:
256,192,97313,1,8,0:0:0:0:
256,192,97885,1,8,0:0:0:0:
256,192,98170,1,8,0:0:0:0:
256,192,98456,1,0,0:0:0:0:
256,192,98742,1,8,0:0:0:0:
256,192,99028,1,8,0:0:0:0:
256,192,99313,1,0,0:0:0:0:
256,192,99599,1,8,0:0:0:0:
256,192,99885,1,8,0:0:0:0:
256,192,100028,1,8,0:0:0:0:
256,192,100170,1,8,0:0:0:0:
256,192,100742,1,12,0:0:0:0:
256,192,101028,1,8,0:0:0:0:
256,192,101313,1,0,0:0:0:0:
256,192,101599,1,8,0:0:0:0:
256,192,101885,1,0,0:0:0:0:
256,192,102456,1,8,0:0:0:0:
256,192,102742,1,8,0:0:0:0:
256,192,103028,1,8,0:0:0:0:
256,192,103313,1,0,0:0:0:0:
256,192,103599,1,0,0:0:0:0:
256,192,103885,1,8,0:0:0:0:
256,192,104170,1,8,0:0:0:0:
256,192,104742,1,8,0:0:0:0:
256,192,105313,1,0,0:0:0:0:
256,192,105885,1,8,0:0:0:0:
256,192,106170,1,0,0:0:0:0:
256,192,106456,1,8,0:0:0:0:
256,192,106742,1,0,0:0:0:0:
256,192,107028,1,8,0:0:0:0:
256,192,107170,1,8,0:0:0:0:
256,192,107313,1,8,0:0:0:0:
256,192,107599,1,0,0:0:0:0:
256,192,107885,1,8,0:0:0:0:
256,192,108170,1,0,0:0:0:0:
256,192,108456,1,0,0:0:0:0:
256,192,108742,1,8,0:0:0:0:
256,192,109028,1,0,0:0:0:0:
256,192,109313,1,8,0:0:0:0:
256,192,109456,1,8,0:0:0:0:
256,192,109599,1,8,0:0:0:0:
256,192,109885,1,4,0:0:0:0:
256,192,110456,1,8,0:0:0:0:
256,192,111028,1,8,0:0:0:0:
256,192,111599,1,0,0:0:0:0:
256,192,112170,1,8,0:0:0:0:
256,192,112742,1,0,0:0:0:0:
256,192,113028,1,0,0:0:0:0:
256,192,113313,1,8,0:0:0:0:
256,192,113885,1,8,0:0:0:0:
256,192,114456,1,0,0:0:0:0:
256,192,115028,1,8,0:0:0:0:
256,192,115599,1,0,0:0:0:0:
256,192,116170,1,8,0:0:0:0:
256,192,116456,1,8,0:0:0:0:
256,192,116742,1,0,0:0:0:0:
256,192,118170,1,0,0:0:0:0:
256,192,118456,1,8,0:0:0:0:
256,192,118742,1,8,0:0:0:0:
256,192,119028,1,4,0:0:0:0:
256,192,119599,1,8,0:0:0:0:
256,192,120170,1,0,0:0:0:0:
256,192,120456,1,0,0:0:0:0:
256,192,120742,1,8,0:0:0:0:
256,192,121313,1,0,0:0:0:0:
256,192,122170,1,8,0:0:0:0:
256,192,122456,1,0,0:0:0:0:
256,192,123028,1,8,0:0:0:0:
256,192,123313,1,0,0:0:0:0:
256,192,123599,1,8,0:0:0:0:
256,192,124170,1,0,0:0:0:0:
256,192,124456,1,8,0:0:0:0:
256,192,124742,1,8,0:0:0:0:
256,192,125313,1,8,0:0:0:0:
256,192,125885,1,0,0:0:0:0:
256,192,126456,1,8,0:0:0:0:
256,192,126742,1,0,0:0:0:0:
256,192,127028,1,0,0:0:0:0:
256,192,127599,1,8,0:0:0:0:
256,192,127885,1,8,0:0:0:0:
256,192,128170,1,4,0:0:0:0:
256,192,128742,1,0,0:0:0:0:
256,192,129028,1,0,0:0:0:0:
256,192,129313,1,8,0:0:0:0:
256,192,129885,1,8,0:0:0:0:
256,192,130456,1,0,0:0:0:0:
256,192,130742,1,8,0:0:0:0:
256,192,131028,1,8,0:0:0:0:
256,192,131313,1,0,0:0:0:0:
256,192,131599,1,8,0:0:0:0:
256,192,132170,1,8,0:0:0:0:
256,192,132456,1,0,0:0:0:0:
256,192,132742,1,8,0:0:0:0:
256,192,133313,1,8,0:0:0:0:
256,192,133599,1,8,0:0:0:0:
256,192,133885,1,0,0:0:0:0:
256,192,134170,1,0,0:0:0:0:
256,192,134456,1,8,0:0:0:0:
256,192,135028,1,8,0:0:0:0:
256,192,135313,1,0,0:0:0:0:
256,192,135599,1,8,0:0:0:0:
256,192,135885,1,8,0:0:0:0:
256,192,136170,1,0,0:0:0:0:
256,192,136313,1,0,0:0:0:0:
256,192,136456,1,0,0:0:0:0:
256,192,136742,1,8,0:0:0:0:
256,192,137028,1,0,0:0:0:0:
256,192,137313,1,12,0:0:0:0:
256,192,137885,1,8,0:0:0:0:
256,192,138170,1,8,0:0:0:0:
256,192,138456,1,0,0:0:0:0:
256,192,139028,1,8,0:0:0:0:
256,192,139599,1,0,0:0:0:0:
256,192,139885,1,8,0:0:0:0:
256,192,140170,1,8,0:0:0:0:
256,192,140456,1,0,0:0:0:0:
256,192,140742,1,0,0:0:0:0:
256,192,141313,1,8,0:0:0:0:
256,192,141599,1,0,0:0:0:0:
256,192,141885,1,8,0:0:0:0:
256,192,142170,1,8,0:0:0:0:
256,192,142456,1,0,0:0:0:0:
256,192,143028,1,8,0:0:0:0:
256,192,143313,1,0,0:0:0:0:
256,192,143599,1,8,0:0:0:0:
256,192,143885,1,8,0:0:0:0:
256,192,144170,1,0,0:0:0:0:
256,192,144313,1,0,0:0:0:0:
256,192,144456,1,0,0:0:0:0:
256,192,144742,1,8,0:0:0:0:
256,192,144885,1,8,0:0:0:0:
256,192,145028,1,8,0:0:0:0:
256,192,145313,1,0,0:0:0:0:
256,192,145599,1,0,0:0:0:0:
256,192,145885,1,8,0:0:0:0:
256,192,146456,1,4,0:0:0:0:
256,192,146742,1,8,0:0:0:0:
256,192,147028,1,8,0:0:0:0:
256,192,147313,1,0,0:0:0:0:
256,192,147599,1,8,0:0:0:0:
256,192,148170,1,0,0:0:0:0:
256,192,148742,1,8,0:0:0:0:
256,192,149028,1,0,0:0:0:0:
256,192,149313,1,0,0:0:0:0:
256,192,149599,1,8,0:0:0:0:
256,192,149885,1,0,0:0:0:0:
256,192,150313,1,0,0:0:0:0:
256,192,150456,1,8,0:0:0:0:
256,192,150742,1,8,0:0:0:0:
256,192,151028,1,0,0:0:0:0:
256,192,151599,1,8,0:0:0:0:
256,192,152170,1,0,0:0:0:0:
256,192,152456,1,8,0:0:0:0:
256,192,152742,1,8,0:0:0:0:
256,192,153028,1,0,0:0:0:0:
256,192,153313,1,8,0:0:0:0:
256,192,153599,1,0,0:0:0:0:
256,192,153885,1,8,0:0:0:0:
256,192,154170,1,8,0:0:0:0:
256,192,154456,1,0,0:0:0:0:
256,192,154742,1,8,0:0:0:0:
256,192,154885,1,8,0:0:0:0:
256,192,155028,1,8,0:0:0:0:
256,192,155599,1,4,0:0:0:0:
256,192,155885,1,8,0:0:0:0:
256,192,156170,1,8,0:0:0:0:
256,192,156456,1,0,0:0:0:0:
256,192,156742,1,8,0:0:0:0:
256,192,157313,1,8,0:0:0:0:
256,192,157885,1,8,0:0:0:0:
256,192,158170,1,0,0:0:0:0:
256,192,158456,1,8,0:0:0:0:
256,192,158742,1,8,0:0:0:0:
256,192,159028,1,0,0:0:0:0:
256,192,159456,1,0,0:0:0:0:
256,192,159599,1,8,0:0:0:0:
256,192,159885,1,8,0:0:0:0:
256,192,160170,1,0,0:0:0:0:
256,192,160742,1,8,0:0:0:0:
256,192,161313,1,8,0:0:0:0:
256,192,161599,1,0,0:0:0:0:
256,192,161885,1,8,0:0:0:0:
256,192,162028,1,8,0:0:0:0:
256,192,162170,1,8,0:0:0:0:
256,192,162456,1,0,0:0:0:0:
256,192,162742,1,8,0:0:0:0:
256,192,163028,1,8,0:0:0:0:
256,192,163313,1,0,0:0:0:0:
256,192,163599,1,8,0:0:0:0:
256,192,163885,1,0,0:0:0:0:
256,192,164170,1,8,0:0:0:0:
256,192,164313,1,8,0:0:0:0:
256,192,164456,1,8,0:0:0:0:
256,192,164742,1,12,0:0:0:0:
256,192,165028,1,8,0:0:0:0:
256,192,165313,1,0,0:0:0:0:
256,192,165599,1,8,0:0:0:0:
256,192,165885,1,0,0:0:0:0:
256,192,166456,1,8,0:0:0:0:
256,192,166742,1,8,0:0:0:0:
256,192,167028,1,0,0:0:0:0:
256,192,167313,1,8,0:0:0:0:
256,192,167599,1,0,0:0:0:0:
256,192,167885,1,8,0:0:0:0:
256,192,168170,1,8,0:0:0:0:
256,192,168742,1,8,0:0:0:0:
256,192,169313,1,0,0:0:0:0:
256,192,169599,1,8,0:0:0:0:
256,192,169885,1,8,0:0:0:0:
256,192,170170,1,0,0:0:0:0:
256,192,170456,1,8,0:0:0:0:
256,192,171028,1,8,0:0:0:0:
256,192,171313,1,8,0:0:0:0:
256,192,171599,1,0,0:0:0:0:
256,192,171885,1,8,0:0:0:0:
256,192,172170,1,8,0:0:0:0:
256,192,172456,1,0,0:0:0:0:
256,192,172742,1,8,0:0:0:0:
256,192,173028,1,8,0:0:0:0:
256,192,173170,1,8,0:0:0:0:
256,192,173313,1,8,0:0:0:0:
256,192,173885,1,12,0:0:0:0:
256,192,174170,1,8,0:0:0:0:
256,192,174456,1,0,0:0:0:0:
256,192,174742,1,8,0:0:0:0:
256,192,175028,1,0,0:0:0:0:
256,192,175599,1,8,0:0:0:0:
256,192,175885,1,8,0:0:0:0:
256,192,176170,1,8,0:0:0:0:
256,192,176456,1,0,0:0:0:0:
256,192,176742,1,0,0:0:0:0:
256,192,177028,1,8,0:0:0:0:
256,192,177313,1,8,0:0:0:0:
256,192,177885,1,8,0:0:0:0:
256,192,178456,1,0,0:0:0:0:
256,192,179028,1,8,0:0:0:0:
256,192,179313,1,0,0:0:0:0:
256,192,179599,1,8,0:0:0:0:
256,192,179885,1,0,0:0:0:0:
256,192,180170,1,8,0:0:0:0:
256,192,180313,1,8,0:0:0:0:
256,192,180456,1,8,0:0:0:0:
256,192,180742,1,0,0:0:0:0:
256,192,181028,1,8,0:0:0:0:
256,192,181313,1,0,0:0:0:0:
256,192,181599,1,0,0:0:0:0:
256,192,181885,1,8,0:0:0:0:
256,192,182170,1,0,0:0:0:0:
256,192,182456,1,8,0:0:0:0:
256,192,182599,1,8,0:0:0:0:
256,192,182742,1,8,0:0:0:0:
256,192,183028,1,4,0:0:0:0:
256,192,183599,1,8,0:0:0:0:
256,192,184170,1,0,0:0:0:0:
256,192,184742,1,0,0:0:0:0:
256,192,185028,1,8,0:0:0:0:
256,192,185313,1,8,0:0:0:0:
256,192,185885,1,0,0:0:0:0:
256,192,186456,1,8,0:0:0:0:
256,192,187028,1,0,0:0:0:0:
256,192,187599,1,4,0:0:0:0:
256,192,188170,1,8,0:0:0:0:
256,192,188742,1,0,0:0:0:0:
256,192,189313,1,8,0:0:0:0:
256,192,189599,1,8,0:0:0:0:
256,192,189885,1,0,0:0:0:0:
256,192,190456,1,8,0:0:0:0:
256,192,190742,1,0,0:0:0:0:
256,192,191028,1,8,0:0:0:0:
256,192,191599,1,8,0:0:0:0:
256,192,192170,1,4,0:0:0:0:
256,192,192742,1,8,0:0:0:0:
256,192,193028,1,8,0:0:0:0:
256,192,193313,1,0,0:0:0:0:
256,192,193885,1,0,0:0:0:0:
256,192,194170,1,8,0:0:0:0:
256,192,194456,1,8,0:0:0:0:
256,192,195028,1,0,0:0:0:0:
256,192,195599,1,8,0:0:0:0:
256,192,196170,1,8,0:0:0:0:
256,192,196456,1,8,0:0:0:0:
256,192,196742,1,4,0:0:0:0:
256,192,197313,1,8,0:0:0:0:
256,192,197885,1,8,0:0:0:0:
256,192,198170,1,0,0:0:0:0:
256,192,198456,1,8,0:0:0:0:
256,192,198599,1,8,0:0:0:0:
256,192,198742,1,8,0:0:0:0:
256,192,199028,1,4,0:0:0:0:
256,192,200170,1,0,0:0:0:0:
256,192,200742,1,8,0:0:0:0:
256,192,201313,1,4,0:0:0:0:
256,192,201599,1,8,0:0:0:0:
256,192,201885,1,8,0:0:0:0:
256,192,202170,1,0,0:0:0:0:
256,192,202456,1,8,0:0:0:0:
256,192,203028,1,8,0:0:0:0:
256,192,203599,1,0,0:0:0:0:
256,192,203885,1,8,0:0:0:0:
256,192,204170,1,8,0:0:0:0:
256,192,204456,1,8,0:0:0:0:
256,192,204742,1,0,0:0:0:0:
256,192,205170,1,0,0:0:0:0:
256,192,205313,1,8,0:0:0:0:
256,192,205599,1,8,0:0:0:0:
256,192,205885,1,0,0:0:0:0:
256,192,206456,1,8,0:0:0:0:
256,192,207028,1,8,0:0:0:0:
256,192,207313,1,8,0:0:0:0:
256,192,207599,1,8,0:0:0:0:
256,192,207885,1,8,0:0:0:0:
256,192,208170,1,0,0:0:0:0:
256,192,208456,1,8,0:0:0:0:
256,192,208742,1,0,0:0:0:0:
256,192,209028,1,0,0:0:0:0:
256,192,209313,1,8,0:0:0:0:
256,192,209599,1,8,0:0:0:0:
256,192,209742,1,8,0:0:0:0:
256,192,209885,1,8,0:0:0:0:
256,192,210456,1,4,0:0:0:0:
256,192,210742,1,8,0:0:0:0:
256,192,211028,1,8,0:0:0:0:
256,192,211313,1,0,0:0:0:0:
256,192,211599,1,8,0:0:0:0:
256,192,212170,1,8,0:0:0:0:
256,192,212742,1,8,0:0:0:0:
256,192,213028,1,0,0:0:0:0:
256,192,213313,1,8,0:0:0:0:
256,192,213599,1,8,0:0:0:0:
256,192,213885,1,0,0:0:0:0:
256,192,214170,1,0,0:0:0:0:
256,192,214456,1,8,0:0:0:0:
256,192,214742,1,8,0:0:0:0:
256,192,215028,1,0,0:0:0:0:
256,192,215599,1,8,0:0:0:0:
256,192,216170,1,8,0:0:0:0:
256,192,216456,1,0,0:0:0:0:
256,192,216742,1,8,0:0:0:0:
256,192,216885,1,8,0:0:0:0:
256,192,217028,1,8,0:0:0:0:
256,192,217313,1,0,0:0:0:0:
256,192,217599,1,8,0:0:0:0:
256,192,217885,1,8,0:0:0:0:
256,192,218170,1,0,0:0:0:0:
256,192,218456,1,8,0:0:0:0:
256,192,218742,1,0,0:0:0:0:
256,192,219028,1,8,0:0:0:0:
256,192,219170,1,8,0:0:0:0:
256,192,219313,1,8,0:0:0:0:
256,192,219599,1,12,0:0:0:0:
256,192,219885,1,8,0:0:0:0:
256,192,220170,1,0,0:0:0:0:
256,192,220456,1,8,0:0:0:0:
256,192,220742,1,0,0:0:0:0:
256,192,221313,1,8,0:0:0:0:
256,192,221599,1,8,0:0:0:0:
256,192,221885,1,0,0:0:0:0:
256,192,222170,1,8,0:0:0:0:
256,192,222456,1,0,0:0:0:0:
256,192,222742,1,8,0:0:0:0:
256,192,223028,1,8,0:0:0:0:
256,192,223599,1,8,0:0:0:0:
256,192,224170,1,0,0:0:0:0:
256,192,224456,1,8,0:0:0:0:
256,192,224742,1,8,0:0:0:0:
256,192,225028,1,0,0:0:0:0:
256,192,225313,1,8,0:0:0:0:
256,192,225885,1,8,0:0:0:0:
256,192,226170,1,8,0:0:0:0:
256,192,226456,1,0,0:0:0:0:
256,192,226742,1,8,0:0:0:0:
256,192,227028,1,0,0:0:0:0:
256,192,227313,1,0,0:0:0:0:
256,192,227599,1,8,0:0:0:0:
256,192,227885,1,8,0:0:0:0:
256,192,228028,1,8,0:0:0:0:
256,192,228170,1,8,0:0:0:0:
256,192,228742,1,12,0:0:0:0:
256,192,229028,1,8,0:0:0:0:
256,192,229313,1,0,0:0:0:0:
256,192,229599,1,8,0:0:0:0:
256,192,229885,1,0,0:0:0:0:
256,192,230456,1,8,0:0:0:0:
256,192,231028,1,8,0:0:0:0:
256,192,231313,1,0,0:0:0:0:
256,192,231599,1,8,0:0:0:0:
256,192,231885,1,0,0:0:0:0:
256,192,232170,1,8,0:0:0:0:
256,192,232742,1,8,0:0:0:0:
256,192,233028,1,8,0:0:0:0:
256,192,233313,1,0,0:0:0:0:
256,192,233599,1,8,0:0:0:0:
256,192,233885,1,8,0:0:0:0:
256,192,234170,1,0,0:0:0:0:
256,192,234456,1,8,0:0:0:0:
256,192,234742,1,0,0:0:0:0:
256,192,235028,1,8,0:0:0:0:
256,192,235170,1,8,0:0:0:0:
256,192,235313,1,8,0:0:0:0:
256,192,235599,1,0,0:0:0:0:
256,192,235885,1,8,0:0:0:0:
256,192,236170,1,0,0:0:0:0:
256,192,236313,1,0,0:0:0:0:
256,192,236456,1,0,0:0:0:0:
256,192,236742,1,8,0:0:0:0:
256,192,237028,1,0,0:0:0:0:
256,192,237313,1,8,0:0:0:0:
256,192,237456,1,8,0:0:0:0:
256,192,237599,1,8,0:0:0:0:
256,192,237885,1,4,0:0:0:0:
256,192,238456,1,8,0:0:0:0:
256,192,238742,1,8,0:0:0:0:
256,192,239028,1,0,0:0:0:0:
256,192,239599,1,0,0:0:0:0:
256,192,240170,1,8,0:0:0:0:
256,192,240456,1,0,0:0:0:0:
256,192,240742,1,0,0:0:0:0:
256,192,241028,1,8,0:0:0:0:
256,192,241313,1,0,0:0:0:0:
256,192,241885,1,8,0:0:0:0:
256,192,242170,1,8,0:0:0:0:
256,192,242456,1,0,0:0:0:0:
256,192,243028,1,8,0:0:0:0:
256,192,243599,1,0,0:0:0:0:
256,192,243885,1,8,0:0:0:0:
256,192,244170,1,8,0:0:0:0:
256,192,244456,1,8,0:0:0:0:
256,192,244742,1,0,0:0:0:0:
256,192,245313,1,8,0:0:0:0:
256,192,245599,1,0,0:0:0:0:
256,192,245885,1,8,0:0:0:0:
256,192,246170,1,8,0:0:0:0:
256,192,246456,1,0,0:0:0:0:
256,192,247028,1,4,0:0:0:0:
256,192,247599,1,8,0:0:0:0:
256,192,247885,1,8,0:0:0:0:
256,192,248170,1,0,0:0:0:0:
256,192,248742,1,8,0:0:0:0:
256,192,249028,1,0,0:0:0:0:
256,192,249313,1,8,0:0:0:0:
256,192,249885,1,0,0:0:0:0:
256,192,250456,1,8,0:0:0:0:
256,192,251028,1,8,0:0:0:0:
256,192,251313,1,8,0:0:0:0:
256,192,251599,1,0,0:0:0:0:
256,192,252170,1,8,0:0:0:0:
256,192,252742,1,0,0:0:0:0:
256,192,253028,1,0,0:0:0:0:
256,192,253313,1,8,0:0:0:0:
256,192,253599,1,8,0:0:0:0:
256,192,253885,1,0,0:0:0:0:
256,192,254456,1,8,0:0:0:0:
256,192,254742,1,8,0:0:0:0:
256,192,255028,1,0,0:0:0:0:
256,192,255599,1,8,0:0:0:0:
256,192,255742,1,8,0:0:0:0:
256,192,255885,1,8,0:0:0:0:
256,192,256170,1,4,0:0:0:0:
