osu file format v14

[General]
AudioFilename: audio.mp3
AudioLeadIn: 0
PreviewTime: 44022
Countdown: 0
SampleSet: Soft
StackLeniency: 0.7
Mode: 3
LetterboxInBreaks: 0
SpecialStyle: 0
WidescreenStoryboard: 1

[Editor]
DistanceSpacing: 1.5
BeatDivisor: 4
GridSize: 32
TimelineZoom: 0.6999999

[Metadata]
Title:Sora de Oyasumi (feat. YUKA NAGASE)
TitleUnicode:宙でおやすみ (feat. 長瀬有花)
Artist:Aiobahn
ArtistUnicode:Aiobahn
Creator:Ucitysm
Version:ojq's ez
Source:
Tags:vtuber vsinger virtual youtuber female singer riotmusic riot music indoroid tigerinity doofyplayer livium [ping] ojq min-hyuk min-seung kim minhyuk minseung アイオバーン future garage j-pop jpop japanese pop mellow electronic
BeatmapID:4082459
BeatmapSetID:1968284

[Difficulty]
HPDrainRate:6.5
CircleSize:4
OverallDifficulty:6.5
ApproachRate:5
SliderMultiplier:1.4
SliderTickRate:1

[Events]
//Background and Video events
0,0,"aiobahn__ameow.jpg",0,0
//Break Periods
//Storyboard Layer 0 (Background)
//Storyboard Layer 1 (Fail)
//Storyboard Layer 2 (Pass)
//Storyboard Layer 3 (Foreground)
//Storyboard Layer 4 (Overlay)
//Storyboard Sound Samples

[TimingPoints]
925.93893129771,461.538461538462,4,2,1,20,1,0
15695,-100,4,2,1,30,0,0
30464,-100,4,2,1,35,0,0
43387,-100,4,2,1,25,0,0
45233,-100,4,2,1,35,0,0
60002,-100,4,2,1,45,0,1
74772,-100,4,2,1,35,0,0
89541,-100,4,2,1,35,0,0
102464,-100,4,2,1,25,0,0
104310,-100,4,2,1,35,0,0
119079,-100,4,2,1,45,0,1
133849,-100,4,2,1,35,0,0

[HitObjects]
320,192,925,5,0,0:0:0:0:
448,192,925,1,0,0:0:0:0:
192,192,2772,1,0,0:0:0:0:
320,192,2772,1,0,0:0:0:0:
192,192,4618,1,0,0:0:0:0:
64,192,4618,1,0,0:0:0:0:
320,192,6464,1,0,0:0:0:0:
64,192,6464,1,0,0:0:0:0:
64,192,7156,1,0,0:0:0:0:
448,192,7156,1,0,0:0:0:0:
320,192,8310,1,0,0:0:0:0:
448,192,8310,1,0,0:0:0:0:
192,192,10156,1,0,0:0:0:0:
320,192,10156,1,0,0:0:0:0:
192,192,12002,1,0,0:0:0:0:
64,192,12002,1,0,0:0:0:0:
192,192,13849,1,0,0:0:0:0:
192,192,14541,1,0,0:0:0:0:
320,192,14541,1,0,0:0:0:0:
320,192,15695,1,0,0:0:0:0:
448,192,15695,1,0,0:0:0:0:
192,192,16156,1,0,0:0:0:0:
448,192,16618,1,0,0:0:0:0:
64,192,17079,1,0,0:0:0:0:
320,192,17541,1,0,0:0:0:0:
448,192,17541,1,0,0:0:0:0:
320,192,18002,1,0,0:0:0:0:
192,192,18464,1,0,0:0:0:0:
64,192,18925,1,0,0:0:0:0:
448,192,19387,1,0,0:0:0:0:
320,192,19387,1,0,0:0:0:0:
192,192,19849,1,0,0:0:0:0:
64,192,20310,1,0,0:0:0:0:
448,192,20772,1,0,0:0:0:0:
192,192,21233,1,0,0:0:0:0:
64,192,21233,1,0,0:0:0:0:
192,192,21695,1,0,0:0:0:0:
320,192,22156,1,0,0:0:0:0:
448,192,22618,1,0,0:0:0:0:
64,192,23079,1,0,0:0:0:0:
192,192,23079,1,0,0:0:0:0:
320,192,23541,1,0,0:0:0:0:
192,192,24002,1,0,0:0:0:0:
448,192,24464,1,0,0:0:0:0:
192,192,24925,1,0,0:0:0:0:
64,192,24925,1,0,0:0:0:0:
64,192,25387,1,0,0:0:0:0:
320,192,25849,1,0,0:0:0:0:
448,192,26310,1,0,0:0:0:0:
64,192,26772,1,0,0:0:0:0:
448,192,26772,1,0,0:0:0:0:
320,192,27464,1,0,0:0:0:0:
192,192,28156,1,0,0:0:0:0:
448,192,28618,1,0,0:0:0:0:
320,192,28618,1,0,0:0:0:0:
192,192,29310,1,0,0:0:0:0:
64,192,29310,1,0,0:0:0:0:
64,192,30464,128,0,30925:0:0:0:0:
192,192,30464,1,0,0:0:0:0:
320,192,30925,1,0,0:0:0:0:
448,192,31387,128,0,31849:0:0:0:0:
192,192,31849,1,0,0:0:0:0:
320,192,32310,1,0,0:0:0:0:
64,192,32310,1,0,0:0:0:0:
448,192,32772,1,0,0:0:0:0:
64,192,33233,1,0,0:0:0:0:
320,192,33695,1,0,0:0:0:0:
64,192,34156,128,0,34618:0:0:0:0:
192,192,34156,1,0,0:0:0:0:
320,192,34618,1,0,0:0:0:0:
448,192,35079,128,0,35541:0:0:0:0:
192,192,35541,1,0,0:0:0:0:
448,192,36002,1,0,0:0:0:0:
64,192,36002,1,0,0:0:0:0:
320,192,36464,1,0,0:0:0:0:
64,192,36925,1,0,0:0:0:0:
448,192,37387,1,0,0:0:0:0:
192,192,37849,128,0,38310:0:0:0:0:
64,192,37849,1,0,0:0:0:0:
320,192,38310,1,0,0:0:0:0:
448,192,38772,128,0,39233:0:0:0:0:
192,192,39233,1,0,0:0:0:0:
320,192,39695,1,0,0:0:0:0:
64,192,39695,1,0,0:0:0:0:
448,192,40156,1,0,0:0:0:0:
64,192,40618,1,0,0:0:0:0:
192,192,41079,1,0,0:0:0:0:
320,192,41541,128,0,43387:0:0:0:0:
448,192,41541,1,0,0:0:0:0:
320,192,44772,1,0,0:0:0:0:
64,192,45002,1,0,0:0:0:0:
448,192,45233,1,0,0:0:0:0:
320,192,45233,1,0,0:0:0:0:
64,192,45695,1,0,0:0:0:0:
448,192,45925,1,0,0:0:0:0:
192,192,46156,1,0,0:0:0:0:
448,192,46387,1,0,0:0:0:0:
192,192,46618,1,0,0:0:0:0:
320,192,47079,1,0,0:0:0:0:
320,192,47541,1,0,0:0:0:0:
192,192,47772,1,0,0:0:0:0:
448,192,48002,1,0,0:0:0:0:
64,192,48464,1,0,0:0:0:0:
320,192,48695,1,0,0:0:0:0:
192,192,48925,1,0,0:0:0:0:
64,192,48925,1,0,0:0:0:0:
320,192,49387,1,0,0:0:0:0:
448,192,49618,1,0,0:0:0:0:
192,192,49849,1,0,0:0:0:0:
448,192,50079,1,0,0:0:0:0:
192,192,50310,1,0,0:0:0:0:
320,192,50772,1,0,0:0:0:0:
192,192,51233,1,0,0:0:0:0:
320,192,51464,1,0,0:0:0:0:
448,192,51695,1,0,0:0:0:0:
320,192,52156,1,0,0:0:0:0:
64,192,52387,1,0,0:0:0:0:
448,192,52618,1,0,0:0:0:0:
320,192,52618,1,0,0:0:0:0:
64,192,53079,1,0,0:0:0:0:
448,192,53310,1,0,0:0:0:0:
192,192,53541,1,0,0:0:0:0:
448,192,53772,1,0,0:0:0:0:
192,192,54002,1,0,0:0:0:0:
320,192,54464,1,0,0:0:0:0:
320,192,54925,1,0,0:0:0:0:
192,192,55156,1,0,0:0:0:0:
448,192,55387,1,0,0:0:0:0:
64,192,55849,1,0,0:0:0:0:
320,192,56079,1,0,0:0:0:0:
192,192,56310,1,0,0:0:0:0:
64,192,56310,1,0,0:0:0:0:
320,192,56772,1,0,0:0:0:0:
448,192,57002,1,0,0:0:0:0:
192,192,57233,1,0,0:0:0:0:
448,192,57464,1,0,0:0:0:0:
192,192,57695,1,0,0:0:0:0:
320,192,58156,1,0,0:0:0:0:
192,192,58618,1,0,0:0:0:0:
64,192,58849,1,0,0:0:0:0:
320,192,59079,1,0,0:0:0:0:
320,192,59541,1,0,0:0:0:0:
448,192,59772,1,0,0:0:0:0:
192,192,60002,1,0,0:0:0:0:
64,192,60002,1,0,0:0:0:0:
320,192,60464,1,0,0:0:0:0:
64,192,60925,1,0,0:0:0:0:
448,192,60925,1,0,0:0:0:0:
192,192,61387,1,0,0:0:0:0:
320,192,61849,1,0,0:0:0:0:
448,192,61849,128,0,62310:0:0:0:0:
64,192,62310,1,0,0:0:0:0:
192,192,62541,1,0,0:0:0:0:
448,192,62772,1,0,0:0:0:0:
64,192,63233,1,0,0:0:0:0:
320,192,63464,1,0,0:0:0:0:
192,192,63695,1,0,0:0:0:0:
64,192,63695,128,0,64156:0:0:0:0:
320,192,64156,1,0,0:0:0:0:
64,192,64618,1,0,0:0:0:0:
448,192,64618,1,0,0:0:0:0:
192,192,65079,1,0,0:0:0:0:
320,192,65541,1,0,0:0:0:0:
448,192,65541,1,0,0:0:0:0:
64,192,66002,1,0,0:0:0:0:
320,192,66233,1,0,0:0:0:0:
448,192,66464,1,0,0:0:0:0:
64,192,66925,1,0,0:0:0:0:
320,192,67156,1,0,0:0:0:0:
192,192,67387,1,0,0:0:0:0:
64,192,67387,1,0,0:0:0:0:
320,192,67849,1,0,0:0:0:0:
64,192,68310,1,0,0:0:0:0:
448,192,68310,1,0,0:0:0:0:
192,192,68772,1,0,0:0:0:0:
320,192,69233,1,0,0:0:0:0:
448,192,69233,128,0,69695:0:0:0:0:
64,192,69695,1,0,0:0:0:0:
192,192,69925,1,0,0:0:0:0:
448,192,70156,1,0,0:0:0:0:
64,192,70618,1,0,0:0:0:0:
320,192,70849,1,0,0:0:0:0:
192,192,71079,1,0,0:0:0:0:
64,192,71079,128,0,71541:0:0:0:0:
320,192,71541,1,0,0:0:0:0:
64,192,72002,1,0,0:0:0:0:
448,192,72002,1,0,0:0:0:0:
192,192,72464,1,0,0:0:0:0:
320,192,72925,1,0,0:0:0:0:
448,192,72925,1,0,0:0:0:0:
192,192,73618,1,0,0:0:0:0:
64,192,73618,1,0,0:0:0:0:
448,192,73849,1,0,0:0:0:0:
64,192,74310,1,0,0:0:0:0:
448,192,74310,1,0,0:0:0:0:
320,192,74541,1,0,0:0:0:0:
192,192,74772,1,0,0:0:0:0:
64,192,74772,1,0,0:0:0:0:
448,192,75233,1,0,0:0:0:0:
192,192,75695,1,0,0:0:0:0:
320,192,76156,1,0,0:0:0:0:
64,192,76618,1,0,0:0:0:0:
448,192,76618,1,0,0:0:0:0:
192,192,77079,1,0,0:0:0:0:
448,192,77541,1,0,0:0:0:0:
64,192,78002,1,0,0:0:0:0:
320,192,78464,1,0,0:0:0:0:
448,192,78464,1,0,0:0:0:0:
192,192,78925,1,0,0:0:0:0:
320,192,79387,1,0,0:0:0:0:
448,192,79849,1,0,0:0:0:0:
192,192,80310,1,0,0:0:0:0:
64,192,80310,1,0,0:0:0:0:
64,192,80772,1,0,0:0:0:0:
320,192,81002,1,0,0:0:0:0:
192,192,81233,128,0,81695:0:0:0:0:
448,192,81695,1,0,0:0:0:0:
64,192,81925,1,0,0:0:0:0:
320,192,82156,1,0,0:0:0:0:
448,192,82156,1,0,0:0:0:0:
64,192,82618,1,0,0:0:0:0:
192,192,83079,1,0,0:0:0:0:
320,192,83541,1,0,0:0:0:0:
64,192,84002,1,0,0:0:0:0:
448,192,84002,1,0,0:0:0:0:
192,192,84464,1,0,0:0:0:0:
448,192,84925,1,0,0:0:0:0:
320,192,85387,1,0,0:0:0:0:
192,192,85849,1,0,0:0:0:0:
64,192,85849,1,0,0:0:0:0:
320,192,86310,1,0,0:0:0:0:
192,192,86772,1,0,0:0:0:0:
448,192,87233,1,0,0:0:0:0:
64,192,87695,1,0,0:0:0:0:
192,192,87695,1,0,0:0:0:0:
320,192,88156,1,0,0:0:0:0:
448,192,88618,1,0,0:0:0:0:
192,192,88849,1,0,0:0:0:0:
320,192,89079,1,0,0:0:0:0:
64,192,89541,128,0,90002:0:0:0:0:
192,192,89541,1,0,0:0:0:0:
320,192,90002,1,0,0:0:0:0:
448,192,90464,128,0,90925:0:0:0:0:
192,192,90925,1,0,0:0:0:0:
320,192,91387,1,0,0:0:0:0:
64,192,91387,1,0,0:0:0:0:
448,192,91849,1,0,0:0:0:0:
64,192,92310,1,0,0:0:0:0:
320,192,92772,1,0,0:0:0:0:
64,192,93233,128,0,93695:0:0:0:0:
192,192,93233,1,0,0:0:0:0:
320,192,93695,1,0,0:0:0:0:
448,192,94156,128,0,94618:0:0:0:0:
192,192,94618,1,0,0:0:0:0:
448,192,95079,1,0,0:0:0:0:
64,192,95079,1,0,0:0:0:0:
320,192,95541,1,0,0:0:0:0:
64,192,96002,1,0,0:0:0:0:
448,192,96464,1,0,0:0:0:0:
192,192,96925,128,0,97387:0:0:0:0:
64,192,96925,1,0,0:0:0:0:
320,192,97387,1,0,0:0:0:0:
448,192,97849,128,0,98310:0:0:0:0:
192,192,98310,1,0,0:0:0:0:
320,192,98772,1,0,0:0:0:0:
64,192,98772,1,0,0:0:0:0:
448,192,99233,1,0,0:0:0:0:
64,192,99695,1,0,0:0:0:0:
192,192,100156,1,0,0:0:0:0:
320,192,100618,128,0,102464:0:0:0:0:
448,192,100618,1,0,0:0:0:0:
320,192,103849,1,0,0:0:0:0:
64,192,104079,1,0,0:0:0:0:
448,192,104310,1,0,0:0:0:0:
320,192,104310,1,0,0:0:0:0:
192,192,104772,1,0,0:0:0:0:
192,192,105233,1,0,0:0:0:0:
320,192,105464,1,0,0:0:0:0:
448,192,105695,1,0,0:0:0:0:
192,192,106156,1,0,0:0:0:0:
64,192,106387,1,0,0:0:0:0:
448,192,106618,1,0,0:0:0:0:
320,192,107079,1,0,0:0:0:0:
192,192,107310,1,0,0:0:0:0:
64,192,107541,1,0,0:0:0:0:
320,192,107772,1,0,0:0:0:0:
192,192,108002,1,0,0:0:0:0:
64,192,108002,1,0,0:0:0:0:
448,192,108464,1,0,0:0:0:0:
192,192,108925,1,0,0:0:0:0:
320,192,109156,1,0,0:0:0:0:
448,192,109387,1,0,0:0:0:0:
192,192,109849,1,0,0:0:0:0:
64,192,110079,1,0,0:0:0:0:
320,192,110310,1,0,0:0:0:0:
448,192,110772,1,0,0:0:0:0:
320,192,111002,1,0,0:0:0:0:
192,192,111233,1,0,0:0:0:0:
64,192,111464,1,0,0:0:0:0:
448,192,111695,1,0,0:0:0:0:
320,192,111695,1,0,0:0:0:0:
192,192,112156,1,0,0:0:0:0:
192,192,112618,1,0,0:0:0:0:
320,192,112849,1,0,0:0:0:0:
448,192,113079,1,0,0:0:0:0:
192,192,113541,1,0,0:0:0:0:
64,192,113772,1,0,0:0:0:0:
448,192,114002,1,0,0:0:0:0:
320,192,114464,1,0,0:0:0:0:
192,192,114695,1,0,0:0:0:0:
64,192,114925,1,0,0:0:0:0:
320,192,115156,1,0,0:0:0:0:
192,192,115387,1,0,0:0:0:0:
64,192,115387,1,0,0:0:0:0:
448,192,115849,1,0,0:0:0:0:
192,192,116310,1,0,0:0:0:0:
320,192,116541,1,0,0:0:0:0:
448,192,116772,1,0,0:0:0:0:
192,192,117233,1,0,0:0:0:0:
64,192,117464,1,0,0:0:0:0:
320,192,117695,1,0,0:0:0:0:
448,192,118156,1,0,0:0:0:0:
320,192,118387,1,0,0:0:0:0:
192,192,118618,1,0,0:0:0:0:
448,192,118849,1,0,0:0:0:0:
192,192,119079,1,0,0:0:0:0:
64,192,119079,1,0,0:0:0:0:
320,192,119541,1,0,0:0:0:0:
64,192,120002,1,0,0:0:0:0:
448,192,120002,1,0,0:0:0:0:
192,192,120464,1,0,0:0:0:0:
320,192,120925,1,0,0:0:0:0:
448,192,120925,128,0,121387:0:0:0:0:
64,192,121387,1,0,0:0:0:0:
192,192,121618,1,0,0:0:0:0:
448,192,121849,1,0,0:0:0:0:
64,192,122310,1,0,0:0:0:0:
320,192,122541,1,0,0:0:0:0:
192,192,122772,1,0,0:0:0:0:
64,192,122772,128,0,123233:0:0:0:0:
320,192,123233,1,0,0:0:0:0:
64,192,123695,1,0,0:0:0:0:
448,192,123695,1,0,0:0:0:0:
192,192,124156,1,0,0:0:0:0:
320,192,124618,1,0,0:0:0:0:
448,192,124618,1,0,0:0:0:0:
64,192,125079,1,0,0:0:0:0:
320,192,125310,1,0,0:0:0:0:
448,192,125541,1,0,0:0:0:0:
448,192,126002,1,0,0:0:0:0:
320,192,126233,1,0,0:0:0:0:
192,192,126464,1,0,0:0:0:0:
64,192,126464,1,0,0:0:0:0:
320,192,126925,1,0,0:0:0:0:
64,192,127387,1,0,0:0:0:0:
448,192,127387,1,0,0:0:0:0:
192,192,127849,1,0,0:0:0:0:
320,192,128310,1,0,0:0:0:0:
448,192,128310,128,0,128772:0:0:0:0:
64,192,128772,1,0,0:0:0:0:
192,192,129002,1,0,0:0:0:0:
448,192,129233,1,0,0:0:0:0:
64,192,129695,1,0,0:0:0:0:
320,192,129925,1,0,0:0:0:0:
192,192,130156,1,0,0:0:0:0:
64,192,130156,128,0,130618:0:0:0:0:
320,192,130618,1,0,0:0:0:0:
64,192,131079,1,0,0:0:0:0:
448,192,131079,1,0,0:0:0:0:
192,192,131541,1,0,0:0:0:0:
320,192,132002,1,0,0:0:0:0:
448,192,132002,1,0,0:0:0:0:
192,192,132695,1,0,0:0:0:0:
64,192,132695,1,0,0:0:0:0:
320,192,132925,1,0,0:0:0:0:
64,192,133387,1,0,0:0:0:0:
448,192,133387,1,0,0:0:0:0:
320,192,133618,1,0,0:0:0:0:
192,192,133849,1,0,0:0:0:0:
64,192,133849,1,0,0:0:0:0:
192,192,134310,1,0,0:0:0:0:
192,192,134772,1,0,0:0:0:0:
320,192,135233,1,0,0:0:0:0:
192,192,135464,1,0,0:0:0:0:
448,192,135695,1,0,0:0:0:0:
64,192,136041,1,0,0:0:0:0:
448,192,136387,1,0,0:0:0:0:
64,192,136733,1,0,0:0:0:0:
192,192,137079,1,0,0:0:0:0:
320,192,137541,1,0,0:0:0:0:
320,192,138002,1,0,0:0:0:0:
320,192,138464,1,0,0:0:0:0:
192,192,138925,1,0,0:0:0:0:
320,192,139156,1,0,0:0:0:0:
64,192,139387,1,0,0:0:0:0:
448,192,139733,1,0,0:0:0:0:
64,192,140079,1,0,0:0:0:0:
448,192,140425,1,0,0:0:0:0:
320,192,140772,1,0,0:0:0:0:
192,192,141233,1,0,0:0:0:0:
448,192,141233,1,0,0:0:0:0:
192,192,141695,1,0,0:0:0:0:
192,192,142156,1,0,0:0:0:0:
320,192,142618,1,0,0:0:0:0:
192,192,142849,1,0,0:0:0:0:
448,192,143079,1,0,0:0:0:0:
64,192,143425,1,0,0:0:0:0:
448,192,143772,1,0,0:0:0:0:
64,192,144118,1,0,0:0:0:0:
192,192,144464,1,0,0:0:0:0:
320,192,144925,1,0,0:0:0:0:
320,192,145387,1,0,0:0:0:0:
320,192,145849,1,0,0:0:0:0:
192,192,146310,1,0,0:0:0:0:
320,192,146541,1,0,0:0:0:0:
64,192,146772,1,0,0:0:0:0:
448,192,147118,1,0,0:0:0:0:
64,192,147464,1,0,0:0:0:0:
448,192,147810,1,0,0:0:0:0:
320,192,148156,1,0,0:0:0:0:
192,192,148618,1,0,0:0:0:0:
64,192,148618,1,0,0:0:0:0:
192,192,149079,1,0,0:0:0:0:
192,192,149541,1,0,0:0:0:0:
320,192,150002,1,0,0:0:0:0:
192,192,150233,1,0,0:0:0:0:
448,192,150464,1,0,0:0:0:0:
64,192,150810,1,0,0:0:0:0:
448,192,151156,1,0,0:0:0:0:
64,192,151502,1,0,0:0:0:0:
192,192,151849,1,0,0:0:0:0:
320,192,152310,1,0,0:0:0:0:
320,192,152772,1,0,0:0:0:0:
320,192,153233,1,0,0:0:0:0:
192,192,153695,1,0,0:0:0:0:
320,192,153925,1,0,0:0:0:0:
64,192,154156,1,0,0:0:0:0:
448,192,154502,1,0,0:0:0:0:
64,192,154849,1,0,0:0:0:0:
448,192,155195,1,0,0:0:0:0:
320,192,155541,1,0,0:0:0:0:
192,192,156002,1,0,0:0:0:0:
448,192,156002,1,0,0:0:0:0:
192,192,156464,1,0,0:0:0:0:
192,192,156925,1,0,0:0:0:0:
320,192,157387,1,0,0:0:0:0:
192,192,157618,1,0,0:0:0:0:
448,192,157849,1,0,0:0:0:0:
64,192,158195,1,0,0:0:0:0:
448,192,158541,1,0,0:0:0:0:
64,192,158887,1,0,0:0:0:0:
192,192,159233,1,0,0:0:0:0:
320,192,159695,1,0,0:0:0:0:
320,192,160156,1,0,0:0:0:0:
320,192,160618,1,0,0:0:0:0:
192,192,161079,1,0,0:0:0:0:
320,192,161310,1,0,0:0:0:0:
64,192,161541,1,0,0:0:0:0:
448,192,161887,1,0,0:0:0:0:
64,192,162233,1,0,0:0:0:0:
448,192,162579,1,0,0:0:0:0:
64,192,162925,1,0,0:0:0:0:
192,192,163156,1,0,0:0:0:0:
448,192,163387,1,0,0:0:0:0:
320,192,163387,1,0,0:0:0:0:
