osu file format v14

[General]
AudioFilename: audio.mp3
AudioLeadIn: 0
PreviewTime: 78750
Countdown: 0
SampleSet: Soft
StackLeniency: 0.7
Mode: 0
LetterboxInBreaks: 0
WidescreenStoryboard: 1

[Editor]
Bookmarks: 17310,32670,40350,122905
DistanceSpacing: 1.3
BeatDivisor: 4
GridSize: 4
TimelineZoom: 2

[Metadata]
Title:Shinen no Mermaid (w/ YUC'e)
TitleUnicode:深淵のマーメイド (w/ YUC'e)
Artist:Aiobahn
ArtistUnicode:Aiobahn
Creator:Cris-
Version:Gero's Normal
Source:
Tags:Gero Japanese Electronic EDM Electro Dance Music Cut Version Feat. YUCe Min-Hyuk Kim Progressive House Monstercat
BeatmapID:2381707
BeatmapSetID:1129090

[Difficulty]
HPDrainRate:4
CircleSize:4
OverallDifficulty:4
ApproachRate:5
SliderMultiplier:1.2
SliderTickRate:1

[Events]
//Background and Video events
0,0,"Mermaid.jpg",0,0
//Break Periods
2,32870,39150
//Storyboard Layer 0 (Background)
//Storyboard Layer 1 (Fail)
//Storyboard Layer 2 (Pass)
//Storyboard Layer 3 (Foreground)
//Storyboard Layer 4 (Overlay)
//Storyboard Sound Samples

[TimingPoints]
1950,480,4,2,1,40,1,0
1950,-100,4,2,1,40,0,0
16350,-100,4,2,1,50,0,0
16830,-100,4,2,1,60,0,0
17190,-100,4,2,1,5,0,0
17310,-100,4,2,1,50,0,0
17670,-100,4,2,1,5,0,0
17790,-100,4,2,1,50,0,0
18630,-100,4,2,1,5,0,0
18750,-100,4,2,1,50,0,0
19590,-100,4,2,1,5,0,0
19710,-100,4,2,1,50,0,0
20550,-100,4,2,1,5,0,0
20670,-100,4,2,1,50,0,0
21030,-100,4,2,1,5,0,0
21150,-100,4,2,1,50,0,0
21510,-100,4,2,1,5,0,0
21630,-100,4,2,1,50,0,0
22470,-100,4,2,1,5,0,0
22590,-100,4,2,1,50,0,0
23430,-100,4,2,1,5,0,0
23550,-100,4,2,1,50,0,0
24870,-100,4,2,1,5,0,0
24990,-100,4,2,1,50,0,0
25350,-100,4,2,1,5,0,0
25470,-100,4,2,1,50,0,0
26310,-100,4,2,1,5,0,0
26430,-100,4,2,1,50,0,0
27270,-100,4,2,1,5,0,0
27390,-100,4,2,1,50,0,0
28230,-100,4,2,1,5,0,0
28350,-100,4,2,1,50,0,0
31110,-100,4,2,1,5,0,0
31230,-100,4,2,1,50,0,0
32190,-100,4,2,1,60,0,0
32550,-100,4,2,1,5,0,0
32670,-100,4,2,1,45,0,0
40350,-100,4,2,1,50,0,0
43950,-100,4,2,1,60,0,0
44190,-100,4,2,1,60,0,0
46110,-100,4,2,1,5,0,0
47430,-100,4,2,1,60,0,0
47550,-100,4,2,2,60,0,0
48030,-100,4,2,3,60,0,0
49950,-100,4,2,1,70,0,1
51270,-100,4,2,1,5,0,1
51390,-100,4,2,1,70,0,1
53190,-100,4,2,1,5,0,1
53310,-100,4,2,1,70,0,1
55470,-100,4,2,1,70,0,0
55710,-100,4,2,1,80,0,1
61470,-100,4,2,1,70,0,0
62910,-100,4,2,1,80,0,0
63390,-100,4,2,1,70,0,0
63870,-100,4,2,2,80,0,1
76830,-100,4,2,1,80,0,1
78750,-100,4,2,1,50,0,0
85830,-100,4,2,1,5,0,0
85950,-100,4,2,1,50,0,0
92550,-100,4,2,1,5,0,0
92670,-100,4,2,1,50,0,0
93510,-100,4,2,1,5,0,0
93630,-100,4,2,1,50,0,0
94110,-100,4,2,1,55,0,0
107550,-100,4,2,1,45,0,0
109465,480,4,2,1,40,1,0
109465,-100,4,2,1,60,0,0
117145,-100,4,2,1,70,0,0
117265,-100,4,2,1,50,0,0
118105,-100,4,2,1,40,0,0
119065,-100,4,2,1,30,0,0
120025,-100,4,2,1,20,0,0
120985,-100,4,2,1,10,0,0
122905,-100,4,2,1,5,0,0

[Colours]
Combo1 : 255,224,132
Combo2 : 101,198,235
Combo3 : 244,136,234
Combo4 : 80,209,197

[HitObjects]
256,40,17310,5,6,1:2:0:0:
228,192,17790,2,0,B|256:202|256:202|284:192,1,60,8|2,0:0|0:0,0:0:0:0:
364,192,18270,2,0,L|329:306,1,120,2|8,1:2|0:0,0:0:0:0:
182,306,19230,2,0,L|148:192,1,120,2|8,1:2|0:0,0:0:0:0:
188,124,19950,1,2,0:0:0:0:
228,192,20190,2,0,B|248:212|256:244|256:244|264:212|284:192,1,120,2|10,1:2|0:0,0:0:0:0:
394,301,21150,5,6,1:2:0:0:
504,192,21630,2,0,P|511:163|504:134,1,60,8|2,0:0|0:0,0:0:0:0:
426,134,22110,2,0,B|366:134|366:134|324:91,1,120,2|8,1:2|0:0,0:0:0:0:
188,91,23070,2,0,B|146:134|146:134|86:134,1,120,2|10,1:2|0:0,0:0:0:0:
7,134,23790,1,2,0:0:0:0:
100,260,24270,1,2,0:0:0:0:
100,260,24510,1,8,0:0:0:0:
255,260,24990,5,6,1:2:0:0:
412,260,25470,2,0,B|402:232|402:232|412:204,1,60,8|2,0:0|0:0,0:0:0:0:
468,148,25950,2,0,B|448:96|396:96|396:96|371:96,1,120,2|8,1:2|0:0,0:0:0:0:
314,41,26670,1,2,0:0:0:0:
256,96,26910,2,0,B|196:96|196:96|140:120,1,120,2|8,1:2|0:0,0:0:0:0:
140,264,27870,2,0,B|196:288|196:288|256:288,1,120,2|10,1:2|0:0,0:0:0:0:
314,343,28590,6,0,B|322:311|354:303|354:303|386:311|394:343,1,120,2|2,0:0|0:0,0:0:0:0:
452,288,29310,2,0,B|380:192|380:192|452:96,1,240,10|8,0:0|0:0,0:0:0:0:
394,41,30510,1,2,0:0:0:0:
336,96,30750,2,0,B|296:112|296:152|296:152|296:198,1,120,2|10,1:2|0:0,0:0:0:0:
216,198,31470,2,0,B|216:152|216:152|216:112|176:96,2,120,2|2|0,0:0|0:0|0:0,0:0:0:0:
256,264,32670,5,14,0:0:0:0:
344,192,40350,6,0,P|396:166|448:192,1,120,10|8,0:0|0:0,0:0:0:0:
480,120,41070,2,0,P|396:92|312:120,1,180,2|10,1:2|0:0,0:0:0:0:
168,192,42270,6,0,P|116:166|64:192,1,120,10|8,0:0|0:0,0:0:0:0:
32,120,42990,2,0,P|116:92|200:120,1,180,2|10,1:2|0:0,0:0:0:0:
256,192,44190,12,0,46110,0:0:0:0:
136,132,47550,6,0,L|136:192,1,60,10|0,0:0|3:0,0:0:0:0:
216,192,48030,6,0,B|208:236|208:236|216:280,1,90,2|2,3:2|3:2,0:0:0:0:
296,192,48750,2,0,B|304:236|304:236|296:280,1,90,2|2,3:2|3:2,0:0:0:0:
376,192,49470,2,0,L|376:132,1,60,2|2,3:2|3:2,0:0:0:0:
444,96,49950,6,0,B|428:52|376:52|392:52|341:52,1,120,2|0,3:2|3:0,0:0:0:0:
276,8,50670,2,0,B|256:40|264:72|264:72|226:109,1,120,2|0,1:2|0:0,0:0:0:0:
171,164,51390,1,2,3:2:0:0:
68,288,51870,6,0,B|84:332|136:332|120:332|171:332,1,120,2|0,3:2|3:0,0:0:0:0:
236,376,52590,2,0,B|256:344|248:312|248:312|285:274,1,120,2|0,1:2|0:0,0:0:0:0:
341,220,53310,1,2,3:2:0:0:
444,96,53790,6,0,B|384:96|384:96|341:53,1,120,2|0,3:2|3:0,0:0:0:0:
285,110,54510,2,0,B|242:67|242:67|182:67,1,120,2|2,1:2|1:2,0:0:0:0:
104,67,55230,2,0,L|104:127,1,60,10|2,3:2|0:0,0:0:0:0:
60,192,55710,5,2,3:2:0:0:
121,335,56190,1,8,3:2:0:0:
200,335,56430,2,0,B|248:335|248:335|256:326|256:326|264:335|264:335|312:335,1,120,2|0,1:2|1:2,0:0:0:0:
391,335,57150,1,10,3:2:0:0:
452,192,57630,5,2,3:2:0:0:
391,49,58110,1,8,3:2:0:0:
312,49,58350,2,0,B|264:49|264:49|256:58|256:58|248:49|248:49|200:49,1,120,2|0,1:2|1:2,0:0:0:0:
121,49,59070,1,10,3:2:0:0:
60,192,59550,6,0,P|39:247|60:302,1,120,2|8,3:2|3:2,0:0:0:0:
119,247,60270,2,0,P|98:302|119:357,1,120,2|0,1:2|1:0,0:0:0:0:
178,302,60990,1,10,3:2:0:0:
178,302,61230,1,2,1:2:0:0:
256,302,61470,6,0,B|263:287|263:287|319:287|319:287|326:302,1,90,2|2,1:2|1:2,0:0:0:0:
291,192,62190,2,0,B|298:177|298:177|354:177|354:177|361:192,1,90,2|2,1:2|1:2,0:0:0:0:
326,81,62910,5,10,1:2:0:0:
326,81,63390,5,2,1:2:0:0:
256,44,63630,1,0,3:0:0:0:
186,81,63870,2,0,B|126:81|126:81|78:117,1,120,14|2,0:0|3:2,0:0:0:0:
80,276,64830,2,0,B|92:304|92:304|80:332,1,60,10|2,0:0|1:2,0:0:0:0:
158,331,65310,6,0,L|207:221,1,120,2|10,3:2|3:2,0:0:0:0:
354,331,66270,2,0,L|403:221,1,120,2|10,3:2|0:0,0:0:0:0:
458,166,66990,1,2,1:2:0:0:
403,110,67230,6,0,B|412:72|384:44|356:44|356:44|329:44,1,120,6|10,3:2|3:2,0:0:0:0:
256,76,67950,1,2,1:2:0:0:
182,44,68190,2,0,B|156:44|156:44|128:44|100:72|109:110,1,120,2|10,3:2|0:0,0:0:0:0:
54,166,68910,1,2,1:2:0:0:
109,221,69150,6,0,B|109:268|109:268|105:276|105:276|113:276|113:276|109:284|109:284|109:331,1,120,2|10,3:2|3:2,0:0:0:0:
219,221,70110,2,0,B|266:221|266:221|274:225|274:225|274:217|274:217|282:221|282:221|329:221,1,120,2|10,3:2|0:0,0:0:0:0:
384,276,70830,1,2,1:2:0:0:
439,221,71070,6,0,B|439:185|457:165|457:165|439:145|439:109,1,120,6|10,3:2|3:2,0:0:0:0:
312,20,72030,2,0,B|276:20|256:38|256:38|236:20|200:20,1,120,0|10,3:2|0:0,0:0:0:0:
122,20,72750,1,2,1:2:0:0:
161,88,72990,6,0,P|183:142|178:202,1,120,2|10,3:2|3:2,0:0:0:0:
256,202,73710,1,2,1:2:0:0:
333,202,73950,2,0,P|328:142|350:88,1,120,2|10,3:2|0:0,0:0:0:0:
390,20,74670,1,2,1:2:0:0:
311,20,74910,5,6,3:2:0:0:
256,164,75390,1,10,3:2:0:0:
200,20,75870,1,2,3:2:0:0:
145,164,76350,1,10,0:0:0:0:
145,164,76590,1,2,1:2:0:0:
145,164,76830,6,0,B|180:192|180:192|200:232,1,90,2|2,1:2|1:2,0:0:0:0:
312,232,77550,2,0,B|332:192|332:192|367:164,2,90,2|2|10,1:2|1:2|0:0,0:0:0:0:
256,288,78510,1,2,1:2:0:0:
200,232,78750,6,0,P|181:176|200:120,1,120,6|10,1:2|0:0,0:0:0:0:
256,64,79470,1,2,0:0:0:0:
312,120,79710,2,0,P|331:176|312:232,1,120,2|10,1:2|0:0,0:0:0:0:
427,337,80670,6,0,L|312:372,1,120,2|10,1:2|0:0,0:0:0:0:
256,320,81390,1,2,0:0:0:0:
199,372,81630,2,0,L|85:337,1,120,2|10,1:2|0:0,0:0:0:0:
200,232,82590,6,0,P|256:213|312:232,2,120,6|10|2,1:2|0:0|1:2,0:0:0:0:
296,108,84030,1,10,0:0:0:0:
256,40,84270,1,2,0:0:0:0:
215,107,84510,6,0,P|167:74|151:17,1,120,2|10,1:2|0:0,0:0:0:0:
296,108,85470,2,0,P|344:75|360:18,1,120,2|10,1:2|0:0,0:0:0:0:
456,140,86430,6,0,P|431:192|456:244,1,120,6|10,1:2|0:0,0:0:0:0:
456,322,87150,1,2,0:0:0:0:
400,377,87390,2,0,B|376:312|328:284,1,120,2|10,1:2|0:0,0:0:0:0:
184,284,88350,6,0,B|136:312|112:377,1,120,2|10,1:2|0:0,0:0:0:0:
56,322,89070,1,2,0:0:0:0:
56,244,89310,2,0,P|81:192|56:140,1,120,2|10,1:2|0:0,0:0:0:0:
198,76,90270,6,0,B|228:60|256:72|256:76|256:80|284:92|314:76,2,120,6|10|2,1:2|0:0|1:2,0:0:0:0:
300,192,91710,1,10,0:0:0:0:
256,256,91950,1,2,0:0:0:0:
212,192,92190,6,0,B|184:232|184:232|184:303,1,120,2|10,1:2|0:0,0:0:0:0:
300,192,93150,2,0,B|328:232|328:232|328:303,1,120,2|10,1:2|0:0,0:0:0:0:
440,192,94110,6,0,P|458:136|440:80,1,120,6|10,1:2|3:2,0:0:0:0:
384,24,94830,1,2,0:0:0:0:
329,80,95070,1,2,3:2:0:0:
183,80,95550,2,0,B|155:68|155:68|127:80,1,60,10|2,3:2|0:0,0:0:0:0:
72,24,96030,6,0,L|25:134,1,120,2|10,1:2|3:2,0:0:0:0:
76,192,96750,1,2,0:0:0:0:
25,249,96990,2,0,L|72:360,1,120,2|10,3:2|3:2,0:0:0:0:
208,280,97950,6,0,B|236:288|256:315|256:315|276:288|304:280,2,120,6|10|2,1:2|3:2|3:2,0:0:0:0:
256,132,99390,2,0,L|256:64,1,60,10|2,3:2|0:0,0:0:0:0:
312,20,99870,6,0,L|192:20,1,120,2|10,1:2|3:2,0:0:0:0:
88,136,100830,2,0,P|79:164|88:192,1,60,2|2,3:2|1:2,0:0:0:0:
143,247,101310,2,0,P|152:275|143:303,1,60,10|2,0:0|1:2,0:0:0:0:
88,358,101790,6,0,P|143:379|198:358,1,120,6|10,1:2|3:2,0:0:0:0:
256,304,102510,1,2,0:0:0:0:
314,358,102750,2,0,P|369:379|424:358,1,120,2|10,3:2|3:2,0:0:0:0:
369,212,103710,2,0,B|336:212|336:212|315:194,1,60,2|2,1:2|0:0,0:0:0:0:
256,140,104190,1,10,3:2:0:0:
196,194,104430,2,0,B|176:212|176:212|143:212,1,60,2|2,0:0|3:2,0:0:0:0:
256,304,105150,2,0,L|256:364,1,60,10|2,3:2|1:2,0:0:0:0:
334,364,105630,5,6,1:2:0:0:
256,228,106110,1,10,3:2:0:0:
178,364,106590,1,2,3:2:0:0:
100,228,107070,6,0,L|100:168,1,60,10|2,3:2|0:0,0:0:0:0:
160,116,107550,2,0,P|256:55|352:116,1,240,6|2,1:2|0:0,0:0:0:0:
412,168,108750,2,0,L|472:168,2,60,2|2|2,1:2|1:2|1:2,0:0:0:0:
351,220,109465,6,0,P|320:251|313:294,1,90,2|2,1:2|1:2,0:0:0:0:
198,295,110185,2,0,P|192:251|161:220,1,90,2|2,1:2|1:2,0:0:0:0:
226,124,110905,2,0,L|286:124,1,60,10|2,0:0|1:2,0:0:0:0:
364,124,111385,6,0,L|311:50,1,90,2|2,1:2|1:2,0:0:0:0:
200,50,112105,2,0,L|148:124,1,90,2|2,1:2|1:2,0:0:0:0:
256,192,112825,1,10,0:0:0:0:
148,260,113305,6,0,P|108:243|68:260,1,90,2|2,1:2|1:2,0:0:0:0:
108,372,114025,2,0,P|148:355|188:372,1,90,2|2,1:2|1:2,0:0:0:0:
256,260,114745,1,10,0:0:0:0:
310,204,114985,1,2,1:2:0:0:
364,260,115225,6,0,P|404:243|444:260,1,90,2|2,1:2|1:2,0:0:0:0:
404,372,115945,2,0,P|364:355|324:372,1,90,2|2,1:2|1:2,0:0:0:0:
256,260,116665,1,10,0:0:0:0:
202,204,116905,1,2,1:2:0:0:
148,260,117145,5,4,0:0:0:0:
256,192,117265,12,0,122905,0:0:0:0:
