osu file format v14

[General]
AudioFilename: audio.mp3
AudioLeadIn: 0
PreviewTime: 78750
Countdown: 0
SampleSet: Soft
StackLeniency: 0.7
Mode: 0
LetterboxInBreaks: 0
WidescreenStoryboard: 1

[Editor]
Bookmarks: 17310,32670,40350,122905
DistanceSpacing: 1.4
BeatDivisor: 4
GridSize: 4
TimelineZoom: 2

[Metadata]
Title:Shinen no Mermaid (w/ YUC'e)
TitleUnicode:深淵のマーメイド (w/ YUC'e)
Artist:Aiobahn
ArtistUnicode:Aiobahn
Creator:Cris-
Version:Gero's Hard
Source:
Tags:Gero Japanese Electronic EDM Electro Dance Music Cut Version Feat. YUCe Min-Hyuk Kim Progressive House Monstercat
BeatmapID:2385897
BeatmapSetID:1129090

[Difficulty]
HPDrainRate:5
CircleSize:4
OverallDifficulty:6
ApproachRate:7.5
SliderMultiplier:1.2
SliderTickRate:1

[Events]
//Background and Video events
0,0,"Mermaid.jpg",0,0
//Break Periods
2,32870,39525
//Storyboard Layer 0 (Background)
//Storyboard Layer 1 (Fail)
//Storyboard Layer 2 (Pass)
//Storyboard Layer 3 (Foreground)
//Storyboard Layer 4 (Overlay)
//Storyboard Sound Samples

[TimingPoints]
1950,480,4,2,1,40,1,0
1950,-100,4,2,1,40,0,0
16350,-100,4,2,1,50,0,0
16830,-100,4,2,1,60,0,0
17190,-100,4,2,1,5,0,0
17310,-100,4,2,1,50,0,0
17670,-100,4,2,1,5,0,0
17790,-100,4,2,1,50,0,0
18630,-100,4,2,1,5,0,0
18750,-100,4,2,1,50,0,0
19590,-100,4,2,1,5,0,0
19710,-100,4,2,1,50,0,0
20550,-100,4,2,1,5,0,0
20670,-100,4,2,1,50,0,0
21030,-100,4,2,1,5,0,0
21150,-100,4,2,1,50,0,0
21510,-100,4,2,1,5,0,0
21630,-100,4,2,1,50,0,0
22470,-100,4,2,1,5,0,0
22590,-100,4,2,1,50,0,0
23430,-100,4,2,1,5,0,0
23550,-100,4,2,1,50,0,0
24870,-100,4,2,1,5,0,0
24990,-100,4,2,1,50,0,0
25350,-100,4,2,1,5,0,0
25470,-100,4,2,1,50,0,0
26310,-100,4,2,1,5,0,0
26430,-100,4,2,1,50,0,0
27270,-100,4,2,1,5,0,0
27390,-100,4,2,1,50,0,0
28230,-100,4,2,1,5,0,0
28350,-100,4,2,1,50,0,0
31110,-100,4,2,1,5,0,0
31230,-100,4,2,1,50,0,0
32190,-100,4,2,1,60,0,0
32550,-100,4,2,1,5,0,0
32670,-100,4,2,1,45,0,0
40350,-100,4,2,1,50,0,0
43950,-100,4,2,1,60,0,0
44190,-100,4,2,1,60,0,0
45870,-133.333333333333,4,2,1,60,0,0
46110,-100,4,2,1,5,0,0
47430,-100,4,2,1,60,0,0
47550,-100,4,2,2,60,0,0
48030,-100,4,2,3,60,0,0
49950,-83.3333333333333,4,2,1,70,0,1
51270,-83.3333333333333,4,2,1,5,0,1
51390,-83.3333333333333,4,2,1,70,0,1
53190,-83.3333333333333,4,2,1,5,0,1
53310,-83.3333333333333,4,2,1,70,0,1
55470,-83.3333333333333,4,2,1,70,0,0
55710,-83.3333333333333,4,2,1,80,0,1
61470,-83.3333333333333,4,2,1,70,0,0
62910,-83.3333333333333,4,2,1,80,0,0
63390,-83.3333333333333,4,2,1,70,0,0
63870,-83.3333333333333,4,2,2,80,0,1
76830,-83.3333333333333,4,2,1,80,0,1
78750,-100,4,2,1,50,0,0
85830,-100,4,2,1,5,0,0
85950,-100,4,2,1,50,0,0
92550,-100,4,2,1,5,0,0
92670,-100,4,2,1,50,0,0
93510,-100,4,2,1,5,0,0
93630,-100,4,2,1,50,0,0
94110,-100,4,2,1,55,0,0
109465,480,4,2,1,40,1,0
109465,-100,4,2,1,60,0,0
117145,-100,4,2,1,70,0,0
117265,-100,4,2,1,50,0,0
118105,-100,4,2,1,40,0,0
119065,-100,4,2,1,30,0,0
120025,-100,4,2,1,20,0,0
120985,-100,4,2,1,10,0,0
122905,-100,4,2,1,5,0,0

[Colours]
Combo1 : 255,224,132
Combo2 : 101,198,235
Combo3 : 244,136,234
Combo4 : 80,209,197

[HitObjects]
200,314,17310,6,0,B|256:335|256:335|312:314,1,120,6|8,1:2|0:0,0:0:0:0:
256,253,18030,1,2,0:0:0:0:
312,192,18270,2,0,B|256:171|256:171|200:192,1,120,2|8,1:2|0:0,0:0:0:0:
256,253,18990,1,2,0:0:0:0:
312,192,19230,6,0,P|330:136|312:80,1,120,2|8,1:2|0:0,0:0:0:0:
256,19,19950,1,2,0:0:0:0:
200,79,20190,2,0,B|200:111|200:111|188:136,1,60,2|0,1:2|0:0,0:0:0:0:
312,80,20670,2,0,B|312:112|312:112|323:137,1,60,10|0,0:0|0:0,0:0:0:0:
388,192,21150,6,0,L|303:276,1,120,6|8,1:2|0:0,0:0:0:0:
256,348,21870,1,2,0:0:0:0:
208,276,22110,2,0,L|148:276,1,60,2|0,1:2|0:0,0:0:0:0:
148,192,22590,2,0,B|168:192|168:192|182:177,1,40,8|2,0:0|0:0,0:0:0:0:
124,80,23070,6,0,B|124:48|152:24|188:24|188:24|213:24,1,120,2|10,1:2|0:0,0:0:0:0:
298,24,23790,2,0,B|324:24|324:24|360:24|388:48|388:80,1,120,2|2,0:0|0:0,0:0:0:0:
452,136,24510,1,8,0:0:0:0:
452,136,24990,6,0,B|431:192|431:192|452:248,1,120,6|8,1:2|0:0,0:0:0:0:
388,304,25710,1,2,0:0:0:0:
324,248,25950,2,0,L|239:332,1,120,2|8,1:2|0:0,0:0:0:0:
175,276,26670,1,2,0:0:0:0:
239,219,26910,6,0,B|239:167|239:167|246:163|246:163|239:159|239:159|239:107,1,120,2|8,1:2|0:0,0:0:0:0:
175,50,27630,1,2,0:0:0:0:
111,107,27870,2,0,B|111:159|111:159|104:163|104:163|111:167|111:167|111:219,1,120,2|10,1:2|0:0,0:0:0:0:
175,276,28590,1,2,0:0:0:0:
239,219,28830,5,6,1:2:0:0:
175,276,29070,1,2,0:0:0:0:
239,333,29310,2,0,P|295:314|351:333,2,120,10|0|8,0:0|1:0|0:0,0:0:0:0:
175,276,30510,1,2,0:0:0:0:
239,219,30750,6,0,P|295:200|351:219,1,120,2|10,1:2|0:0,0:0:0:0:
415,276,31470,2,0,B|433:219|433:219|415:162,1,120,2|2,0:0|0:0,0:0:0:0:
480,104,32190,1,12,1:0:0:0:
414,46,32430,1,0,0:0:0:0:
348,104,32670,5,14,0:0:0:0:
212,296,40350,6,0,P|256:288|300:296,1,90,10|2,0:0|1:2,0:0:0:0:
330,325,40830,1,8,0:0:0:0:
389,265,41070,2,0,B|381:221|381:221|389:177,1,90,2|2,1:2|1:2,0:0:0:0:
418,146,41550,1,0,1:0:0:0:
358,86,41790,2,0,B|326:86|326:86|306:66,1,60,10|2,0:0|1:2,0:0:0:0:
256,136,42270,6,0,L|166:136,1,90,10|2,0:0|1:2,0:0:0:0:
124,136,42750,1,8,0:0:0:0:
60,192,42990,2,0,B|52:236|52:236|60:280,1,90,2|2,1:2|1:2,0:0:0:0:
89,310,43470,1,2,1:2:0:0:
148,250,43710,2,0,P|176:240|204:250,1,60,10|2,0:0|1:2,0:0:0:0:
263,310,44190,6,0,L|294:225,1,90,10|2,0:0|1:2,0:0:0:0:
316,192,44670,1,8,0:0:0:0:
375,251,44910,2,0,L|406:166,1,90,2|2,1:2|1:2,0:0:0:0:
428,133,45390,1,0,1:0:0:0:
487,192,45630,1,10,0:0:0:0:
428,133,45870,6,0,B|352:85|280:133|280:133|208:85|132:133,1,315.000012016297,2|12,1:2|0:0,0:0:0:0:
280,213,47790,1,0,3:0:0:0:
280,213,48030,6,0,L|280:303,4,90,2|2|2|2|2,3:2|3:2|3:2|3:2|3:2,0:0:0:0:
280,133,49710,1,2,3:2:0:0:
280,53,49950,6,0,L|172:53,1,107.999996704102,2|2,3:2|1:2,0:0:0:0:
121,53,50430,1,0,3:0:0:0:
49,124,50670,2,0,P|28:172|49:220,1,107.999996704102,2|2,1:2|1:2,0:0:0:0:
85,256,51150,1,0,0:0:0:0:
156,327,51390,1,2,3:2:0:0:
156,327,51510,1,2,1:2:0:0:
156,327,51630,2,0,L|192:327,1,35.9999989013672,2|2,1:2|1:2,0:0:0:0:
242,327,51870,6,0,B|294:311|294:311|346:327,1,107.999996704102,2|2,3:2|1:2,0:0:0:0:
381,362,52350,1,0,3:0:0:0:
452,290,52590,2,0,B|468:262|456:238|452:238|448:238|436:214|452:186,1,107.999996704102,2|2,1:2|1:2,0:0:0:0:
487,151,53070,1,0,0:0:0:0:
351,79,53310,2,0,P|383:65|415:79,1,71.9999978027344,2|2,3:2|1:2,0:0:0:0:
279,151,53790,6,0,P|227:163|175:151,1,107.999996704102,2|2,3:2|1:2,0:0:0:0:
138,114,54270,1,0,3:0:0:0:
76,192,54510,2,0,B|76:244|76:244|48:292,1,107.999996704102,2|2,1:2|1:2,0:0:0:0:
98,292,54990,1,2,1:2:0:0:
198,292,55230,2,0,L|256:334,1,71.9999978027344,10|2,3:2|0:0,0:0:0:0:
327,262,55710,6,0,P|375:240|423:262,1,107.999996704102,2|2,3:2|1:2,0:0:0:0:
458,297,56190,1,8,3:2:0:0:
458,196,56430,2,0,B|458:156|458:156|470:148|470:148|458:140|458:140|458:100,1,107.999996704102,2|2,1:2|1:2,0:0:0:0:
458,50,56910,1,0,1:0:0:0:
357,50,57150,2,0,B|321:50|321:50|295:75,1,71.9999978027344,10|0,3:2|1:2,0:0:0:0:
212,16,57630,6,0,L|135:92,1,107.999996704102,2|2,3:2|1:2,0:0:0:0:
99,128,58110,1,8,3:2:0:0:
180,192,58350,2,0,B|195:244|195:244|180:296,1,107.999996704102,2|2,1:2|1:2,0:0:0:0:
180,346,58830,1,0,1:0:0:0:
280,346,59070,1,10,3:2:0:0:
280,346,59190,1,2,1:2:0:0:
280,346,59310,2,0,L|316:346,1,35.9999989013672,2|2,1:2|1:2,0:0:0:0:
366,346,59550,6,0,B|402:346|402:346|438:346|461:310,1,107.999996704102,2|2,3:2|1:2,0:0:0:0:
425,275,60030,1,8,3:2:0:0:
484,192,60270,2,0,B|484:160|504:144|504:144|484:128|484:96,1,107.999996704102,2|2,1:2|1:2,0:0:0:0:
448,59,60750,1,0,1:0:0:0:
320,144,60990,2,0,L|392:144,1,71.9999978027344,10|2,3:2|1:2,0:0:0:0:
264,59,61470,6,0,L|156:59,4,107.999996704102,2|2|2|2|10,1:2|1:2|1:2|1:2|1:2,0:0:0:0:
320,144,63150,1,0,1:0:0:0:
264,229,63390,1,2,1:2:0:0:
208,144,63630,5,0,3:0:0:0:
208,144,63750,1,0,1:2:0:0:
208,144,63870,1,14,0:0:0:0:
152,229,64110,2,0,B|97:229|97:229|59:266,1,107.999996704102,2|2,1:2|1:2,0:0:0:0:
59,317,64590,1,0,1:0:0:0:
144,372,64830,2,0,B|180:372|180:372|205:346,1,71.9999978027344,10|2,0:0|1:2,0:0:0:0:
256,260,65310,6,0,L|364:260,1,107.999996704102,2|2,3:2|1:2,0:0:0:0:
414,260,65790,1,10,3:2:0:0:
488,192,66030,2,0,B|464:152|424:152|424:152|395:152,1,107.999996704102,2|2,1:2|1:2,0:0:0:0:
359,116,66510,1,0,1:0:0:0:
256,116,66750,1,10,0:0:0:0:
256,116,66870,1,2,1:2:0:0:
256,116,66990,2,0,L|220:116,1,35.9999989013672,2|2,1:2|1:2,0:0:0:0:
169,116,67230,6,0,P|190:165|169:212,1,107.999996704102,6|2,3:2|1:2,0:0:0:0:
133,247,67710,1,10,3:2:0:0:
208,312,67950,2,0,B|224:296|224:296|288:296|288:296|304:312,1,107.999996704102,2|2,1:2|1:2,0:0:0:0:
338,346,68430,1,0,1:0:0:0:
409,206,68670,2,0,B|396:240|396:240|409:274,1,71.9999978027344,10|2,0:0|1:2,0:0:0:0:
480,135,69150,6,0,L|403:59,1,107.999996704102,2|2,3:2|1:2,0:0:0:0:
352,59,69630,1,10,3:2:0:0:
280,130,69870,2,0,L|203:54,1,107.999996704102,2|2,1:2|1:2,0:0:0:0:
152,54,70350,1,0,1:0:0:0:
80,125,70590,2,0,P|69:159|80:193,1,71.9999978027344,10|2,0:0|1:2,0:0:0:0:
28,281,71070,6,0,P|80:293|132:281,1,107.999996704102,6|2,3:2|1:2,0:0:0:0:
183,280,71550,1,10,3:2:0:0:
256,208,71790,2,0,L|364:208,1,107.999996704102,2|2,1:2|1:2,0:0:0:0:
414,208,72270,1,0,1:0:0:0:
485,279,72510,2,0,B|449:279|449:279|423:304,1,71.9999978027344,10|2,0:0|1:2,0:0:0:0:
322,304,72990,6,0,B|280:304|280:304|272:308|272:308|272:300|272:300|264:304|264:304|222:304,1,107.999996704102,2|2,3:2|1:2,0:0:0:0:
187,339,73470,1,10,3:2:0:0:
115,267,73710,2,0,P|94:218|115:171,1,107.999996704102,2|2,1:2|1:2,0:0:0:0:
151,136,74190,1,0,1:0:0:0:
96,52,74430,1,10,0:0:0:0:
96,52,74550,1,2,1:2:0:0:
96,52,74670,2,0,L|60:52,1,35.9999989013672,2|2,1:2|1:2,0:0:0:0:
24,16,74910,6,0,L|24:124,1,107.999996704102,6|2,3:2|1:2,0:0:0:0:
24,174,75390,1,10,3:2:0:0:
24,274,75630,2,0,B|40:304|24:336|24:336|67:336,1,107.999996704102,2|2,1:2|1:2,0:0:0:0:
118,336,76110,1,0,1:0:0:0:
212,300,76350,2,0,L|212:372,1,71.9999978027344,10|2,0:0|1:2,0:0:0:0:
256,208,76830,6,0,B|272:180|260:156|256:156|252:156|240:132|256:104,4,107.999996704102,2|2|2|2|10,1:2|1:2|1:2|1:2|0:0,0:0:0:0:
300,300,78510,1,2,1:2:0:0:
344,208,78750,6,0,L|404:208,1,60,6|0,1:2|0:0,0:0:0:0:
463,148,79230,2,0,L|463:118,3,30,10|2|2|2,0:0|0:0|0:0|0:0,0:0:0:0:
463,68,79710,6,0,B|407:46|407:46|351:68,1,120,2|10,1:2|0:0,0:0:0:0:
276,28,80430,1,2,0:0:0:0:
201,68,80670,2,0,P|191:96|201:124,1,60,2|2,1:2|0:0,0:0:0:0:
276,164,81150,2,0,P|286:192|276:220,1,60,10|2,0:0|0:0,0:0:0:0:
201,260,81630,2,0,P|191:288|201:316,1,60,2|0,1:2|0:0,0:0:0:0:
276,356,82110,2,0,L|306:356,3,30,10|2|2|2,0:0|1:2|1:2|1:2,0:0:0:0:
348,356,82590,6,0,B|348:296|348:296|377:243,1,120,6|10,1:2|0:0,0:0:0:0:
164,356,83550,2,0,B|164:296|164:296|134:243,1,120,2|10,1:2|0:0,0:0:0:0:
68,192,84270,1,2,0:0:0:0:
134,140,84510,2,0,L|194:140,1,60,2|0,1:2|0:0,0:0:0:0:
68,88,84990,2,0,L|8:88,1,60,10|2,0:0|0:0,0:0:0:0:
134,36,85470,2,0,L|254:36,1,120,2|10,1:2|0:0,0:0:0:0:
338,36,86190,1,2,0:0:0:0:
422,36,86430,6,0,L|422:96,1,60,6|0,1:2|0:0,0:0:0:0:
462,169,86910,2,0,L|432:169,3,30,10|2|2|2,0:0|0:0|0:0|0:0,0:0:0:0:
382,169,87390,2,0,B|353:162|353:162|324:169,1,60,2|2,1:2|0:0,0:0:0:0:
256,220,87870,2,0,B|227:227|227:227|198:220,1,60,10|2,0:0|0:0,0:0:0:0:
130,271,88350,5,2,1:2:0:0:
63,220,88590,1,2,0:0:0:0:
130,271,88830,1,10,0:0:0:0:
63,220,89070,1,2,0:0:0:0:
130,169,89310,2,0,P|140:141|130:113,1,60,2|0,1:2|0:0,0:0:0:0:
63,62,89790,2,0,L|83:40,3,30,10|2|2|2,0:0|1:2|1:2|1:2,0:0:0:0:
108,8,90270,6,0,B|144:8|144:8|188:8|213:48,1,120,6|10,1:2|0:0,0:0:0:0:
404,8,91230,2,0,B|368:8|368:8|324:8|298:48,1,120,2|10,1:2|0:0,0:0:0:0:
256,120,91950,1,2,0:0:0:0:
213,192,92190,6,0,B|220:217|256:231|256:231|292:217|299:192,1,120,2|10,1:2|0:0,0:0:0:0:
383,192,92910,1,2,0:0:0:0:
340,264,93150,2,0,P|315:280|297:303,1,60,2|0,1:2|0:0,0:0:0:0:
214,303,93630,2,0,P|196:280|171:264,1,60,10|2,0:0|0:0,0:0:0:0:
129,192,94110,6,0,P|119:164|129:136,1,60,6|0,1:2|0:0,0:0:0:0:
172,64,94590,1,10,3:2:0:0:
193,64,94710,1,2,0:0:0:0:
214,64,94830,1,2,0:0:0:0:
235,64,94950,1,2,0:0:0:0:
256,64,95070,2,0,L|316:64,1,60,2|2,3:2|0:0,0:0:0:0:
428,129,95550,2,0,L|368:129,1,60,10|2,3:2|0:0,0:0:0:0:
316,194,96030,5,2,1:2:0:0:
368,255,96270,1,2,0:0:0:0:
316,194,96510,1,10,3:2:0:0:
368,255,96750,1,2,0:0:0:0:
316,316,96990,2,0,P|288:326|260:316,1,60,2|0,3:2|0:0,0:0:0:0:
208,255,97470,2,0,L|208:225,3,30,10|2|2|2,3:2|1:2|1:2|1:2,0:0:0:0:
180,192,97950,6,0,B|160:168|176:136|180:136|184:136|200:104|180:80,1,120,6|10,1:2|3:2,0:0:0:0:
332,192,98910,2,0,B|352:168|336:136|332:136|328:136|312:104|332:80,1,120,2|10,3:2|3:2,0:0:0:0:
256,40,99630,1,2,0:0:0:0:
179,79,99870,6,0,L|215:127,1,60,2|0,1:2|0:0,0:0:0:0:
332,79,100350,2,0,L|296:127,1,60,10|2,3:2|0:0,0:0:0:0:
256,200,100830,1,2,3:2:0:0:
297,272,101070,1,2,1:2:0:0:
256,345,101310,1,10,0:0:0:0:
215,272,101550,1,2,1:2:0:0:
256,200,101790,6,0,L|256:140,1,60,6|0,1:2|0:0,0:0:0:0:
215,68,102270,1,10,3:2:0:0:
234,56,102390,1,2,0:0:0:0:
255,52,102510,1,2,0:0:0:0:
277,56,102630,1,2,0:0:0:0:
297,68,102750,6,0,L|324:14,1,60,2|2,3:2|0:0,0:0:0:0:
215,68,103230,2,0,L|187:14,1,60,10|2,3:2|0:0,0:0:0:0:
255,139,103710,2,0,L|255:199,1,60,2|2,1:2|0:0,0:0:0:0:
297,272,104190,1,10,3:2:0:0:
215,272,104430,1,2,0:0:0:0:
297,272,104670,2,0,B|329:272|329:272|348:291,1,60,2|0,3:2|0:0,0:0:0:0:
433,291,105150,2,0,L|433:261,3,30,10|2|2|2,3:2|1:2|1:2|1:2,0:0:0:0:
433,219,105630,6,0,B|385:187|385:187|322:187,1,120,6|10,1:2|3:2,0:0:0:0:
79,219,106590,2,0,B|127:187|127:187|189:187,1,120,2|10,3:2|3:2,0:0:0:0:
256,136,107310,1,2,0:0:0:0:
323,187,107550,6,0,P|341:243|323:299,1,120,6|2,1:2|0:0,0:0:0:0:
256,350,108270,1,2,0:0:0:0:
189,299,108510,1,2,0:0:0:0:
189,299,108750,2,0,L|129:299,2,60,2|2|2,1:2|1:2|1:2,0:0:0:0:
323,299,109465,6,0,B|369:299|369:299|400:329,1,90,2|2,1:2|1:2,0:0:0:0:
440,312,109945,1,8,0:0:0:0:
408,236,110185,2,0,B|400:192|400:192|408:148,1,90,2|2,1:2|1:2,0:0:0:0:
408,105,110665,1,0,0:0:0:0:
348,45,110905,2,0,P|320:36|292:45,1,60,10|2,0:0|1:2,0:0:0:0:
189,85,111385,6,0,B|143:85|143:85|111:54,1,90,2|2,1:2|1:2,0:0:0:0:
72,72,111865,1,8,0:0:0:0:
104,148,112105,2,0,B|112:192|112:192|104:236,1,90,2|2,1:2|1:2,0:0:0:0:
104,279,112585,1,0,0:0:0:0:
164,339,112825,2,0,L|194:339,3,30,10|2|2|2,0:0|1:2|1:2|1:2,0:0:0:0:
236,339,113305,6,0,P|228:295|236:251,1,90,2|2,1:2|1:2,0:0:0:0:
256,212,113785,1,8,0:0:0:0:
328,168,114025,2,0,P|336:212|328:256,1,90,2|2,1:2|1:2,0:0:0:0:
308,295,114505,1,0,0:0:0:0:
380,339,114745,2,0,L|440:339,1,60,10|2,0:0|1:2,0:0:0:0:
512,295,115225,6,0,B|488:260|488:260|440:260,1,90,2|2,1:2|1:2,0:0:0:0:
410,230,115705,1,8,0:0:0:0:
512,89,115945,2,0,B|488:124|488:124|440:124,1,90,2|2,1:2|1:2,0:0:0:0:
410,154,116425,1,0,0:0:0:0:
336,192,116665,1,10,0:0:0:0:
410,230,116905,1,2,1:2:0:0:
336,192,117145,5,4,0:0:0:0:
256,192,117265,12,0,122905,0:0:0:0:
