osu file format v14

[General]
AudioFilename: audio.mp3
AudioLeadIn: 0
PreviewTime: 78750
Countdown: 0
SampleSet: Soft
StackLeniency: 0.7
Mode: 0
LetterboxInBreaks: 0
WidescreenStoryboard: 1

[Editor]
DistanceSpacing: 1
BeatDivisor: 4
GridSize: 4
TimelineZoom: 2

[Metadata]
Title:Shinen no Mermaid (w/ YUC'e)
TitleUnicode:深淵のマーメイド (w/ YUC'e)
Artist:Aiobahn
ArtistUnicode:Aiobahn
Creator:Cris-
Version:Easy
Source:
Tags:Gero Japanese Electronic EDM Electro Dance Music Cut Version Feat. YUCe Min-Hyuk Kim Progressive House Monstercat
BeatmapID:2386314
BeatmapSetID:1129090

[Difficulty]
HPDrainRate:3
CircleSize:3.5
OverallDifficulty:2
ApproachRate:3
SliderMultiplier:1
SliderTickRate:1

[Events]
//Background and Video events
0,0,"Mermaid.jpg",0,0
//Break Periods
2,32870,38910
//Storyboard Layer 0 (Background)
//Storyboard Layer 1 (Fail)
//Storyboard Layer 2 (Pass)
//Storyboard Layer 3 (Foreground)
//Storyboard Layer 4 (Overlay)
//Storyboard Sound Samples

[TimingPoints]
1950,480,4,2,1,40,1,0
1950,-100,4,2,1,40,0,0
16350,-100,4,2,1,50,0,0
16830,-100,4,2,1,60,0,0
17190,-100,4,2,1,5,0,0
17310,-100,4,2,1,50,0,0
17670,-100,4,2,1,5,0,0
17790,-100,4,2,1,50,0,0
18630,-100,4,2,1,5,0,0
18750,-100,4,2,1,50,0,0
19590,-100,4,2,1,5,0,0
19710,-100,4,2,1,50,0,0
20550,-100,4,2,1,5,0,0
20670,-100,4,2,1,50,0,0
21030,-100,4,2,1,5,0,0
21150,-100,4,2,1,50,0,0
21510,-100,4,2,1,5,0,0
21630,-100,4,2,1,50,0,0
22470,-100,4,2,1,5,0,0
22590,-100,4,2,1,50,0,0
23430,-100,4,2,1,5,0,0
23550,-100,4,2,1,50,0,0
24870,-100,4,2,1,5,0,0
24990,-100,4,2,1,50,0,0
25350,-100,4,2,1,5,0,0
25470,-100,4,2,1,50,0,0
26310,-100,4,2,1,5,0,0
26430,-100,4,2,1,50,0,0
27270,-100,4,2,1,5,0,0
27390,-100,4,2,1,50,0,0
28230,-100,4,2,1,5,0,0
28350,-100,4,2,1,50,0,0
31110,-100,4,2,1,5,0,0
31230,-100,4,2,1,50,0,0
32190,-100,4,2,1,60,0,0
32550,-100,4,2,1,5,0,0
32670,-100,4,2,1,45,0,0
40350,-100,4,2,1,50,0,0
43950,-100,4,2,1,60,0,0
44190,-100,4,2,1,60,0,0
46110,-100,4,2,1,5,0,0
47430,-100,4,2,1,60,0,0
47550,-100,4,2,2,60,0,0
48030,-100,4,2,3,60,0,0
49950,-100,4,2,1,70,0,1
51270,-100,4,2,1,5,0,1
51390,-100,4,2,1,70,0,1
53190,-100,4,2,1,5,0,1
53310,-100,4,2,1,70,0,1
55470,-100,4,2,1,70,0,0
55710,-100,4,2,1,80,0,1
61470,-100,4,2,1,70,0,0
62910,-100,4,2,1,80,0,0
63390,-100,4,2,1,70,0,0
63870,-100,4,2,2,80,0,1
76830,-100,4,2,1,80,0,1
78750,-100,4,2,1,50,0,0
85830,-100,4,2,1,5,0,0
85950,-100,4,2,1,50,0,0
92550,-100,4,2,1,5,0,0
92670,-100,4,2,1,50,0,0
93510,-100,4,2,1,5,0,0
93630,-100,4,2,1,50,0,0
94110,-100,4,2,1,55,0,0
107550,-100,4,2,1,45,0,0
109465,480,4,2,1,40,1,0
109465,-100,4,2,1,60,0,0
117145,-100,4,2,1,70,0,0
117265,-100,4,2,1,50,0,0
118105,-100,4,2,1,40,0,0
119065,-100,4,2,1,30,0,0
120025,-100,4,2,1,20,0,0
120985,-100,4,2,1,10,0,0
122905,-100,4,2,1,5,0,0

[Colours]
Combo1 : 255,224,132
Combo2 : 101,198,235
Combo3 : 244,136,234
Combo4 : 80,209,197

[HitObjects]
192,212,16350,5,8,3:0:0:0:
256,276,16830,1,4,3:0:0:0:
320,212,17310,6,0,P|368:200|416:212,2,100,6|8|2,1:2|0:0|1:2,0:0:0:0:
256,276,18750,1,8,0:0:0:0:
192,212,19230,2,0,P|180:164|192:116,1,100,2|8,1:2|0:0,0:0:0:0:
256,52,20190,2,0,B|304:39|304:39|352:51,1,100,2|10,1:2|0:0,0:0:0:0:
420,116,21150,6,0,P|432:164|420:212,2,100,6|8|2,1:2|0:0|1:2,0:0:0:0:
353,51,22590,1,8,0:0:0:0:
288,116,23070,2,0,P|275:164|287:212,1,100,2|10,1:2|0:0,0:0:0:0:
352,276,24030,1,0,1:0:0:0:
288,340,24510,1,8,0:0:0:0:
224,276,24990,6,0,B|175:264|175:264|127:276,2,100,6|8|2,1:2|0:0|1:2,0:0:0:0:
288,340,26430,1,8,0:0:0:0:
352,276,26910,2,0,L|334:178,1,100,2|8,1:2|0:0,0:0:0:0:
242,178,27870,2,0,L|224:276,1,100,2|10,1:2|0:0,0:0:0:0:
132,276,28830,6,0,L|114:178,2,100,6|10|0,1:2|0:0|1:0,0:0:0:0:
178,356,30270,1,8,0:0:0:0:
224,276,30750,2,0,P|272:263|320:275,1,100,2|10,1:2|0:0,0:0:0:0:
384,340,31710,1,0,1:0:0:0:
448,276,32190,1,12,1:0:0:0:
384,212,32670,5,14,0:0:0:0:
417,172,40350,6,0,B|369:200|321:172|321:172|349:220|321:265,1,200,10|8,0:0|0:0,0:0:0:0:
256,329,41790,1,10,0:0:0:0:
192,265,42270,2,0,B|164:220|192:172|192:172|144:200|96:172,1,200,10|10,0:0|0:0,0:0:0:0:
32,108,43710,1,10,0:0:0:0:
96,44,44190,5,10,0:0:0:0:
256,192,44430,12,0,46110,0:0:0:0:
416,64,48030,6,0,L|490:56,1,75,2|2,3:2|3:2,0:0:0:0:
500,132,48750,2,0,L|426:140,1,75,2|2,3:2|3:2,0:0:0:0:
364,188,49470,1,2,3:2:0:0:
289,141,49950,6,0,P|276:189|288:237,1,100,2|0,3:2|3:0,0:0:0:0:
353,302,50910,1,0,3:0:0:0:
289,366,51390,1,2,3:2:0:0:
225,302,51870,2,0,B|177:289|177:289|129:301,1,100,2|0,3:2|3:0,0:0:0:0:
65,366,52830,1,0,3:0:0:0:
1,302,53310,1,2,3:2:0:0:
65,238,53790,6,0,B|81:190|49:190|65:141,2,100,2|0|0,3:2|3:0|3:0,0:0:0:0:
128,301,55230,1,10,3:2:0:0:
193,238,55710,6,0,B|177:190|209:190|193:141,1,100,2|8,3:2|3:2,0:0:0:0:
129,74,56670,1,0,3:0:0:0:
193,10,57150,1,10,3:2:0:0:
257,74,57630,2,0,P|305:87|353:75,1,100,2|8,3:2|3:2,0:0:0:0:
417,10,58590,1,0,3:0:0:0:
481,74,59070,1,10,3:2:0:0:
417,138,59550,6,0,B|433:187|401:187|417:235,1,100,2|8,3:2|3:2,0:0:0:0:
353,299,60510,1,0,3:0:0:0:
417,363,60990,1,10,3:2:0:0:
481,299,61470,6,0,P|489:263|481:227,1,75,2|2,1:2|1:2,0:0:0:0:
438,163,62190,2,0,P|402:155|366:163,1,75,2|2,1:2|1:2,0:0:0:0:
322,227,62910,1,10,1:2:0:0:
255,164,63390,1,2,1:2:0:0:
190,228,63870,6,0,P|142:241|94:229,1,100,14|2,0:0|3:2,0:0:0:0:
29,164,64830,1,10,0:0:0:0:
94,100,65310,2,0,P|142:87|190:99,1,100,2|10,3:2|3:2,0:0:0:0:
255,164,66270,1,2,3:2:0:0:
190,228,66750,1,10,0:0:0:0:
255,292,67230,6,0,B|303:308|303:276|352:292,1,100,6|10,3:2|3:2,0:0:0:0:
415,356,68190,1,2,3:2:0:0:
479,292,68670,1,10,0:0:0:0:
415,228,69150,2,0,B|402:180|402:180|414:132,1,100,2|10,3:2|3:2,0:0:0:0:
478,67,70110,1,2,3:2:0:0:
414,3,70590,1,10,0:0:0:0:
350,67,71070,6,0,P|302:80|254:68,1,100,6|10,3:2|3:2,0:0:0:0:
190,3,72030,1,0,3:2:0:0:
126,68,72510,1,10,0:0:0:0:
190,132,72990,2,0,B|203:180|203:180|191:228,1,100,2|10,3:2|3:2,0:0:0:0:
127,293,73950,1,2,3:2:0:0:
191,357,74430,1,10,0:0:0:0:
255,293,74910,6,0,P|303:280|351:292,1,100,6|10,3:2|3:2,0:0:0:0:
415,355,75870,1,2,3:2:0:0:
479,291,76350,1,10,0:0:0:0:
415,227,76830,6,0,P|405:190|415:154,1,75,2|2,1:2|1:2,0:0:0:0:
451,88,77550,2,0,P|415:78|378:87,1,75,2|2,1:2|1:2,0:0:0:0:
328,144,78270,1,10,0:0:0:0:
260,84,78750,5,6,1:2:0:0:
192,142,79230,2,0,P|111:191|29:142,1,200,10|10,0:0|0:0,0:0:0:0:
110,98,80670,1,2,1:2:0:0:
192,142,81150,2,0,B|205:190|205:190|193:238,1,100,10|2,0:0|1:2,0:0:0:0:
128,302,82110,1,10,0:0:0:0:
192,366,82590,6,0,P|240:379|288:367,2,100,6|10|2,1:2|0:0|1:2,0:0:0:0:
128,302,84030,1,10,0:0:0:0:
193,239,84510,2,0,P|241:226|289:238,1,100,2|10,1:2|0:0,0:0:0:0:
352,302,85470,2,0,P|400:315|448:303,1,100,2|10,1:2|0:0,0:0:0:0:
512,238,86430,5,6,1:2:0:0:
448,172,86910,2,0,B|352:128|352:216|257:172,1,200,10|10,0:0|0:0,0:0:0:0:
192,105,88350,1,2,1:2:0:0:
256,40,88830,2,0,P|304:27|352:39,1,100,10|2,0:0|1:2,0:0:0:0:
416,105,89790,1,10,0:0:0:0:
352,171,90270,6,0,P|304:184|256:172,2,100,6|10|2,1:2|0:0|1:2,0:0:0:0:
416,105,91710,1,10,0:0:0:0:
480,171,92190,2,0,L|462:269,1,100,2|10,1:2|0:0,0:0:0:0:
370,269,93150,2,0,L|352:171,1,100,2|10,1:2|0:0,0:0:0:0:
416,105,94110,5,6,1:2:0:0:
352,40,94590,2,0,B|304:27|304:27|256:39,1,100,10|2,3:2|3:2,0:0:0:0:
192,105,95550,1,10,3:2:0:0:
256,170,96030,2,0,B|304:183|304:183|352:171,1,100,2|10,1:2|3:2,0:0:0:0:
416,105,96990,1,2,3:2:0:0:
480,171,97470,1,10,3:2:0:0:
417,235,97950,6,0,B|401:283|433:283|417:332,2,100,6|10|2,1:2|3:2|3:2,0:0:0:0:
480,171,99390,1,10,3:2:0:0:
416,104,99870,2,0,B|400:56|432:56|416:7,2,100,2|10|2,1:2|3:2|3:2,0:0:0:0:
353,171,101310,1,10,0:0:0:0:
289,104,101790,5,6,1:2:0:0:
225,170,102270,2,0,P|212:218|224:266,1,100,10|2,3:2|3:2,0:0:0:0:
288,332,103230,1,10,3:2:0:0:
354,267,103710,2,0,P|365:218|352:171,1,100,2|10,1:2|3:2,0:0:0:0:
289,104,104670,1,2,3:2:0:0:
353,38,105150,1,10,3:2:0:0:
416,104,105630,6,0,B|464:120|464:88|513:104,2,100,6|10|2,1:2|3:2|3:2,0:0:0:0:
353,38,107070,1,10,3:2:0:0:
289,104,107550,6,0,B|241:132|194:104|194:104|147:132|100:104,1,200,6|2,1:2|0:0,0:0:0:0:
148,28,108990,1,2,1:2:0:0:
242,28,109465,6,0,P|279:20|314:28,1,75,2|2,1:2|1:2,0:0:0:0:
368,84,110185,2,0,P|376:121|368:156,1,75,2|2,1:2|1:2,0:0:0:0:
314,212,110905,1,10,0:0:0:0:
244,156,111385,6,0,L|170:164,1,75,2|2,1:2|1:2,0:0:0:0:
160,88,112105,2,0,L|234:80,1,75,2|2,1:2|1:2,0:0:0:0:
296,32,112825,1,10,0:0:0:0:
368,84,113305,6,0,L|442:92,1,75,2|2,1:2|1:2,0:0:0:0:
432,168,114025,2,0,L|358:160,1,75,2|2,1:2|1:2,0:0:0:0:
296,204,114745,1,10,0:0:0:0:
357,268,115225,6,0,P|365:305|357:340,1,75,2|2,1:2|1:2,0:0:0:0:
288,304,115945,2,0,P|251:296|216:304,1,75,2|2,1:2|1:2,0:0:0:0:
148,340,116665,1,10,0:0:0:0:
76,268,117145,5,4,0:0:0:0:
256,192,117385,12,0,122905,0:0:0:0:
