osu file format v14

[General]
AudioFilename: audio.mp3
AudioLeadIn: 0
PreviewTime: 78750
Countdown: 0
SampleSet: Soft
StackLeniency: 0.5
Mode: 0
LetterboxInBreaks: 0
WidescreenStoryboard: 0

[Editor]
DistanceSpacing: 0.8
BeatDivisor: 4
GridSize: 4
TimelineZoom: 2.4

[Metadata]
Title:Shinen no Mermaid (w/ YUC'e)
TitleUnicode:深淵のマーメイド (w/ YUC'e)
Artist:Aiobahn
ArtistUnicode:Aiobahn
Creator:Cris-
Version:Do you hear me?
Source:
Tags:Gero Japanese Electronic EDM Electro Dance Music Cut Version Feat. YUCe Min-Hyuk Kim Progressive House Monstercat
BeatmapID:2358834
BeatmapSetID:1129090

[Difficulty]
HPDrainRate:6
CircleSize:4.5
OverallDifficulty:8
ApproachRate:9
SliderMultiplier:2.2
SliderTickRate:1

[Events]
//Background and Video events
0,0,"Mermaid.jpg",0,0
//Break Periods
//Storyboard Layer 0 (Background)
//Storyboard Layer 1 (Fail)
//Storyboard Layer 2 (Pass)
//Storyboard Layer 3 (Foreground)
//Storyboard Layer 4 (Overlay)
//Storyboard Sound Samples

[TimingPoints]
1950,480,4,2,1,40,1,0
1950,-200,4,2,1,40,0,0
16350,-133.333333333333,4,2,1,50,0,0
16830,-100,4,2,1,60,0,0
17190,-100,4,2,1,5,0,0
17310,-125,4,2,1,50,0,0
17670,-125,4,2,1,5,0,0
17790,-125,4,2,1,50,0,0
18630,-125,4,2,1,5,0,0
18750,-125,4,2,1,50,0,0
19590,-125,4,2,1,5,0,0
19710,-125,4,2,1,50,0,0
20550,-125,4,2,1,5,0,0
20670,-125,4,2,1,50,0,0
21030,-125,4,2,1,5,0,0
21150,-125,4,2,1,50,0,0
21510,-125,4,2,1,5,0,0
21630,-125,4,2,1,50,0,0
22470,-125,4,2,1,5,0,0
22590,-125,4,2,1,50,0,0
23430,-125,4,2,1,5,0,0
23550,-125,4,2,1,50,0,0
24870,-125,4,2,1,5,0,0
24990,-125,4,2,1,50,0,0
25350,-125,4,2,1,5,0,0
25470,-125,4,2,1,50,0,0
26310,-125,4,2,1,5,0,0
26430,-125,4,2,1,50,0,0
27270,-125,4,2,1,5,0,0
27390,-125,4,2,1,50,0,0
28230,-125,4,2,1,5,0,0
28350,-125,4,2,1,50,0,0
31110,-125,4,2,1,5,0,0
31230,-125,4,2,1,50,0,0
32190,-100,4,2,1,60,0,0
32550,-100,4,2,1,5,0,0
32670,-125,4,2,1,45,0,0
40350,-111.111111111111,4,2,1,50,0,0
43950,-111.111111111111,4,2,1,60,0,0
44190,-111.111111111111,4,2,1,60,0,0
46110,-111.111111111111,4,2,1,5,0,0
47430,-111.111111111111,4,2,1,60,0,0
47550,-90.9090909090909,4,2,2,60,0,0
48030,-111.111111111111,4,2,3,60,0,0
49950,-80,4,2,1,70,0,1
51270,-80,4,2,1,5,0,1
51390,-80,4,2,1,70,0,1
53190,-80,4,2,1,5,0,1
53310,-80,4,2,1,70,0,1
55470,-80,4,2,1,70,0,0
55710,-80,4,2,1,80,0,1
61470,-100,4,2,1,70,0,0
62910,-80,4,2,1,80,0,0
63390,-133.333333333333,4,2,1,70,0,0
63870,-74.0740740740741,4,2,2,80,0,1
76830,-90.9090909090909,4,2,1,80,0,1
78750,-125,4,2,1,50,0,0
85830,-125,4,2,1,5,0,0
85950,-125,4,2,1,50,0,0
92550,-125,4,2,1,5,0,0
92670,-125,4,2,1,50,0,0
93510,-125,4,2,1,5,0,0
93630,-125,4,2,1,50,0,0
94110,-100,4,2,1,55,0,0
107550,-125,4,2,1,45,0,0
109465,480,4,2,1,40,1,0
109465,-111.111111111111,4,2,1,60,0,0
117145,-111.111111111111,4,2,1,70,0,0
117265,-111.111111111111,4,2,1,50,0,0
118105,-111.111111111111,4,2,1,40,0,0
119065,-111.111111111111,4,2,1,30,0,0
120025,-111.111111111111,4,2,1,20,0,0
120985,-111.111111111111,4,2,1,10,0,0
122905,-111.111111111111,4,2,1,5,0,0

[Colours]
Combo1 : 255,224,132
Combo2 : 101,198,235
Combo3 : 244,136,234
Combo4 : 80,209,197

[HitObjects]
420,260,16350,5,8,3:0:0:0:
456,268,16470,1,8,3:0:0:0:
216,368,16830,2,0,B|228:316|228:316|204:264|204:264|216:212,1,165,4|0,3:0|0:0,0:0:0:0:
224,175,17310,6,0,P|164:150|104:175,1,132,6|0,1:2|0:0,0:0:0:0:
88,212,17790,1,8,0:0:0:0:
224,276,18030,1,2,0:0:0:0:
88,340,18270,2,0,B|112:276|64:276|88:212,1,132,2|0,1:2|0:0,0:0:0:0:
105,175,18750,1,8,0:0:0:0:
0,114,18990,1,2,0:0:0:0:
105,52,19230,6,0,P|164:76|224:51,1,132,2|0,1:2|0:0,0:0:0:0:
258,28,19710,1,8,0:0:0:0:
322,148,19950,1,2,0:0:0:0:
386,28,20190,2,0,B|422:12|450:28|450:28|478:12|512:28,1,132,2|0,1:2|0:0,0:0:0:0:
512,68,20670,2,0,B|512:108|536:127|536:127|512:148|512:186,1,132,10|0,0:0|0:0,0:0:0:0:
512,224,21150,6,0,B|476:240|448:224|448:224|420:240|386:224,1,132,6|0,1:2|0:0,0:0:0:0:
352,212,21630,1,8,0:0:0:0:
288,92,21870,1,2,0:0:0:0:
224,212,22110,2,0,B|288:236|288:188|352:212,1,132,2|0,1:2|0:0,0:0:0:0:
385,223,22590,2,0,L|385:165,1,58.6666666666667,8|2,0:0|0:0,0:0:0:0:
445,296,23070,6,0,P|385:320|326:296,1,132,2|0,1:2|0:0,0:0:0:0:
299,268,23550,1,10,0:0:0:0:
177,184,23790,2,0,P|165:226|177:267,1,88,2|0,0:0|1:0,0:0:0:0:
297,184,24270,1,2,0:0:0:0:
297,184,24510,2,0,P|237:160|178:184,1,132,8|0,0:0|0:0,0:0:0:0:
148,212,24990,6,0,P|88:236|29:212,1,132,6|0,1:2|0:0,0:0:0:0:
1,184,25470,1,8,0:0:0:0:
88,80,25710,1,2,0:0:0:0:
178,184,25950,2,0,B|154:248|202:248|178:312,1,132,2|0,1:2|0:0,0:0:0:0:
164,348,26430,1,8,0:0:0:0:
40,248,26670,1,2,0:0:0:0:
178,184,26910,6,0,B|214:168|242:184|242:184|270:168|304:184,1,132,2|0,1:2|0:0,0:0:0:0:
340,204,27390,1,8,0:0:0:0:
399,84,27630,1,2,0:0:0:0:
459,204,27870,2,0,P|399:228|340:204,1,132,2|0,1:2|0:0,0:0:0:0:
305,184,28350,1,10,0:0:0:0:
246,304,28590,1,2,0:0:0:0:
187,184,28830,6,0,P|175:142|187:101,1,88,6|2,1:2|0:0,0:0:0:0:
305,184,29310,2,0,B|349:208|389:184|389:184|429:208|472:184,1,176,10|0,0:0|1:0,0:0:0:0:
472,184,30270,1,8,0:0:0:0:
388,80,30510,1,2,0:0:0:0:
305,184,30750,6,0,B|241:160|241:208|177:184,1,132,2|0,1:2|0:0,0:0:0:0:
141,170,31230,2,0,P|129:128|141:87,2,88,10|2|0,0:0|0:0|1:0,0:0:0:0:
58,264,31950,2,0,L|68:306,1,44,2|0,0:0|0:0,0:0:0:0:
80,344,32190,6,0,B|132:332|132:332|184:356|184:356|236:344,1,165,12|0,1:0|0:0,0:0:0:0:
308,326,32670,5,14,0:0:0:0:
228,184,32910,2,0,L|217:142,2,44,0|0|8,1:0|1:0|0:0,0:0:0:0:
399,142,33390,2,0,L|388:184,1,44,0|0,1:0|1:0,0:0:0:0:
361,255,33630,1,8,0:0:0:0:
228,326,33870,2,0,L|217:368,2,44,0|0|8,1:0|1:0|0:0,0:0:0:0:
399,368,34350,2,0,L|388:326,1,44,0|0,1:0|1:0,0:0:0:0:
361,255,34590,5,8,0:0:0:0:
228,326,34830,2,0,L|184:326,2,44,0|0|8,1:0|1:0|0:0,0:0:0:0:
388,325,35310,2,0,L|344:325,1,44,0|0,1:0|1:0,0:0:0:0:
286,384,35550,1,8,0:0:0:0:
286,267,35790,2,0,L|286:223,2,44,0|0|8,1:0|1:0|0:0,0:0:0:0:
264,144,36270,2,0,P|287:141|307:144,1,44,2|0,1:2|1:0,0:0:0:0:
286,223,36510,5,10,0:0:0:0:
220,76,36750,2,0,L|199:38,2,44,2|0|8,1:2|1:0|0:0,0:0:0:0:
348,76,37230,2,0,L|369:38,1,44,0|0,1:0|1:0,0:0:0:0:
286,1,37470,1,8,0:0:0:0:
286,179,37710,2,0,L|286:223,2,44,2|0|8,1:2|1:0|0:0,0:0:0:0:
264,302,38190,2,0,P|287:305|307:302,1,44,2|0,1:2|1:0,0:0:0:0:
286,223,38430,5,10,0:0:0:0:
194,384,38670,2,0,L|173:346,2,44,0|0|10,1:0|1:0|0:0,0:0:0:0:
378,384,39150,2,0,L|399:346,1,44,2|0,1:2|1:0,0:0:0:0:
436,280,39390,1,8,0:0:0:0:
286,179,39630,2,0,L|286:223,2,44,2|0|8,1:2|1:0|0:0,0:0:0:0:
264,302,40110,2,0,P|287:305|307:302,1,44,2|0,1:2|1:0,0:0:0:0:
286,223,40350,5,10,0:0:0:0:
194,384,40590,2,0,L|146:376,1,49.4999984893799,2|2,1:2|1:2,0:0:0:0:
64,364,40830,1,8,0:0:0:0:
264,302,41070,2,0,L|216:294,1,49.4999984893799,2|0,1:2|1:0,0:0:0:0:
134,282,41310,1,8,0:0:0:0:
334,220,41550,2,0,L|286:212,1,49.4999984893799,0|0,1:0|1:0,0:0:0:0:
204,200,41790,1,10,0:0:0:0:
354,318,42030,1,2,1:2:0:0:
378,127,42270,5,10,0:0:0:0:
204,200,42510,2,0,P|176:204|156:200,1,49.4999984893799,0|2,1:0|1:2,0:0:0:0:
180,120,42750,1,8,0:0:0:0:
262,259,42990,2,0,P|266:287|262:307,1,49.4999984893799,2|0,1:2|1:2,0:0:0:0:
182,283,43230,1,10,0:0:0:0:
321,200,43470,2,0,P|349:196|369:200,1,49.4999984893799,2|0,1:2|1:0,0:0:0:0:
345,280,43710,1,10,0:0:0:0:
262,141,43950,2,0,P|258:113|262:93,1,49.4999984893799,2|0,1:2|1:0,0:0:0:0:
342,117,44190,5,10,0:0:0:0:
256,192,44310,12,0,46110,0:0:0:0:
448,164,47430,5,0,3:0:0:0:
448,164,47550,6,0,B|468:176|468:176|372:192,1,121.000003692627,12|0,0:0|3:0,0:0:0:0:
204,72,48030,6,0,B|136:48|136:92|116:96|96:92|88:72|96:52|121:60,1,148.49999546814,2|2,3:2|3:2,0:0:0:0:
308,72,48750,2,0,B|376:48|376:92|396:96|416:92|424:72|416:52|391:60,1,148.49999546814,2|2,3:2|3:2,0:0:0:0:
256,164,49470,2,0,B|238:212|274:212|256:260,1,98.9999969787599,2|2,3:2|3:2,0:0:0:0:
176,136,49950,6,0,P|256:80|336:136,1,206.25,2|2,3:2|1:2,0:0:0:0:
256,164,50430,1,0,3:0:0:0:
169,16,50670,1,2,1:2:0:0:
339,16,50910,1,0,3:0:0:0:
339,16,51030,2,0,B|407:44|407:-12|471:16,1,137.5,2|0,1:2|0:0,0:0:0:0:
440,92,51390,5,2,3:2:0:0:
420,120,51510,1,2,1:2:0:0:
412,152,51630,1,2,1:2:0:0:
420,184,51750,1,2,1:2:0:0:
440,212,51870,6,0,B|472:260|440:308|440:308|392:276|344:308,1,206.25,2|2,3:2|1:2,0:0:0:0:
392,376,52350,1,0,3:0:0:0:
294,240,52590,1,2,1:2:0:0:
196,376,52830,1,0,3:0:0:0:
196,376,52950,2,0,B|128:348|128:404|64:376,1,137.5,2|0,1:2|0:0,0:0:0:0:
96,300,53310,5,2,3:2:0:0:
294,376,53550,1,2,1:2:0:0:
180,236,53790,6,0,B|124:236|96:188|96:188|68:236|10:236,1,206.25,2|2,3:2|1:2,0:0:0:0:
96,300,54270,1,0,3:0:0:0:
184,132,54510,1,2,1:2:0:0:
8,136,54750,1,0,3:0:0:0:
8,148,54870,1,2,1:2:0:0:
8,160,54990,2,0,P|42:168|74:160,1,68.75,2|0,1:2|0:0,0:0:0:0:
164,56,55230,6,0,P|131:8|97:56,1,137.5,10|2,3:2|0:0,0:0:0:0:
180,236,55710,6,0,B|244:264|244:208|312:236,1,137.5,2|0,3:2|1:0,0:0:0:0:
280,312,56070,1,2,1:2:0:0:
280,312,56190,1,8,3:2:0:0:
212,159,56430,2,0,P|204:127|212:93,1,68.75,2|0,1:2|0:0,0:0:0:0:
299,92,56670,2,0,P|307:125|298:158,1,68.75,0|2,3:0|1:2,0:0:0:0:
212,93,56910,1,0,1:0:0:0:
352,236,57150,5,10,3:2:0:0:
159,236,57390,1,0,1:2:0:0:
299,92,57630,6,0,B|363:64|363:120|431:92,1,137.5,2|0,3:2|1:0,0:0:0:0:
399,16,57990,1,2,1:2:0:0:
399,16,58110,1,8,3:2:0:0:
330,168,58350,2,0,L|338:236,1,68.75,2|0,1:2|0:0,0:0:0:0:
425,236,58590,2,0,L|433:168,1,68.75,0|2,3:0|1:2,0:0:0:0:
338,236,58830,1,0,1:0:0:0:
454,348,59070,5,10,3:2:0:0:
422,376,59190,1,2,1:2:0:0:
382,384,59310,1,2,1:2:0:0:
342,376,59430,1,2,1:2:0:0:
310,348,59550,6,0,B|246:320|246:376|178:348,1,137.5,2|0,3:2|1:0,0:0:0:0:
210,272,59910,1,2,1:2:0:0:
210,272,60030,1,8,3:2:0:0:
8,348,60270,2,0,P|0:316|8:282,1,68.75,2|0,1:2|0:0,0:0:0:0:
95,281,60510,2,0,P|102:314|94:346,1,68.75,0|2,3:0|1:2,0:0:0:0:
8,282,60750,1,0,1:0:0:0:
178,348,60990,5,10,3:2:0:0:
8,348,61230,1,2,1:2:0:0:
95,196,61470,6,0,B|115:144|75:144|95:90,1,110,2|0,1:2|1:0,0:0:0:0:
120,12,61830,2,0,P|93:5|66:12,1,55,2|8,1:2|0:0,0:0:0:0:
196,196,62190,6,0,B|234:190|234:190|264:202|264:202|302:195,1,110,2|0,1:2|1:0,0:0:0:0:
329,113,62550,2,0,L|276:124,1,55,2|0,1:2|1:0,0:0:0:0:
94,268,62910,6,0,B|142:260|142:260|178:276|178:276|226:268,1,137.5,10|0,1:2|1:0,0:0:0:0:
452,332,63390,6,0,L|372:349,1,82.5000031471254,2|0,1:2|3:0,0:0:0:0:
296,313,63750,1,0,1:2:0:0:
296,313,63870,6,0,P|288:349|296:384,1,74.2500002832413,14|0,0:0|0:0,0:0:0:0:
332,236,64110,2,0,P|296:228|261:236,1,74.2500002832413,2|0,1:2|0:0,0:0:0:0:
408,272,64350,1,2,3:2:0:0:
408,272,64470,2,0,P|416:236|408:201,1,74.2500002832413,2|0,1:2|1:0,0:0:0:0:
180,68,64830,6,0,L|169:141,1,74.2500002832413,10|0,0:0|1:0,0:0:0:0:
256,80,65070,2,0,L|245:153,1,74.2500002832413,2|0,1:2|1:0,0:0:0:0:
332,92,65310,6,0,B|324:148|324:148|340:180|340:180|332:235,1,148.500000566483,2|0,3:2|1:0,0:0:0:0:
316,320,65670,1,2,1:2:0:0:
320,324,65790,1,10,3:2:0:0:
123,223,66030,2,0,L|196:212,1,74.2500002832413,2|0,1:2|0:0,0:0:0:0:
332,236,66270,1,2,3:2:0:0:
332,236,66390,2,0,L|259:247,1,74.2500002832413,2|0,1:2|1:0,0:0:0:0:
56,144,66750,5,10,0:0:0:0:
25,179,66870,1,2,1:2:0:0:
16,223,66990,1,2,1:2:0:0:
25,267,67110,1,2,1:2:0:0:
56,302,67230,6,0,B|112:294|112:294|144:310|144:310|199:302,1,148.500000566483,6|0,3:2|1:0,0:0:0:0:
272,360,67590,1,2,1:2:0:0:
272,360,67710,1,10,3:2:0:0:
232,140,67950,2,0,L|159:151,1,74.2500002832413,2|0,1:2|0:0,0:0:0:0:
308,176,68190,1,2,3:2:0:0:
308,176,68310,2,0,P|316:140|308:105,1,74.2500002832413,2|0,1:2|1:0,0:0:0:0:
176,304,68670,6,0,L|249:293,1,74.2500002832413,10|0,0:0|0:0,0:0:0:0:
240,216,68910,2,0,L|167:227,1,74.2500002832413,2|0,1:2|0:0,0:0:0:0:
184,380,69150,6,0,L|330:358,1,148.500000566483,2|0,3:2|1:0,0:0:0:0:
416,340,69510,1,2,1:2:0:0:
416,340,69630,1,10,3:2:0:0:
240,216,69870,2,0,L|167:227,1,74.2500002832413,2|0,1:2|0:0,0:0:0:0:
316,252,70110,1,2,3:2:0:0:
316,252,70230,2,0,P|324:216|316:181,1,74.2500002832413,2|0,1:2|1:0,0:0:0:0:
184,380,70590,6,0,L|257:369,1,74.2500002832413,10|0,0:0|0:0,0:0:0:0:
331,358,70830,1,2,1:2:0:0:
459,180,71070,6,0,B|403:188|403:188|371:172|371:172|316:180,1,148.500000566483,6|0,3:2|1:0,0:0:0:0:
231,196,71430,1,2,1:2:0:0:
231,196,71550,1,10,3:2:0:0:
367,329,71790,2,0,L|356:256,1,74.2500002832413,2|0,1:2|0:0,0:0:0:0:
268,272,72030,1,0,3:2:0:0:
268,272,72150,2,0,L|279:345,1,74.2500002832413,2|0,1:2|1:0,0:0:0:0:
420,168,72510,6,0,L|347:179,1,74.2500002832413,10|0,0:0|1:0,0:0:0:0:
429,244,72750,2,0,L|356:255,1,74.2500002832413,2|0,1:2|1:0,0:0:0:0:
438,320,72990,6,0,L|292:342,1,148.500000566483,2|0,3:2|1:0,0:0:0:0:
206,360,73350,1,2,1:2:0:0:
206,360,73470,1,10,3:2:0:0:
347,179,73710,2,0,L|420:168,1,74.2500002832413,2|0,1:2|0:0,0:0:0:0:
271,214,73950,1,2,3:2:0:0:
271,214,74070,2,0,P|262:178|270:142,1,74.2500002832413,2|0,1:2|1:0,0:0:0:0:
352,332,74430,5,10,0:0:0:0:
308,352,74550,1,2,1:2:0:0:
272,384,74670,1,2,1:2:0:0:
236,352,74790,1,2,1:2:0:0:
196,332,74910,6,0,B|124:304|124:360|53:332,1,148.500000566483,6|0,3:2|1:0,0:0:0:0:
88,256,75270,1,2,1:2:0:0:
88,256,75390,1,10,3:2:0:0:
352,332,75630,2,0,P|388:340|423:332,1,74.2500002832413,2|0,1:2|0:0,0:0:0:0:
276,296,75870,1,2,3:2:0:0:
276,296,75990,2,0,P|268:332|276:367,1,74.2500002832413,2|0,1:2|1:0,0:0:0:0:
472,196,76350,6,0,L|399:185,1,74.2500002832413,10|0,0:0|0:0,0:0:0:0:
388,260,76590,2,0,L|461:271,1,74.2500002832413,2|0,1:2|0:0,0:0:0:0:
484,120,76830,6,0,L|365:102,1,121.000003692627,2|0,1:2|1:0,0:0:0:0:
292,92,77190,1,2,1:2:0:0:
292,92,77310,1,10,0:0:0:0:
104,168,77550,6,0,B|148:174|148:174|176:162|176:162|221:168,1,121.000003692627,2|0,1:2|1:0,0:0:0:0:
297,180,77910,2,0,L|287:239,1,60.5000018463135,2|0,1:2|1:0,0:0:0:0:
263,384,78270,1,10,0:0:0:0:
152,290,78510,1,2,1:2:0:0:
287,240,78750,5,6,1:2:0:0:
287,240,79230,2,0,L|330:247,3,44,10|2|2|2,0:0|0:0|0:0|0:0,0:0:0:0:
392,288,79710,2,0,P|404:244|392:205,1,88,2|2,1:2|0:0,0:0:0:0:
320,333,80190,1,10,0:0:0:0:
465,333,80430,1,2,0:0:0:0:
392,205,80670,6,0,P|380:161|392:122,1,88,2|2,1:2|0:0,0:0:0:0:
465,250,81150,1,10,0:0:0:0:
320,250,81390,1,2,0:0:0:0:
392,122,81630,1,2,1:2:0:0:
392,122,82110,2,0,L|392:78,3,44,10|2|2|2,0:0|1:2|1:2|1:2,0:0:0:0:
432,17,82590,6,0,P|391:5|349:17,1,88,6|0,1:2|0:0,0:0:0:0:
216,122,83070,2,0,P|257:134|299:122,1,88,10|2,0:0|0:0,0:0:0:0:
167,18,83550,1,2,1:2:0:0:
167,18,84030,1,10,0:0:0:0:
216,122,84270,1,2,0:0:0:0:
348,17,84510,6,0,P|389:5|431:17,1,88,2|0,1:2|0:0,0:0:0:0:
432,176,84990,2,0,P|391:188|349:176,1,88,10|2,0:0|0:0,0:0:0:0:
492,117,85470,2,0,P|516:176|492:236,1,132,2|0,1:2|0:0,0:0:0:0:
432,176,85950,1,10,0:0:0:0:
376,236,86190,1,2,0:0:0:0:
432,60,86430,5,6,1:2:0:0:
432,60,86910,2,0,L|388:60,3,44,10|2|2|2,0:0|0:0|0:0|0:0,0:0:0:0:
327,104,87390,2,0,P|314:62|326:20,1,88,2|2,1:2|0:0,0:0:0:0:
383,183,87870,2,0,P|395:224|383:266,1,88,10|2,0:0|0:0,0:0:0:0:
327,104,88350,5,2,1:2:0:0:
467,202,88590,1,2,0:0:0:0:
296,205,88830,1,10,0:0:0:0:
432,102,89070,1,2,0:0:0:0:
383,266,89310,1,2,1:2:0:0:
383,266,89790,2,0,L|383:310,3,44,10|2|2|2,0:0|1:2|1:2|1:2,0:0:0:0:
424,371,90270,6,0,P|383:383|341:371,1,88,6|2,1:2|0:0,0:0:0:0:
208,266,90750,2,0,P|249:254|291:266,1,88,10|2,0:0|0:0,0:0:0:0:
159,370,91230,1,2,1:2:0:0:
159,370,91710,1,10,0:0:0:0:
208,266,91950,1,2,0:0:0:0:
341,371,92190,6,0,B|405:347|405:395|469:371,1,132,2|0,1:2|0:0,0:0:0:0:
436,304,92670,1,10,0:0:0:0:
341,371,92910,1,2,0:0:0:0:
468,236,93150,2,0,B|404:212|404:260|340:236,1,132,2|0,1:2|0:0,0:0:0:0:
278,195,93630,2,0,P|266:236|278:278,1,88,10|2,0:0|0:0,0:0:0:0:
468,236,94110,5,6,1:2:0:0:
468,236,94590,1,10,3:2:0:0:
448,208,94710,1,2,0:0:0:0:
440,176,94830,1,2,0:0:0:0:
448,144,94950,1,2,0:0:0:0:
468,116,95070,2,0,P|486:65|468:15,1,110,2|2,3:2|0:0,0:0:0:0:
276,64,95550,1,10,3:2:0:0:
404,64,95790,1,2,0:0:0:0:
212,12,96030,6,0,P|194:63|212:113,1,110,2|2,1:2|0:0,0:0:0:0:
404,64,96510,1,10,3:2:0:0:
276,64,96750,1,2,0:0:0:0:
339,175,96990,1,2,3:2:0:0:
339,175,97470,2,0,P|343:203|339:229,1,55,10|2,3:2|1:2,0:0:0:0:
236,228,97710,2,0,P|232:200|236:174,1,55,2|2,1:2|1:2,0:0:0:0:
287,292,97950,6,0,P|236:310|186:292,1,110,6|0,1:2|0:0,0:0:0:0:
44,176,98430,2,0,P|95:158|145:176,1,110,10|2,3:2|0:0,0:0:0:0:
4,291,98910,1,2,3:2:0:0:
4,291,99390,1,10,3:2:0:0:
44,176,99630,1,2,0:0:0:0:
185,291,99870,6,0,P|236:310|287:292,1,110,2|0,1:2|0:0,0:0:0:0:
468,292,100350,2,0,P|417:310|366:292,1,110,10|2,3:2|0:0,0:0:0:0:
366,292,100830,1,2,3:2:0:0:
236,156,101070,1,2,1:2:0:0:
287,292,101310,1,10,0:0:0:0:
416,156,101550,1,2,1:2:0:0:
366,292,101790,5,6,1:2:0:0:
366,292,102270,1,10,3:2:0:0:
394,312,102390,1,2,0:0:0:0:
426,320,102510,1,2,0:0:0:0:
458,312,102630,1,2,0:0:0:0:
486,292,102750,2,0,P|504:241|486:191,1,110,2|2,3:2|0:0,0:0:0:0:
420,79,103230,1,10,3:2:0:0:
357,190,103470,1,2,0:0:0:0:
472,12,103710,6,0,P|421:-6|370:12,1,110,2|2,1:2|0:0,0:0:0:0:
220,80,104190,1,10,3:2:0:0:
420,79,104430,1,2,0:0:0:0:
270,13,104670,1,2,3:2:0:0:
270,13,105150,2,0,L|216:5,1,55,10|2,3:2|1:2,0:0:0:0:
166,72,105390,2,0,L|220:80,1,55,2|2,1:2|1:2,0:0:0:0:
256,160,105630,6,0,B|215:154|215:154|190:166|190:166|150:160,1,110,6|2,1:2|0:0,0:0:0:0:
0,284,106110,2,0,B|40:290|40:290|65:278|65:278|106:284,1,110,10|2,3:2|0:0,0:0:0:0:
256,160,106590,1,2,3:2:0:0:
256,160,107070,1,10,3:2:0:0:
200,284,107310,1,2,0:0:0:0:
182,108,107550,6,0,P|258:68|330:108,1,176,6|2,1:2|0:0,0:0:0:0:
256,160,108270,1,2,0:0:0:0:
182,108,108510,1,2,0:0:0:0:
331,109,108750,1,2,1:2:0:0:
256,237,108990,1,2,1:2:0:0:
256,58,109230,1,2,1:2:0:0:
256,237,109465,6,0,B|228:309|288:309|256:380,1,148.49999546814,2|2,1:2|1:2,0:0:0:0:
255,380,109945,1,8,0:0:0:0:
191,186,110185,2,0,P|256:154|320:186,1,148.49999546814,2|2,1:2|1:2,0:0:0:0:
132,308,110905,1,10,0:0:0:0:
191,186,111145,1,2,1:2:0:0:
380,308,111385,6,0,B|308:336|308:276|237:308,1,148.49999546814,2|2,1:2|1:2,0:0:0:0:
236,308,111865,1,8,0:0:0:0:
431,371,112105,2,0,P|461:306|429:243,1,148.49999546814,2|2,1:2|1:2,0:0:0:0:
237,308,112825,1,10,0:0:0:0:
211,282,112945,1,2,1:2:0:0:
204,246,113065,1,2,1:2:0:0:
211,210,113185,1,2,1:2:0:0:
237,185,113305,6,0,P|302:155|365:187,1,148.49999546814,2|2,1:2|1:2,0:0:0:0:
365,188,113785,1,8,0:0:0:0:
230,93,114025,2,0,P|302:73|371:93,1,148.49999546814,2|2,1:2|1:2,0:0:0:0:
160,185,114745,1,10,0:0:0:0:
230,93,114985,1,2,1:2:0:0:
441,185,115225,6,0,B|369:213|369:153|298:185,1,148.49999546814,2|2,1:2|1:2,0:0:0:0:
297,185,115705,1,8,0:0:0:0:
492,248,115945,2,0,P|522:183|490:120,1,148.49999546814,2|2,1:2|1:2,0:0:0:0:
393,284,116665,1,10,0:0:0:0:
298,119,116905,1,2,1:2:0:0:
489,119,117145,5,4,0:0:0:0:
256,192,117265,12,0,122905,0:0:0:0:
