osu file format v14

[General]
AudioFilename: audio.mp3
AudioLeadIn: 0
PreviewTime: 87637
Countdown: 0
SampleSet: Normal
StackLeniency: 0.7
Mode: 1
LetterboxInBreaks: 0
WidescreenStoryboard: 0

[Editor]
DistanceSpacing: 1.3
BeatDivisor: 6
GridSize: 4
TimelineZoom: 1.4

[Metadata]
Title:Koko ni Iru (feat. rionos)
TitleUnicode:ここにいる (feat. rionos)
Artist:Aiobahn
ArtistUnicode:Aiobahn
Creator:Charlotte
Version:Oni
Source:
Tags:アイオバーン Min-Hyuk Kim Sono Maltine Records Fated Records Monstercat Japanese Korean Electronic DJ J-Core Progressive House Cut Version I'm here Gero
BeatmapID:2403122
BeatmapSetID:1151233

[Difficulty]
HPDrainRate:6
CircleSize:5
OverallDifficulty:5.5
ApproachRate:5
SliderMultiplier:1.4
SliderTickRate:1

[Events]
//Background and Video events
0,0,"BG.jpg",0,40
//Break Periods
//Storyboard Layer 0 (Background)
//Storyboard Layer 1 (Fail)
//Storyboard Layer 2 (Pass)
//Storyboard Layer 3 (Foreground)
//Storyboard Layer 4 (Overlay)
//Storyboard Sound Samples

[TimingPoints]
19205,476.190476190476,4,1,0,50,1,0
34324,-100,4,1,0,60,0,0
42419,-100,4,1,0,65,0,0
57657,-100,4,1,0,60,0,0
79562,-100,4,1,0,70,0,0
80038,-98.0392156862745,4,1,0,70,0,0
80276,-96.1538461538461,4,1,0,70,0,0
80514,-94.3396226415094,4,1,0,70,0,0
80752,-92.5925925925926,4,1,0,70,0,0
80990,-90.9090909090909,4,1,0,70,0,0
81228,-89.2857142857143,4,1,0,70,0,0
81466,-87.719298245614,4,1,0,70,0,0
81704,-85.4700854700855,4,1,0,70,0,0
82181,-84.0336134453781,4,1,0,70,0,0
82419,-82.6446280991736,4,1,0,70,0,0
82657,-81.3008130081301,4,1,0,70,0,0
82895,-80,4,1,0,70,0,0
83133,-78.7401574803149,4,1,0,70,0,0
83371,-77.5193798449612,4,1,0,70,0,0
83609,-75.7575757575758,4,1,0,70,0,0
84085,-74.0740740740741,4,1,0,70,0,0
84562,-72.463768115942,4,1,0,70,0,0
85038,-68.9655172413793,4,1,0,70,0,0
87776,-83.3333333333333,4,1,0,80,0,1
103014,-83.3333333333333,4,1,0,60,0,0
103431,-83.3333333333333,4,1,0,80,0,0
103490,-83.3333333333333,4,1,0,80,0,1
118252,-90.9090909090909,4,1,0,30,0,0
120038,-100,4,1,0,50,0,0
135395,-100,4,1,0,40,0,0

[HitObjects]
274,189,19205,5,0,0:0:0:0:
261,191,19681,1,8,0:0:0:0:
277,205,19919,1,8,0:0:0:0:
277,205,20157,1,0,0:0:0:0:
273,204,20633,1,8,0:0:0:0:
254,207,20871,1,8,0:0:0:0:
254,207,21109,1,0,0:0:0:0:
254,207,21347,1,0,0:0:0:0:
253,203,21585,1,8,0:0:0:0:
263,188,21824,1,0,0:0:0:0:
254,207,22062,1,0,0:0:0:0:
250,196,22538,1,8,0:0:0:0:
250,196,22776,1,8,0:0:0:0:
250,196,23014,1,0,0:0:0:0:
250,196,23490,1,0,0:0:0:0:
250,196,23728,1,8,0:0:0:0:
250,196,23966,1,0,0:0:0:0:
250,196,24443,1,8,0:0:0:0:
250,196,24681,1,8,0:0:0:0:
250,196,24919,1,0,0:0:0:0:
250,196,25395,1,8,0:0:0:0:
277,208,25871,1,8,0:0:0:0:
250,196,26109,1,0,0:0:0:0:
250,196,26347,1,8,0:0:0:0:
239,193,26824,1,0,0:0:0:0:
250,196,27300,1,8,0:0:0:0:
245,194,27776,1,8,0:0:0:0:
246,188,28014,1,0,0:0:0:0:
246,182,28252,1,8,0:0:0:0:
245,188,28490,1,8,0:0:0:0:
245,188,28728,1,0,0:0:0:0:
239,190,28966,1,8,0:0:0:0:
241,194,29443,1,0,0:0:0:0:
247,192,29919,1,8,0:0:0:0:
272,197,30157,1,0,0:0:0:0:
272,197,30395,1,0,0:0:0:0:
272,197,30633,1,8,0:0:0:0:
264,195,30871,1,0,0:0:0:0:
264,195,31347,1,8,0:0:0:0:
277,202,31824,1,0,0:0:0:0:
277,202,32062,1,8,0:0:0:0:
277,202,32300,1,8,0:0:0:0:
277,202,32538,1,0,0:0:0:0:
265,195,32776,1,8,0:0:0:0:
283,200,32895,1,8,0:0:0:0:
283,200,33014,1,0,0:0:0:0:
277,202,33252,1,0,0:0:0:0:
295,206,33490,1,8,0:0:0:0:
295,206,33728,1,8,0:0:0:0:
294,209,33847,1,8,0:0:0:0:
303,207,33966,1,8,0:0:0:0:
294,208,34204,1,0,0:0:0:0:
296,213,34443,1,4,0:0:0:0:
285,204,34919,1,8,0:0:0:0:
273,201,35395,1,0,0:0:0:0:
273,201,35633,1,0,0:0:0:0:
273,201,35871,1,8,0:0:0:0:
276,206,36109,1,0,0:0:0:0:
276,206,36347,1,8,0:0:0:0:
273,201,36466,1,8,0:0:0:0:
276,206,36585,1,0,0:0:0:0:
276,206,36824,1,0,0:0:0:0:
276,206,37062,1,8,0:0:0:0:
263,200,37300,1,0,0:0:0:0:
276,206,37538,1,0,0:0:0:0:
286,200,37657,1,8,0:0:0:0:
276,206,37776,1,0,0:0:0:0:
276,206,38014,1,0,0:0:0:0:
282,198,38252,1,8,0:0:0:0:
291,188,38371,1,0,0:0:0:0:
276,206,38490,1,8,0:0:0:0:
279,200,38728,1,0,0:0:0:0:
276,206,38966,1,8,0:0:0:0:
277,201,39204,1,0,0:0:0:0:
276,206,39443,1,8,0:0:0:0:
273,202,39562,1,8,0:0:0:0:
279,200,39681,1,0,0:0:0:0:
277,201,39919,1,8,0:0:0:0:
274,209,40038,1,8,0:0:0:0:
277,201,40157,1,0,0:0:0:0:
267,211,40395,1,0,0:0:0:0:
267,211,40633,1,8,0:0:0:0:
267,211,40871,1,8,0:0:0:0:
267,211,41109,1,0,0:0:0:0:
267,211,41347,1,8,0:0:0:0:
267,211,41466,1,0,0:0:0:0:
267,211,41585,1,8,0:0:0:0:
267,211,41824,1,8,0:0:0:0:
272,208,41943,1,8,0:0:0:0:
267,211,42062,1,0,0:0:0:0:
257,193,42538,1,8,0:0:0:0:
261,206,43014,1,0,0:0:0:0:
263,206,43252,1,0,0:0:0:0:
263,201,43371,1,0,0:0:0:0:
263,206,43490,1,8,0:0:0:0:
267,203,43728,1,0,0:0:0:0:
261,206,43966,1,8,0:0:0:0:
263,206,44204,1,0,0:0:0:0:
245,202,44324,1,0,0:0:0:0:
263,206,44443,1,8,0:0:0:0:
267,203,44681,1,0,0:0:0:0:
261,206,44919,1,8,0:0:0:0:
263,206,45157,1,0,0:0:0:0:
273,198,45276,1,0,0:0:0:0:
263,206,45395,1,8,0:0:0:0:
267,203,45633,1,8,0:0:0:0:
261,206,45871,1,0,0:0:0:0:
263,206,46109,1,8,0:0:0:0:
276,211,46228,1,0,0:0:0:0:
263,206,46347,1,8,0:0:0:0:
267,203,46585,1,0,0:0:0:0:
261,206,46824,1,8,0:0:0:0:
263,206,47062,1,0,0:0:0:0:
269,209,47181,1,0,0:0:0:0:
263,206,47300,1,8,0:0:0:0:
267,203,47538,1,8,0:0:0:0:
261,206,47776,1,0,0:0:0:0:
263,206,48014,1,0,0:0:0:0:
269,209,48133,1,0,0:0:0:0:
263,206,48252,1,8,0:0:0:0:
267,203,48490,1,8,0:0:0:0:
261,206,48728,1,0,0:0:0:0:
263,206,48966,1,0,0:0:0:0:
256,197,49085,1,0,0:0:0:0:
263,206,49204,1,8,0:0:0:0:
267,203,49443,1,8,0:0:0:0:
261,206,49681,1,0,0:0:0:0:
263,206,50157,1,8,0:0:0:0:
261,206,50633,1,0,0:0:0:0:
263,206,50871,1,0,0:0:0:0:
279,213,50990,1,0,0:0:0:0:
263,206,51109,1,8,0:0:0:0:
267,203,51347,1,8,0:0:0:0:
261,206,51585,1,0,0:0:0:0:
263,206,51824,1,0,0:0:0:0:
271,199,51943,1,0,0:0:0:0:
263,206,52062,1,8,0:0:0:0:
267,203,52300,1,8,0:0:0:0:
261,206,52538,1,0,0:0:0:0:
263,206,52776,1,8,0:0:0:0:
263,206,52895,1,0,0:0:0:0:
267,203,53014,1,8,0:0:0:0:
261,206,53252,1,0,0:0:0:0:
263,206,53490,1,8,0:0:0:0:
257,211,53728,1,0,0:0:0:0:
259,211,53847,1,0,0:0:0:0:
263,206,53966,1,8,0:0:0:0:
267,203,54204,1,8,0:0:0:0:
261,206,54443,1,0,0:0:0:0:
263,206,54681,1,0,0:0:0:0:
263,206,54800,1,0,0:0:0:0:
267,203,54919,1,8,0:0:0:0:
261,206,55157,1,8,0:0:0:0:
263,206,55395,1,0,0:0:0:0:
270,206,55633,1,0,0:0:0:0:
270,206,55752,1,0,0:0:0:0:
263,206,55871,1,8,0:0:0:0:
267,203,56109,1,8,0:0:0:0:
274,200,56228,1,0,0:0:0:0:
274,206,56347,1,8,0:0:0:0:
263,206,56585,1,0,0:0:0:0:
261,200,56704,1,0,0:0:0:0:
263,206,56824,1,8,0:0:0:0:
269,195,57062,1,8,0:0:0:0:
261,206,57300,1,0,0:0:0:0:
258,186,57776,1,8,0:0:0:0:
259,186,58252,1,0,0:0:0:0:
258,186,58490,1,0,0:0:0:0:
259,186,58728,1,8,0:0:0:0:
264,191,59125,1,0,0:0:0:0:
264,175,59204,1,0,0:0:0:0:
258,186,59681,1,8,0:0:0:0:
254,191,59919,1,8,0:0:0:0:
259,186,60157,1,0,0:0:0:0:
258,186,60633,1,8,0:0:0:0:
259,186,61109,1,0,0:0:0:0:
258,186,61585,1,8,0:0:0:0:
263,182,61824,1,8,0:0:0:0:
259,186,62062,1,0,0:0:0:0:
263,183,62300,1,0,0:0:0:0:
258,186,62538,1,8,0:0:0:0:
259,186,62935,1,0,0:0:0:0:
257,180,63014,1,0,0:0:0:0:
263,183,63252,1,0,0:0:0:0:
265,186,63490,1,0,0:0:0:0:
265,186,63728,1,0,0:0:0:0:
259,186,63966,1,0,0:0:0:0:
263,183,64204,1,8,0:0:0:0:
265,186,64443,1,8,0:0:0:0:
259,186,64919,1,0,0:0:0:0:
258,186,65395,1,8,0:0:0:0:
237,183,65633,1,8,0:0:0:0:
259,186,65871,1,0,0:0:0:0:
267,188,66109,1,0,0:0:0:0:
258,186,66347,1,8,0:0:0:0:
255,197,66585,1,8,0:0:0:0:
267,181,66744,1,0,0:0:0:0:
259,186,66824,1,0,0:0:0:0:
258,186,67300,1,8,0:0:0:0:
268,192,67538,1,8,0:0:0:0:
259,186,67776,1,0,0:0:0:0:
258,186,68252,1,8,0:0:0:0:
265,201,68490,1,0,0:0:0:0:
255,189,68728,1,8,0:0:0:0:
258,186,69204,1,0,0:0:0:0:
268,189,69443,1,8,0:0:0:0:
255,189,69681,1,0,0:0:0:0:
258,197,69919,1,0,0:0:0:0:
258,186,70157,1,8,0:0:0:0:
255,186,70395,1,0,0:0:0:0:
279,177,70554,1,8,0:0:0:0:
256,176,70633,1,8,0:0:0:0:
258,197,70871,1,0,0:0:0:0:
239,182,70990,1,0,0:0:0:0:
258,186,71109,1,0,0:0:0:0:
281,187,71228,1,0,0:0:0:0:
261,197,71347,1,0,0:0:0:0:
260,193,71585,1,0,0:0:0:0:
255,189,71665,1,0,0:0:0:0:
258,197,71744,1,0,0:0:0:0:
258,197,71824,1,8,0:0:0:0:
258,186,72062,1,8,0:0:0:0:
255,189,72300,1,8,0:0:0:0:
255,189,72538,1,4,0:0:0:0:
258,209,73252,1,8,0:0:0:0:
270,207,73490,1,0,0:0:0:0:
270,207,73728,1,0,0:0:0:0:
266,201,73966,1,0,0:0:0:0:
266,201,74085,1,8,0:0:0:0:
268,189,74324,1,8,0:0:0:0:
270,199,74681,1,8,0:0:0:0:
266,201,74919,1,0,0:0:0:0:
270,199,75157,1,8,0:0:0:0:
270,199,75395,1,0,0:0:0:0:
270,199,75633,1,0,0:0:0:0:
270,200,75871,1,8,0:0:0:0:
261,191,76347,1,0,0:0:0:0:
254,171,77062,1,8,0:0:0:0:
254,171,77776,1,0,0:0:0:0:
254,171,78014,1,8,0:0:0:0:
254,171,78490,1,8,0:0:0:0:
254,171,78728,1,0,0:0:0:0:
254,171,78966,1,8,0:0:0:0:
254,171,79204,1,0,0:0:0:0:
254,171,79443,1,0,0:0:0:0:
254,171,79681,1,12,0:0:0:0:
263,180,80157,1,0,0:0:0:0:
263,178,80395,1,0,0:0:0:0:
263,178,80633,1,0,0:0:0:0:
263,178,80871,1,0,0:0:0:0:
263,180,81109,1,0,0:0:0:0:
263,178,81347,1,0,0:0:0:0:
263,178,81585,1,8,0:0:0:0:
263,178,81824,1,0,0:0:0:0:
256,182,81943,1,0,0:0:0:0:
263,180,82062,1,0,0:0:0:0:
263,178,82300,1,0,0:0:0:0:
263,178,82538,1,0,0:0:0:0:
263,178,82776,1,0,0:0:0:0:
263,180,83014,1,0,0:0:0:0:
263,178,83252,1,0,0:0:0:0:
263,178,83490,1,8,0:0:0:0:
265,171,83728,1,8,0:0:0:0:
265,171,83847,1,8,0:0:0:0:
252,182,83966,1,0,0:0:0:0:
252,182,84204,1,0,0:0:0:0:
263,178,84324,1,0,0:0:0:0:
256,175,84443,1,8,0:0:0:0:
253,175,84681,1,8,0:0:0:0:
253,175,84800,1,8,0:0:0:0:
236,174,84919,1,0,0:0:0:0:
247,176,85157,1,0,0:0:0:0:
249,169,85276,1,0,0:0:0:0:
247,176,85395,1,8,0:0:0:0:
248,170,85514,1,0,0:0:0:0:
249,168,85633,1,8,0:0:0:0:
249,168,85752,1,8,0:0:0:0:
252,171,85871,1,0,0:0:0:0:
274,192,87776,1,0,0:0:0:0:
273,201,88133,1,8,0:0:0:0:
286,204,88252,1,0,0:0:0:0:
277,211,88490,1,0,0:0:0:0:
289,211,88728,1,8,0:0:0:0:
289,211,88966,1,0,0:0:0:0:
279,210,89204,1,0,0:0:0:0:
277,211,89324,1,8,0:0:0:0:
266,193,89601,1,8,0:0:0:0:
292,205,89681,1,0,0:0:0:0:
274,214,89919,1,0,0:0:0:0:
273,214,90157,1,8,0:0:0:0:
273,214,90395,1,8,0:0:0:0:
273,214,90633,1,0,0:0:0:0:
273,214,91030,1,8,0:0:0:0:
273,214,91109,1,0,0:0:0:0:
273,214,91347,1,8,0:0:0:0:
275,203,91466,1,8,0:0:0:0:
267,214,91585,1,0,0:0:0:0:
272,197,91943,1,8,0:0:0:0:
286,204,92062,1,0,0:0:0:0:
277,211,92300,1,0,0:0:0:0:
289,211,92538,1,8,0:0:0:0:
289,211,92776,1,0,0:0:0:0:
279,210,93014,1,0,0:0:0:0:
277,211,93133,1,8,0:0:0:0:
266,193,93411,1,8,0:0:0:0:
292,205,93490,1,0,0:0:0:0:
274,214,93728,1,8,0:0:0:0:
273,214,93966,1,0,0:0:0:0:
273,214,94204,1,8,0:0:0:0:
273,214,94443,1,0,0:0:0:0:
273,214,94839,1,8,0:0:0:0:
266,213,94919,1,0,0:0:0:0:
292,208,95038,1,0,0:0:0:0:
292,208,95157,1,8,0:0:0:0:
274,220,95395,1,0,0:0:0:0:
289,211,95474,1,8,0:0:0:0:
290,218,95633,1,0,0:0:0:0:
291,209,95712,1,8,0:0:0:0:
290,218,95871,1,0,0:0:0:0:
272,213,96109,1,0,0:0:0:0:
275,213,96347,1,8,0:0:0:0:
275,213,96585,1,0,0:0:0:0:
275,213,96824,1,0,0:0:0:0:
272,213,96943,1,8,0:0:0:0:
293,197,97220,1,8,0:0:0:0:
273,206,97300,1,0,0:0:0:0:
280,206,97538,1,0,0:0:0:0:
280,206,97776,1,8,0:0:0:0:
248,221,98014,1,8,0:0:0:0:
248,221,98252,1,0,0:0:0:0:
254,227,98490,1,8,0:0:0:0:
254,227,98649,1,8,0:0:0:0:
254,227,98728,1,0,0:0:0:0:
263,217,98966,1,8,0:0:0:0:
258,203,99204,1,0,0:0:0:0:
281,226,99443,1,8,0:0:0:0:
282,218,99562,1,8,0:0:0:0:
269,215,99681,1,0,0:0:0:0:
257,192,99919,1,0,0:0:0:0:
263,224,100157,1,8,0:0:0:0:
261,224,100395,1,0,0:0:0:0:
259,225,100633,1,0,0:0:0:0:
263,224,100752,1,8,0:0:0:0:
254,190,101030,1,8,0:0:0:0:
254,190,101109,1,0,0:0:0:0:
257,196,101347,1,0,0:0:0:0:
271,198,101585,1,8,0:0:0:0:
271,198,101824,1,8,0:0:0:0:
269,198,102062,1,0,0:0:0:0:
266,189,102300,1,8,0:0:0:0:
265,195,102458,1,0,0:0:0:0:
272,193,102538,1,8,0:0:0:0:
271,198,102776,1,8,0:0:0:0:
266,189,103252,1,8,0:0:0:0:
273,190,103371,1,8,0:0:0:0:
268,189,103490,1,0,0:0:0:0:
271,193,103728,1,0,0:0:0:0:
275,192,103966,1,8,0:0:0:0:
270,193,104204,1,0,0:0:0:0:
268,189,104443,1,0,0:0:0:0:
271,193,104562,1,8,0:0:0:0:
286,175,104839,1,8,0:0:0:0:
284,177,104919,1,0,0:0:0:0:
283,188,105157,1,0,0:0:0:0:
283,188,105395,1,8,0:0:0:0:
283,188,105633,1,8,0:0:0:0:
283,188,105871,1,0,0:0:0:0:
281,181,106109,1,8,0:0:0:0:
281,181,106268,1,8,0:0:0:0:
281,181,106347,1,0,0:0:0:0:
276,191,106585,1,8,0:0:0:0:
284,197,106824,1,0,0:0:0:0:
286,208,107181,1,8,0:0:0:0:
286,208,107300,1,0,0:0:0:0:
282,208,107538,1,0,0:0:0:0:
265,214,107776,1,8,0:0:0:0:
265,214,108014,1,0,0:0:0:0:
265,214,108252,1,0,0:0:0:0:
284,238,108371,1,8,0:0:0:0:
284,238,108649,1,8,0:0:0:0:
265,203,108728,1,0,0:0:0:0:
257,216,108966,1,8,0:0:0:0:
257,216,109204,1,0,0:0:0:0:
257,216,109443,1,8,0:0:0:0:
257,216,109681,1,0,0:0:0:0:
261,198,110078,1,8,0:0:0:0:
261,198,110157,1,0,0:0:0:0:
279,202,110276,1,0,0:0:0:0:
279,202,110395,1,8,0:0:0:0:
285,188,110633,1,0,0:0:0:0:
260,186,110990,1,8,0:0:0:0:
265,187,111109,1,0,0:0:0:0:
281,211,111347,1,0,0:0:0:0:
281,211,111585,1,8,0:0:0:0:
281,211,111824,1,0,0:0:0:0:
281,211,112062,1,0,0:0:0:0:
281,211,112181,1,8,0:0:0:0:
288,201,112458,1,8,0:0:0:0:
281,204,112538,1,0,0:0:0:0:
307,197,112776,1,0,0:0:0:0:
306,204,113014,1,8,0:0:0:0:
306,204,113252,1,8,0:0:0:0:
306,204,113490,1,0,0:0:0:0:
312,200,113728,1,8,0:0:0:0:
311,200,113887,1,8,0:0:0:0:
311,200,113966,1,0,0:0:0:0:
318,202,114204,1,8,0:0:0:0:
300,190,114324,1,8,0:0:0:0:
299,199,114443,1,0,0:0:0:0:
316,207,114681,1,8,0:0:0:0:
316,207,114839,1,8,0:0:0:0:
316,207,114919,1,8,0:0:0:0:
311,194,115078,1,0,0:0:0:0:
263,192,115157,1,8,0:0:0:0:
316,207,115395,1,8,0:0:0:0:
316,207,115633,1,0,0:0:0:0:
316,207,115792,1,8,0:0:0:0:
263,192,115871,1,8,0:0:0:0:
263,192,116030,1,0,0:0:0:0:
263,192,116109,1,8,0:0:0:0:
286,187,116268,1,0,0:0:0:0:
303,170,116506,1,8,0:0:0:0:
260,173,116585,1,0,0:0:0:0:
278,168,116824,1,0,0:0:0:0:
283,169,117062,1,0,0:0:0:0:
283,169,117300,1,0,0:0:0:0:
283,169,117538,1,8,0:0:0:0:
263,179,117697,1,0,0:0:0:0:
261,178,117776,1,8,0:0:0:0:
261,188,118014,1,0,0:0:0:0:
256,192,118252,12,0,119919,0:0:0:0:
261,216,120157,5,8,0:0:0:0:
246,199,120395,1,0,0:0:0:0:
252,184,120633,1,0,0:0:0:0:
288,243,120871,1,8,0:0:0:0:
245,201,121109,1,0,0:0:0:0:
267,211,121347,1,0,0:0:0:0:
267,211,121585,1,8,0:0:0:0:
267,211,122062,1,0,0:0:0:0:
267,211,122300,1,8,0:0:0:0:
267,211,122538,1,8,0:0:0:0:
267,211,122776,1,0,0:0:0:0:
267,211,123014,1,8,0:0:0:0:
267,211,123252,1,8,0:0:0:0:
267,211,123490,1,0,0:0:0:0:
267,211,123966,1,8,0:0:0:0:
267,211,124204,1,0,0:0:0:0:
267,211,124443,1,0,0:0:0:0:
267,211,124681,1,8,0:0:0:0:
252,224,124760,1,0,0:0:0:0:
267,211,124839,1,0,0:0:0:0:
267,211,124919,1,8,0:0:0:0:
267,211,125157,1,0,0:0:0:0:
267,211,125395,1,8,0:0:0:0:
267,211,125633,1,8,0:0:0:0:
267,211,125871,1,0,0:0:0:0:
267,211,126109,1,0,0:0:0:0:
267,211,126347,1,8,0:0:0:0:
267,211,126585,1,0,0:0:0:0:
267,211,126824,1,8,0:0:0:0:
267,211,127062,1,0,0:0:0:0:
267,211,127300,1,8,0:0:0:0:
267,211,127538,1,8,0:0:0:0:
267,211,127776,1,0,0:0:0:0:
265,189,128252,1,0,0:0:0:0:
265,189,128490,1,8,0:0:0:0:
265,176,128570,1,0,0:0:0:0:
269,171,128649,1,0,0:0:0:0:
270,173,128728,1,8,0:0:0:0:
265,189,128966,1,0,0:0:0:0:
265,189,129204,1,8,0:0:0:0:
250,180,129443,1,8,0:0:0:0:
250,180,129681,1,0,0:0:0:0:
241,184,129919,1,8,0:0:0:0:
254,173,130395,1,0,0:0:0:0:
249,176,130871,1,8,0:0:0:0:
249,176,131109,1,0,0:0:0:0:
242,167,131585,1,0,0:0:0:0:
242,167,131943,1,0,0:0:0:0:
242,167,132300,1,8,0:0:0:0:
242,167,132776,1,0,0:0:0:0:
242,167,133014,1,8,0:0:0:0:
219,148,133490,1,8,0:0:0:0:
232,157,133728,1,0,0:0:0:0:
232,157,133966,1,0,0:0:0:0:
232,157,134204,1,0,0:0:0:0:
232,157,134443,1,8,0:0:0:0:
232,157,134919,1,0,0:0:0:0:
256,192,135395,12,0,137300,0:0:0:0:
