osu file format v14

[General]
AudioFilename: audio.mp3
AudioLeadIn: 0
PreviewTime: 87637
Countdown: 0
SampleSet: Normal
StackLeniency: 0.7
Mode: 1
LetterboxInBreaks: 0
WidescreenStoryboard: 0

[Editor]
DistanceSpacing: 1.3
BeatDivisor: 4
GridSize: 4
TimelineZoom: 0.9

[Metadata]
Title:Koko ni Iru (feat. rionos)
TitleUnicode:ここにいる (feat. rionos)
Artist:Aiobahn
ArtistUnicode:Aiobahn
Creator:Charlotte
Version:Futsuu
Source:
Tags:アイオバーン Min-Hyuk Kim Sono Maltine Records Fated Records Monstercat Japanese Korean Electronic DJ J-Core Progressive House Cut Version I'm here Gero
BeatmapID:2403320
BeatmapSetID:1151233

[Difficulty]
HPDrainRate:7
CircleSize:5
OverallDifficulty:4
ApproachRate:5
SliderMultiplier:1.4
SliderTickRate:1

[Events]
//Background and Video events
0,0,"BG.jpg",0,40
//Break Periods
//Storyboard Layer 0 (Background)
//Storyboard Layer 1 (Fail)
//Storyboard Layer 2 (Pass)
//Storyboard Layer 3 (Foreground)
//Storyboard Layer 4 (Overlay)
//Storyboard Sound Samples

[TimingPoints]
19205,476.190476190476,4,1,0,50,1,0
34324,-100,4,1,0,60,0,0
42419,-100,4,1,0,65,0,0
57657,-100,4,1,0,60,0,0
79562,-100,4,1,0,70,0,0
87776,-90.9090909090909,4,1,0,80,0,1
103014,-90.9090909090909,4,1,0,60,0,0
103490,-90.9090909090909,4,1,0,80,0,1
118252,-90.9090909090909,4,1,0,30,0,0
120038,-100,4,1,0,50,0,0
135395,-100,4,1,0,40,0,0

[HitObjects]
274,189,19205,5,0,0:0:0:0:
261,191,19681,1,8,0:0:0:0:
277,205,20157,1,0,0:0:0:0:
273,204,20633,1,8,0:0:0:0:
254,207,20871,1,8,0:0:0:0:
254,207,21109,1,0,0:0:0:0:
253,203,21585,1,8,0:0:0:0:
254,207,22062,1,0,0:0:0:0:
250,196,23014,1,0,0:0:0:0:
250,196,23490,1,8,0:0:0:0:
250,196,23966,1,0,0:0:0:0:
250,196,24443,1,8,0:0:0:0:
250,196,24681,1,8,0:0:0:0:
250,196,24919,1,0,0:0:0:0:
277,208,25395,1,8,0:0:0:0:
250,196,26109,1,0,0:0:0:0:
250,196,26347,1,8,0:0:0:0:
239,193,26824,1,0,0:0:0:0:
245,194,27776,1,8,0:0:0:0:
246,182,28252,1,8,0:0:0:0:
245,188,28728,1,0,0:0:0:0:
255,193,28966,1,8,0:0:0:0:
241,194,29443,1,0,0:0:0:0:
260,170,30157,1,0,0:0:0:0:
272,197,30633,1,8,0:0:0:0:
264,195,30871,1,0,0:0:0:0:
264,195,31347,1,8,0:0:0:0:
277,202,32062,1,8,0:0:0:0:
277,202,32538,1,0,0:0:0:0:
265,195,32776,1,8,0:0:0:0:
295,206,33252,1,0,0:0:0:0:
295,206,33728,1,8,0:0:0:0:
303,207,33966,1,8,0:0:0:0:
296,213,34443,1,4,0:0:0:0:
273,201,35395,1,0,0:0:0:0:
280,202,35871,1,0,0:0:0:0:
276,206,36347,1,8,0:0:0:0:
276,206,36824,1,0,0:0:0:0:
276,206,37062,1,8,0:0:0:0:
276,206,37538,1,8,0:0:0:0:
276,206,37776,1,0,0:0:0:0:
282,198,38252,1,8,0:0:0:0:
279,200,38728,1,0,0:0:0:0:
276,206,38966,1,8,0:0:0:0:
276,206,39443,1,0,0:0:0:0:
277,201,39919,1,8,0:0:0:0:
267,211,40395,1,0,0:0:0:0:
267,211,40633,1,8,0:0:0:0:
277,201,40871,1,0,0:0:0:0:
267,211,41347,1,0,0:0:0:0:
267,211,41585,1,8,0:0:0:0:
257,193,42538,1,8,0:0:0:0:
261,206,43014,1,0,0:0:0:0:
263,206,43490,1,8,0:0:0:0:
254,214,43728,1,0,0:0:0:0:
263,206,44204,1,0,0:0:0:0:
263,206,44443,1,8,0:0:0:0:
261,206,44919,1,0,0:0:0:0:
263,206,45395,1,8,0:0:0:0:
267,203,45633,1,8,0:0:0:0:
261,206,45871,1,0,0:0:0:0:
263,206,46347,1,8,0:0:0:0:
261,206,46824,1,8,0:0:0:0:
263,206,47062,1,0,0:0:0:0:
263,206,47300,1,8,0:0:0:0:
261,206,47776,1,0,0:0:0:0:
263,206,48252,1,8,0:0:0:0:
267,203,48490,1,8,0:0:0:0:
263,206,48966,1,0,0:0:0:0:
263,206,49204,1,8,0:0:0:0:
277,205,50157,1,8,0:0:0:0:
261,206,50633,1,0,0:0:0:0:
256,199,51109,1,8,0:0:0:0:
263,206,51347,1,0,0:0:0:0:
254,200,51824,1,0,0:0:0:0:
263,206,52062,1,8,0:0:0:0:
261,206,52538,1,0,0:0:0:0:
267,203,53014,1,8,0:0:0:0:
261,206,53252,1,0,0:0:0:0:
263,206,53490,1,8,0:0:0:0:
267,203,53966,1,8,0:0:0:0:
263,206,54681,1,0,0:0:0:0:
292,215,54919,1,8,0:0:0:0:
263,206,55395,1,0,0:0:0:0:
263,206,55871,1,8,0:0:0:0:
267,203,56109,1,8,0:0:0:0:
263,206,56585,1,0,0:0:0:0:
261,195,56824,1,8,0:0:0:0:
261,206,57300,1,0,0:0:0:0:
259,186,58252,1,0,0:0:0:0:
264,175,58966,1,0,0:0:0:0:
258,186,59681,1,8,0:0:0:0:
259,186,60157,1,0,0:0:0:0:
259,186,61109,1,0,0:0:0:0:
259,186,62062,1,0,0:0:0:0:
257,180,62776,1,0,0:0:0:0:
247,164,63252,1,0,0:0:0:0:
265,186,63490,1,0,0:0:0:0:
265,186,63728,1,0,0:0:0:0:
263,183,64204,1,8,0:0:0:0:
265,186,64443,1,8,0:0:0:0:
259,186,64919,1,0,0:0:0:0:
259,186,65871,1,0,0:0:0:0:
259,186,66585,1,0,0:0:0:0:
258,186,67300,1,8,0:0:0:0:
259,186,67776,1,0,0:0:0:0:
255,189,68728,1,8,0:0:0:0:
268,189,69681,1,8,0:0:0:0:
259,185,70157,1,0,0:0:0:0:
243,184,70395,1,8,0:0:0:0:
258,186,70871,1,8,0:0:0:0:
261,197,71109,1,0,0:0:0:0:
255,189,71585,1,8,0:0:0:0:
268,194,71824,1,8,0:0:0:0:
258,186,72062,1,8,0:0:0:0:
255,189,72538,1,4,0:0:0:0:
272,198,73252,1,8,0:0:0:0:
270,198,74681,1,8,0:0:0:0:
266,201,74919,1,0,0:0:0:0:
270,199,75395,1,0,0:0:0:0:
270,200,75871,1,8,0:0:0:0:
261,191,76347,1,0,0:0:0:0:
254,171,77062,1,8,0:0:0:0:
254,171,77776,1,0,0:0:0:0:
254,171,78490,1,8,0:0:0:0:
254,171,78966,1,8,0:0:0:0:
254,171,79681,1,12,0:0:0:0:
263,180,80157,1,0,0:0:0:0:
263,180,81109,1,0,0:0:0:0:
271,175,81585,1,0,0:0:0:0:
271,175,81824,1,0,0:0:0:0:
284,187,82062,1,8,0:0:0:0:
263,178,82538,1,0,0:0:0:0:
263,180,83014,1,0,0:0:0:0:
263,178,83490,1,8,0:0:0:0:
265,171,83728,1,0,0:0:0:0:
252,182,83966,1,0,0:0:0:0:
256,175,84443,1,0,0:0:0:0:
236,174,84919,1,0,0:0:0:0:
247,165,85157,1,0,0:0:0:0:
247,176,85395,1,0,0:0:0:0:
249,168,85633,1,0,0:0:0:0:
252,171,85871,1,0,0:0:0:0:
274,192,87776,1,0,0:0:0:0:
281,198,88252,1,0,0:0:0:0:
277,211,88490,1,0,0:0:0:0:
289,211,88728,1,8,0:0:0:0:
279,210,89204,1,8,0:0:0:0:
289,204,89681,1,0,0:0:0:0:
271,203,89919,1,0,0:0:0:0:
273,214,90157,1,8,0:0:0:0:
273,214,90395,1,8,0:0:0:0:
273,214,90633,1,0,0:0:0:0:
267,214,91585,1,0,0:0:0:0:
286,204,92062,1,0,0:0:0:0:
277,211,92300,1,0,0:0:0:0:
289,211,92538,1,8,0:0:0:0:
279,210,93014,1,8,0:0:0:0:
292,205,93490,1,0,0:0:0:0:
273,214,93966,1,0,0:0:0:0:
273,214,94204,1,8,0:0:0:0:
273,214,94443,1,0,0:0:0:0:
266,213,94919,1,8,0:0:0:0:
274,220,95395,1,0,0:0:0:0:
290,218,95871,1,0,0:0:0:0:
272,213,96109,1,0,0:0:0:0:
275,213,96347,1,8,0:0:0:0:
275,213,96824,1,8,0:0:0:0:
273,206,97300,1,0,0:0:0:0:
264,206,97538,1,0,0:0:0:0:
280,206,97776,1,8,0:0:0:0:
248,221,98014,1,8,0:0:0:0:
248,221,98252,1,0,0:0:0:0:
258,203,99204,1,0,0:0:0:0:
269,215,99681,1,0,0:0:0:0:
257,192,99919,1,0,0:0:0:0:
263,224,100157,1,8,0:0:0:0:
263,224,100633,1,8,0:0:0:0:
254,190,101109,1,0,0:0:0:0:
271,198,101585,1,8,0:0:0:0:
271,198,101824,1,8,0:0:0:0:
269,198,102062,1,0,0:0:0:0:
271,198,102538,1,8,0:0:0:0:
275,192,103014,1,0,0:0:0:0:
275,192,103966,1,0,0:0:0:0:
268,189,104443,1,8,0:0:0:0:
284,177,104919,1,0,0:0:0:0:
262,208,105157,1,0,0:0:0:0:
283,188,105395,1,8,0:0:0:0:
283,188,105633,1,8,0:0:0:0:
283,188,105871,1,0,0:0:0:0:
284,197,106824,1,0,0:0:0:0:
286,208,107300,1,0,0:0:0:0:
282,208,107538,1,0,0:0:0:0:
265,214,107776,1,8,0:0:0:0:
265,214,108252,1,8,0:0:0:0:
265,203,108728,1,0,0:0:0:0:
257,216,109204,1,0,0:0:0:0:
257,216,109443,1,8,0:0:0:0:
257,216,109681,1,0,0:0:0:0:
261,198,110157,1,8,0:0:0:0:
285,188,110633,1,0,0:0:0:0:
265,187,111109,1,0,0:0:0:0:
281,211,111347,1,0,0:0:0:0:
281,211,111585,1,8,0:0:0:0:
281,211,112062,1,8,0:0:0:0:
281,204,112538,1,0,0:0:0:0:
269,210,112776,1,0,0:0:0:0:
306,204,113014,1,8,0:0:0:0:
306,204,113252,1,8,0:0:0:0:
306,204,113490,1,0,0:0:0:0:
299,199,114443,1,0,0:0:0:0:
316,207,114681,1,8,0:0:0:0:
263,192,115157,1,8,0:0:0:0:
261,180,115395,1,0,0:0:0:0:
286,175,115633,1,8,0:0:0:0:
273,168,116109,1,8,0:0:0:0:
304,193,116347,1,0,0:0:0:0:
264,180,116824,1,0,0:0:0:0:
264,180,117300,1,0,0:0:0:0:
261,188,117776,1,8,0:0:0:0:
256,192,118252,12,0,119919,0:0:0:0:
261,216,120157,5,8,0:0:0:0:
245,201,121109,1,0,0:0:0:0:
267,211,121585,1,8,0:0:0:0:
267,211,122062,1,0,0:0:0:0:
267,211,122538,1,8,0:0:0:0:
267,211,122776,1,0,0:0:0:0:
267,211,123252,1,8,0:0:0:0:
267,211,123490,1,0,0:0:0:0:
267,211,123966,1,8,0:0:0:0:
267,211,124681,1,8,0:0:0:0:
267,211,124919,1,8,0:0:0:0:
267,211,125395,1,8,0:0:0:0:
267,211,125871,1,0,0:0:0:0:
267,211,126347,1,8,0:0:0:0:
267,211,126585,1,0,0:0:0:0:
267,211,127062,1,0,0:0:0:0:
267,211,127300,1,8,0:0:0:0:
267,211,127776,1,0,0:0:0:0:
264,182,128728,1,0,0:0:0:0:
265,189,129204,1,8,0:0:0:0:
241,184,129919,1,8,0:0:0:0:
254,173,130395,1,0,0:0:0:0:
249,176,130871,1,8,0:0:0:0:
242,167,131585,1,0,0:0:0:0:
242,167,132300,1,8,0:0:0:0:
242,167,132776,1,8,0:0:0:0:
232,157,133966,1,0,0:0:0:0:
232,157,134443,1,8,0:0:0:0:
232,157,134919,1,0,0:0:0:0:
256,192,135395,12,0,137300,0:0:0:0:
