osu file format v14

[General]
AudioFilename: audio.ogg
AudioLeadIn: 0
PreviewTime: 45479
Countdown: 0
SampleSet: Soft
StackLeniency: 0.7
Mode: 3
LetterboxInBreaks: 0
SpecialStyle: 0
WidescreenStoryboard: 1

[Editor]
Bookmarks: 45000,136875
DistanceSpacing: 1.05
BeatDivisor: 4
GridSize: 16
TimelineZoom: 2

[Metadata]
Title:Islands
TitleUnicode:Islands
Artist:Aiobahn
ArtistUnicode:Aiobahn
Creator:Tigerinity
Version:Normal
Source:
Tags:fa featured artist indoroid hytex notiijohn0 notiijohno instrumental electronic dance edm future house english tasty network release 김민혁 min-hyuk kim min-seung kim minhyuk minseung アイオバーン sv ln long notes
BeatmapID:3608135
BeatmapSetID:1762835

[Difficulty]
HPDrainRate:7
CircleSize:4
OverallDifficulty:7
ApproachRate:5
SliderMultiplier:1.4
SliderTickRate:1

[Events]
//Background and Video events
0,0,"Foliage.jpg",0,0
//Break Periods
//Storyboard Layer 0 (Background)
//Storyboard Layer 1 (Fail)
//Storyboard Layer 2 (Pass)
//Storyboard Layer 3 (Foreground)
//Storyboard Layer 4 (Overlay)
//Storyboard Sound Samples
Sample,45947,0,"cymbal.wav",70
Sample,45947,0,"vibraslap.wav",70
Sample,49697,0,"cymbal.wav",70
Sample,52510,0,"cymbal.wav",70
Sample,53447,0,"cymbal.wav",70
Sample,53447,0,"vibraslap.wav",70
Sample,57197,0,"cymbal.wav",70
Sample,60947,0,"cymbal.wav",70
Sample,60947,0,"vibraslap.wav",70
Sample,64697,0,"cymbal.wav",70
Sample,67510,0,"cymbal.wav",70
Sample,68447,0,"cymbal.wav",70
Sample,68447,0,"vibraslap.wav",70
Sample,72197,0,"cymbal.wav",70
Sample,77822,0,"cymbal.wav",70
Sample,81572,0,"cymbal.wav",70
Sample,85322,0,"cymbal.wav",70
Sample,89072,0,"cymbal.wav",70
Sample,114854,0,"cymbal.wav",70
Sample,137822,0,"cymbal.wav",70
Sample,137822,0,"vibraslap.wav",70
Sample,141572,0,"cymbal.wav",70
Sample,144385,0,"cymbal.wav",70
Sample,145322,0,"cymbal.wav",70
Sample,145322,0,"vibraslap.wav",70
Sample,149072,0,"cymbal.wav",70
Sample,152822,0,"cymbal.wav",70
Sample,152822,0,"vibraslap.wav",70
Sample,156572,0,"cymbal.wav",70
Sample,159385,0,"cymbal.wav",70
Sample,160322,0,"cymbal.wav",70
Sample,160322,0,"vibraslap.wav",70
Sample,164072,0,"cymbal.wav",70
Sample,167822,0,"cymbal.wav",70
Sample,167822,0,"vibraslap.wav",70
Sample,171572,0,"cymbal.wav",70
Sample,174385,0,"cymbal.wav",70
Sample,175322,0,"cymbal.wav",70
Sample,175322,0,"vibraslap.wav",70
Sample,179072,0,"cymbal.wav",70

[TimingPoints]
479,468.75,4,2,1,70,1,0
45479,-100.0,4,2,1,70,0,1
60479,-100.0,4,2,1,70,0,0
60947,-100.0,4,2,1,70,0,1
75479,-100.0,4,2,1,70,0,0
137354,-100.0,4,2,1,70,0,1
152354,-100.0,4,2,1,70,0,0
152822,-100.0,4,2,1,70,0,1
182354,-100.0,4,2,1,70,0,0

[HitObjects]
64,192,479,128,0,947:0:0:0:0:
192,192,479,1,0,0:0:0:0:
320,192,947,1,0,0:0:0:0:
448,192,1299,1,0,0:0:0:0:
192,192,1416,1,0,0:0:0:0:
64,192,1650,1,0,0:0:0:0:
320,192,2119,1,0,0:0:0:0:
448,192,2119,128,0,2822:0:0:0:0:
192,192,2822,1,0,0:0:0:0:
320,192,3174,1,0,0:0:0:0:
64,192,3291,1,0,0:0:0:0:
448,192,3525,1,0,0:0:0:0:
320,192,3994,1,0,0:0:0:0:
64,192,4229,1,0,0:0:0:0:
192,192,4229,128,0,4697:0:0:0:0:
448,192,4697,1,0,0:0:0:0:
320,192,5049,1,0,0:0:0:0:
192,192,5166,1,0,0:0:0:0:
64,192,5400,1,0,0:0:0:0:
320,192,5869,128,0,6572:0:0:0:0:
448,192,5869,1,0,0:0:0:0:
64,192,6572,1,0,0:0:0:0:
192,192,6807,128,0,7041:0:0:0:0:
448,192,7041,128,0,7275:0:0:0:0:
320,192,7275,128,0,7510:0:0:0:0:
64,192,7510,1,0,0:0:0:0:
448,192,7744,1,0,0:0:0:0:
320,192,7861,1,0,0:0:0:0:
64,192,7979,128,0,8447:0:0:0:0:
192,192,7979,1,0,0:0:0:0:
320,192,8447,1,0,0:0:0:0:
448,192,8799,1,0,0:0:0:0:
192,192,8916,1,0,0:0:0:0:
64,192,9150,1,0,0:0:0:0:
320,192,9619,1,0,0:0:0:0:
448,192,9619,128,0,10322:0:0:0:0:
192,192,10322,1,0,0:0:0:0:
448,192,10674,1,0,0:0:0:0:
64,192,10791,1,0,0:0:0:0:
192,192,11025,1,0,0:0:0:0:
320,192,11494,1,0,0:0:0:0:
64,192,11729,1,0,0:0:0:0:
192,192,11729,128,0,12197:0:0:0:0:
448,192,12197,1,0,0:0:0:0:
320,192,12549,1,0,0:0:0:0:
192,192,12666,1,0,0:0:0:0:
64,192,12900,1,0,0:0:0:0:
320,192,13369,128,0,14072:0:0:0:0:
448,192,13369,1,0,0:0:0:0:
64,192,14072,1,0,0:0:0:0:
192,192,14307,1,0,0:0:0:0:
320,192,14541,1,0,0:0:0:0:
448,192,14775,128,0,15010:0:0:0:0:
64,192,15010,1,0,0:0:0:0:
192,192,15479,128,0,15947:0:0:0:70:Kick 6.wav
448,192,15479,1,0,0:0:0:0:
64,192,15947,1,0,0:0:0:70:echo_snare1.wav
320,192,15947,1,0,0:0:0:0:
448,192,16650,1,0,0:0:0:70:Kick 6.wav
64,192,16885,1,0,0:0:0:70:echo_snare1.wav
192,192,16885,1,0,0:0:0:0:
320,192,17354,1,0,0:0:0:70:Kick 6.wav
64,192,17822,1,0,0:0:0:70:echo_snare1.wav
448,192,17822,1,0,0:0:0:0:
320,192,18057,128,0,18291:0:0:0:0:
192,192,18525,1,0,0:0:0:70:Kick 6.wav
320,192,18760,1,0,0:0:0:70:echo_snare1.wav
448,192,18760,1,0,0:0:0:0:
192,192,18877,1,0,0:0:0:70:Kick 6.wav
192,192,19229,128,0,19697:0:0:0:70:Kick 6.wav
64,192,19697,1,0,0:0:0:70:echo_snare1.wav
320,192,19697,1,0,0:0:0:0:
448,192,20400,1,0,0:0:0:70:Kick 6.wav
64,192,20635,1,0,0:0:0:70:echo_snare1.wav
192,192,20635,1,0,0:0:0:0:
320,192,21104,1,0,0:0:0:70:Kick 6.wav
192,192,21572,1,0,0:0:0:70:echo_snare1.wav
448,192,21572,1,0,0:0:0:0:
320,192,21807,1,0,0:0:0:0:
64,192,21924,1,0,0:0:0:70:Kick 6.wav
64,192,22275,1,0,0:0:0:70:Kick 6.wav
320,192,22510,1,0,0:0:0:70:echo_snare1.wav
448,192,22510,1,0,0:0:0:0:
192,192,22744,1,0,0:0:0:70:Kick 6.wav
320,192,22979,128,0,23447:0:0:0:70:Kick 6.wav
192,192,23447,1,0,0:0:0:70:echo_snare1.wav
448,192,23447,1,0,0:0:0:0:
64,192,24150,1,0,0:0:0:70:Kick 6.wav
320,192,24385,1,0,0:0:0:70:echo_snare1.wav
448,192,24385,1,0,0:0:0:0:
192,192,24854,1,0,0:0:0:70:Kick 6.wav
64,192,25322,1,0,0:0:0:70:echo_snare1.wav
448,192,25322,1,0,0:0:0:0:
192,192,25557,128,0,25791:0:0:0:0:
320,192,26025,1,0,0:0:0:70:Kick 6.wav
64,192,26260,1,0,0:0:0:70:echo_snare1.wav
192,192,26260,1,0,0:0:0:0:
320,192,26377,1,0,0:0:0:70:Kick 6.wav
320,192,26729,128,0,27197:0:0:0:70:Kick 6.wav
192,192,27197,1,0,0:0:0:70:echo_snare1.wav
448,192,27197,1,0,0:0:0:0:
64,192,27900,1,0,0:0:0:70:Kick 6.wav
320,192,28135,1,0,0:0:0:70:echo_snare1.wav
448,192,28135,1,0,0:0:0:0:
192,192,28604,1,0,0:0:0:70:Kick 6.wav
64,192,29072,1,0,0:0:0:70:echo_snare1.wav
320,192,29072,1,0,0:0:0:0:
192,192,29307,1,0,0:0:0:0:
448,192,29424,1,0,0:0:0:70:Kick 6.wav
448,192,29775,1,0,0:0:0:70:Kick 6.wav
64,192,30010,1,0,0:0:0:70:echo_snare1.wav
192,192,30010,1,0,0:0:0:0:
320,192,30244,1,0,0:0:0:70:Kick 6.wav
192,192,30479,1,0,0:0:0:70:Kick 6.wav
448,192,30479,1,0,0:0:0:70:cymbal.wav
64,192,30947,1,0,0:0:0:70:Kick 6.wav
320,192,30947,1,0,0:0:0:0:
192,192,31416,1,0,0:0:0:70:Kick 6.wav
64,192,31885,1,0,0:0:0:70:Kick 6.wav
320,192,31885,1,0,0:0:0:0:
192,192,32354,1,0,0:0:0:70:Kick 6.wav
64,192,32822,1,0,0:0:0:70:Kick 6.wav
320,192,32822,1,0,0:0:0:0:
192,192,33291,1,0,0:0:0:70:Kick 6.wav
64,192,33760,1,0,0:0:0:70:Kick 6.wav
448,192,33760,1,0,0:0:0:70:hitclap.wav
192,192,33994,1,0,0:0:0:70:hitclap.wav
320,192,34229,1,0,0:0:0:70:Kick 6.wav
192,192,34697,1,0,0:0:0:70:Kick 6.wav
448,192,34697,1,0,0:0:0:0:
320,192,35166,1,0,0:0:0:70:Kick 6.wav
192,192,35635,1,0,0:0:0:70:Kick 6.wav
448,192,35635,1,0,0:0:0:0:
320,192,36104,1,0,0:0:0:70:Kick 6.wav
192,192,36572,1,0,0:0:0:70:Kick 6.wav
448,192,36572,1,0,0:0:0:0:
320,192,37041,1,0,0:0:0:70:Kick 6.wav
64,192,37510,1,0,0:0:0:70:Kick 6.wav
448,192,37510,1,0,0:0:0:70:hitclap.wav
64,192,37979,1,0,0:0:0:70:Kick 6.wav
192,192,37979,1,0,0:0:0:70:cymbal.wav
320,192,38213,1,0,0:0:0:70:Kick 6.wav
64,192,38447,1,0,0:0:0:70:Kick 6.wav
192,192,38447,1,0,0:0:0:0:
448,192,38682,1,0,0:0:0:70:Kick 6.wav
320,192,38916,1,0,0:0:0:70:Kick 6.wav
192,192,39150,1,0,0:0:0:70:Kick 6.wav
320,192,39385,1,0,0:0:0:70:Kick 6.wav
448,192,39385,1,0,0:0:0:0:
64,192,39619,128,0,39854:0:0:0:70:Kick 6.wav
192,192,39854,1,0,0:0:0:70:Kick 6.wav
448,192,40088,1,0,0:0:0:70:Kick 6.wav
64,192,40322,1,0,0:0:0:70:Kick 6.wav
192,192,40322,1,0,0:0:0:0:
320,192,40557,1,0,0:0:0:70:Kick 6.wav
192,192,40791,1,0,0:0:0:70:Kick 6.wav
448,192,41025,1,0,0:0:0:70:Kick 6.wav
64,192,41260,1,0,0:0:0:70:Kick 6.wav
192,192,41260,1,0,0:0:0:70:hitclap.wav
320,192,41494,1,0,0:0:0:70:Kick 6.wav
448,192,41494,128,0,41729:0:0:0:70:hitclap.wav
64,192,41729,128,0,41963:0:0:0:70:Kick 6.wav
192,192,41729,1,0,0:0:0:70:cymbal.wav
320,192,41963,128,0,42197:0:0:0:70:Kick 6.wav
192,192,42197,128,0,42432:0:0:0:70:Kick 6.wav
448,192,42197,1,0,0:0:0:0:
320,192,42432,128,0,42666:0:0:0:70:Kick 6.wav
64,192,42666,128,0,42900:0:0:0:70:Kick 6.wav
192,192,42900,128,0,43135:0:0:0:70:Kick 6.wav
320,192,43135,1,0,0:0:0:70:Kick 6.wav
448,192,43135,128,0,43369:0:0:0:0:
192,192,43369,128,0,43604:0:0:0:70:Kick 6.wav
64,192,43604,1,0,0:0:0:70:Kick 6.wav
448,192,43604,1,0,0:0:0:70:i dont think you understand how funny this sounds.wav
448,192,44072,1,0,0:0:0:0:
448,192,44541,1,0,0:0:0:0:
64,192,45010,1,0,0:0:0:0:
320,192,45010,128,0,45244:0:0:0:0:
64,192,45479,128,0,45713:0:0:0:70:Kick 6.wav
192,192,45479,128,0,45713:0:0:0:0:
320,192,45947,128,0,46182:0:0:0:70:Kick 6.wav
448,192,45947,1,0,0:0:0:70:clap.wav
192,192,46416,1,0,0:0:0:70:Kick 6.wav
64,192,46885,128,0,47119:0:0:0:70:Kick 6.wav
320,192,46885,1,0,0:0:0:70:clap.wav
448,192,47354,1,0,0:0:0:70:Kick 6.wav
192,192,47510,1,0,0:0:0:0:
192,192,47822,1,0,0:0:0:70:Kick 6.wav
448,192,47822,128,0,48057:0:0:0:70:clap.wav
64,192,48291,1,0,0:0:0:70:Kick 6.wav
320,192,48447,1,0,0:0:0:0:
64,192,48760,128,0,49229:0:0:0:70:Kick 6.wav
320,192,48760,1,0,0:0:0:70:clap.wav
448,192,49229,128,0,49697:0:0:0:70:Kick 6.wav
64,192,49697,1,0,0:0:0:70:Kick 6.wav
192,192,49697,128,0,49932:0:0:0:70:clap.wav
320,192,50166,1,0,0:0:0:70:Kick 6.wav
192,192,50635,1,0,0:0:0:70:Kick 6.wav
448,192,50635,128,0,50869:0:0:0:70:clap.wav
64,192,51104,1,0,0:0:0:70:Kick 6.wav
320,192,51260,1,0,0:0:0:0:
64,192,51572,128,0,51807:0:0:0:70:Kick 6.wav
320,192,51572,1,0,0:0:0:70:clap.wav
448,192,52041,1,0,0:0:0:70:Kick 6.wav
192,192,52197,1,0,0:0:0:0:
192,192,52510,1,0,0:0:0:70:Kick 6.wav
448,192,52510,128,0,52744:0:0:0:70:clap.wav
64,192,52979,128,0,53213:0:0:0:70:Kick 6.wav
320,192,52979,128,0,53213:0:0:0:70:T_T.wav
192,192,53213,1,0,0:0:0:0:
320,192,53447,128,0,53682:0:0:0:70:Kick 6.wav
448,192,53447,1,0,0:0:0:70:clap.wav
192,192,53916,1,0,0:0:0:70:Kick 6.wav
64,192,54385,128,0,54619:0:0:0:70:Kick 6.wav
320,192,54385,1,0,0:0:0:70:clap.wav
448,192,54854,1,0,0:0:0:70:Kick 6.wav
192,192,55010,1,0,0:0:0:0:
192,192,55322,1,0,0:0:0:70:Kick 6.wav
448,192,55322,128,0,55557:0:0:0:70:clap.wav
64,192,55791,1,0,0:0:0:70:Kick 6.wav
320,192,55947,1,0,0:0:0:0:
64,192,56260,128,0,56729:0:0:0:70:Kick 6.wav
320,192,56260,1,0,0:0:0:70:clap.wav
448,192,56729,128,0,57197:0:0:0:70:Kick 6.wav
64,192,57197,1,0,0:0:0:70:Kick 6.wav
192,192,57197,128,0,57432:0:0:0:70:clap.wav
320,192,57666,1,0,0:0:0:70:Kick 6.wav
192,192,58135,1,0,0:0:0:70:Kick 6.wav
448,192,58135,128,0,58369:0:0:0:70:clap.wav
64,192,58604,1,0,0:0:0:70:Kick 6.wav
320,192,58760,1,0,0:0:0:0:
64,192,59072,128,0,59307:0:0:0:70:clap.wav
192,192,59072,1,0,0:0:0:0:
448,192,59541,1,0,0:0:0:0:
320,192,59775,1,0,0:0:0:0:
192,192,60010,1,0,0:0:0:70:clap.wav
448,192,60010,128,0,60244:0:0:0:70:cymbal.wav
64,192,60244,1,0,0:0:0:0:
192,192,60479,128,0,60713:0:0:0:70:Kick 6.wav
320,192,60713,128,0,60947:0:0:0:70:Kick 6.wav
64,192,60947,128,0,61182:0:0:0:70:Kick 6.wav
448,192,60947,1,0,0:0:0:70:clap.wav
320,192,61416,1,0,0:0:0:70:Kick 6.wav
192,192,61885,1,0,0:0:0:70:Kick 6.wav
448,192,61885,128,0,62145:0:0:0:70:clap.wav
64,192,62145,1,0,0:0:0:0:
192,192,62275,1,0,0:0:0:0:
320,192,62510,1,0,0:0:0:0:
64,192,62822,128,0,63083:0:0:0:70:Kick 6.wav
320,192,62822,1,0,0:0:0:70:clap.wav
448,192,63083,1,0,0:0:0:0:
320,192,63213,1,0,0:0:0:0:
192,192,63447,1,0,0:0:0:0:
192,192,63760,1,0,0:0:0:70:Kick 6.wav
448,192,63760,128,0,64229:0:0:0:70:clap.wav
64,192,64229,128,0,64697:0:0:0:70:Kick 6.wav
320,192,64697,128,0,64932:0:0:0:70:Kick 6.wav
448,192,64697,1,0,0:0:0:70:clap.wav
192,192,65166,1,0,0:0:0:70:Kick 6.wav
64,192,65635,128,0,65895:0:0:0:70:Kick 6.wav
320,192,65635,1,0,0:0:0:70:clap.wav
448,192,65895,1,0,0:0:0:0:
320,192,66025,1,0,0:0:0:0:
192,192,66260,1,0,0:0:0:0:
192,192,66572,1,0,0:0:0:70:Kick 6.wav
448,192,66572,128,0,66833:0:0:0:70:clap.wav
64,192,66833,1,0,0:0:0:0:
192,192,66963,1,0,0:0:0:0:
320,192,67197,1,0,0:0:0:0:
64,192,67510,128,0,67744:0:0:0:70:Kick 6.wav
320,192,67510,1,0,0:0:0:70:clap.wav
192,192,67979,128,0,68213:0:0:0:70:Kick 6.wav
448,192,67979,128,0,68213:0:0:0:0:
320,192,68213,1,0,0:0:0:0:
64,192,68447,1,0,0:0:0:70:Kick 6.wav
192,192,68447,128,0,68682:0:0:0:70:clap.wav
320,192,68916,1,0,0:0:0:70:Kick 6.wav
192,192,69385,1,0,0:0:0:70:Kick 6.wav
448,192,69385,128,0,69645:0:0:0:70:clap.wav
64,192,69645,1,0,0:0:0:0:
192,192,69775,1,0,0:0:0:0:
320,192,70010,1,0,0:0:0:0:
64,192,70322,128,0,70583:0:0:0:70:Kick 6.wav
320,192,70322,1,0,0:0:0:70:clap.wav
448,192,70583,1,0,0:0:0:0:
320,192,70713,1,0,0:0:0:0:
192,192,70947,1,0,0:0:0:0:
192,192,71260,1,0,0:0:0:70:Kick 6.wav
448,192,71260,128,0,71729:0:0:0:70:clap.wav
64,192,71729,128,0,72197:0:0:0:70:Kick 6.wav
320,192,72197,128,0,72432:0:0:0:70:Kick 6.wav
448,192,72197,1,0,0:0:0:70:clap.wav
192,192,72666,1,0,0:0:0:70:Kick 6.wav
64,192,73135,128,0,73395:0:0:0:70:Kick 6.wav
320,192,73135,1,0,0:0:0:70:clap.wav
448,192,73395,1,0,0:0:0:0:
320,192,73525,1,0,0:0:0:0:
192,192,73760,1,0,0:0:0:0:
320,192,74072,1,0,0:0:0:70:clap.wav
448,192,74072,128,0,74333:0:0:0:0:
64,192,74333,1,0,0:0:0:0:
448,192,74541,1,0,0:0:0:0:
320,192,74775,1,0,0:0:0:0:
192,192,75010,1,0,0:0:0:70:clap.wav
448,192,75010,128,0,75244:0:0:0:70:cymbal.wav
64,192,75244,1,0,0:0:0:0:
320,192,75479,1,0,0:0:0:70:i dont think you understand how funny this sounds.wav
448,192,75479,1,0,0:0:0:0:
320,192,77354,1,0,0:0:0:70:Kick 6.wav
192,192,77822,1,0,0:0:0:70:Kick 6.wav
448,192,77822,128,0,78057:0:0:0:70:hitclap.wav
320,192,78291,1,0,0:0:0:70:Kick 6.wav
192,192,78525,1,0,0:0:0:0:
64,192,78760,1,0,0:0:0:70:Kick 6.wav
448,192,78760,1,0,0:0:0:70:hitclap.wav
320,192,78994,1,0,0:0:0:0:
448,192,79111,1,0,0:0:0:0:
192,192,79229,128,0,79463:0:0:0:70:Kick 6.wav
64,192,79697,1,0,0:0:0:70:Kick 6.wav
320,192,79697,1,0,0:0:0:70:hitclap.wav
192,192,80166,1,0,0:0:0:70:Kick 6.wav
448,192,80400,1,0,0:0:0:0:
64,192,80635,1,0,0:0:0:70:Kick 6.wav
192,192,80635,1,0,0:0:0:70:hitclap.wav
320,192,80869,128,0,81104:0:0:0:0:
192,192,81104,1,0,0:0:0:70:Kick 6.wav
64,192,81572,1,0,0:0:0:70:Kick 6.wav
448,192,81572,1,0,0:0:0:70:hitclap.wav
320,192,82041,1,0,0:0:0:70:Kick 6.wav
192,192,82275,1,0,0:0:0:0:
64,192,82510,1,0,0:0:0:70:Kick 6.wav
448,192,82510,1,0,0:0:0:70:hitclap.wav
320,192,82744,128,0,82979:0:0:0:0:
64,192,82979,1,0,0:0:0:70:Kick 6.wav
192,192,83213,128,0,83447:0:0:0:0:
320,192,83447,1,0,0:0:0:70:Kick 6.wav
448,192,83447,1,0,0:0:0:70:hitclap.wav
64,192,83682,128,0,83916:0:0:0:0:
320,192,83916,1,0,0:0:0:70:Kick 6.wav
448,192,84150,128,0,84385:0:0:0:0:
64,192,84385,1,0,0:0:0:70:Kick 6.wav
192,192,84385,1,0,0:0:0:70:hitclap.wav
320,192,84619,128,0,84854:0:0:0:0:
192,192,84854,1,0,0:0:0:70:Kick 6.wav
64,192,85322,128,0,85557:0:0:0:70:Kick 6.wav
320,192,85322,1,0,0:0:0:70:hitclap.wav
192,192,85791,1,0,0:0:0:70:Kick 6.wav
320,192,86025,1,0,0:0:0:0:
64,192,86260,1,0,0:0:0:70:Kick 6.wav
448,192,86260,1,0,0:0:0:70:hitclap.wav
192,192,86494,1,0,0:0:0:0:
64,192,86611,1,0,0:0:0:0:
320,192,86729,128,0,86963:0:0:0:70:Kick 6.wav
192,192,87197,1,0,0:0:0:70:Kick 6.wav
448,192,87197,1,0,0:0:0:70:hitclap.wav
320,192,87666,1,0,0:0:0:70:Kick 6.wav
64,192,87900,1,0,0:0:0:0:
320,192,88135,1,0,0:0:0:70:Kick 6.wav
448,192,88135,1,0,0:0:0:70:hitclap.wav
192,192,88369,128,0,88604:0:0:0:0:
320,192,88604,1,0,0:0:0:70:Kick 6.wav
64,192,89072,1,0,0:0:0:70:Kick 6.wav
448,192,89072,1,0,0:0:0:70:hitclap.wav
192,192,89541,1,0,0:0:0:70:Kick 6.wav
320,192,89775,1,0,0:0:0:0:
64,192,90010,1,0,0:0:0:70:Kick 6.wav
448,192,90010,1,0,0:0:0:70:hitclap.wav
192,192,90244,128,0,90479:0:0:0:0:
448,192,90479,1,0,0:0:0:70:Kick 6.wav
320,192,90713,128,0,90947:0:0:0:0:
64,192,90947,1,0,0:0:0:70:Kick 6.wav
192,192,90947,1,0,0:0:0:70:hitclap.wav
448,192,91182,128,0,91416:0:0:0:0:
192,192,91416,1,0,0:0:0:70:Kick 6.wav
64,192,91650,128,0,91885:0:0:0:0:
320,192,91885,1,0,0:0:0:70:Kick 6.wav
448,192,91885,1,0,0:0:0:70:hitclap.wav
192,192,92119,128,0,92354:0:0:0:0:
64,192,92354,128,0,92822:0:0:0:70:Kick 6.wav
448,192,92354,1,0,0:0:0:0:
320,192,92822,1,0,0:0:0:70:echo_snare1.wav
448,192,92822,1,0,0:0:0:0:
192,192,93525,1,0,0:0:0:70:Kick 6.wav
64,192,93760,1,0,0:0:0:70:echo_snare1.wav
448,192,93760,1,0,0:0:0:0:
320,192,94229,1,0,0:0:0:70:Kick 6.wav
192,192,94697,1,0,0:0:0:70:echo_snare1.wav
448,192,94697,1,0,0:0:0:0:
320,192,94932,128,0,95166:0:0:0:0:
64,192,95400,1,0,0:0:0:70:Kick 6.wav
320,192,95635,1,0,0:0:0:70:echo_snare1.wav
448,192,95635,1,0,0:0:0:0:
64,192,95752,1,0,0:0:0:70:Kick 6.wav
64,192,96104,128,0,96572:0:0:0:70:Kick 6.wav
320,192,96572,1,0,0:0:0:70:echo_snare1.wav
448,192,96572,1,0,0:0:0:0:
192,192,97275,1,0,0:0:0:70:Kick 6.wav
64,192,97510,1,0,0:0:0:70:echo_snare1.wav
448,192,97510,1,0,0:0:0:0:
320,192,97979,1,0,0:0:0:70:Kick 6.wav
192,192,98447,1,0,0:0:0:70:echo_snare1.wav
448,192,98447,1,0,0:0:0:0:
64,192,98682,1,0,0:0:0:0:
320,192,98799,1,0,0:0:0:70:Kick 6.wav
320,192,99150,1,0,0:0:0:70:Kick 6.wav
64,192,99385,1,0,0:0:0:70:echo_snare1.wav
448,192,99385,1,0,0:0:0:0:
192,192,99619,1,0,0:0:0:70:Kick 6.wav
448,192,99854,128,0,100322:0:0:0:70:Kick 6.wav
64,192,100322,1,0,0:0:0:70:echo_snare1.wav
192,192,100322,1,0,0:0:0:0:
320,192,101025,1,0,0:0:0:70:Kick 6.wav
64,192,101260,1,0,0:0:0:70:echo_snare1.wav
448,192,101260,1,0,0:0:0:0:
192,192,101729,1,0,0:0:0:70:Kick 6.wav
64,192,102197,1,0,0:0:0:70:echo_snare1.wav
320,192,102197,1,0,0:0:0:0:
192,192,102432,128,0,102666:0:0:0:0:
448,192,102900,1,0,0:0:0:70:Kick 6.wav
64,192,103135,1,0,0:0:0:70:echo_snare1.wav
192,192,103135,1,0,0:0:0:0:
448,192,103252,1,0,0:0:0:70:Kick 6.wav
448,192,103604,128,0,104072:0:0:0:70:Kick 6.wav
64,192,104072,1,0,0:0:0:70:echo_snare1.wav
192,192,104072,1,0,0:0:0:0:
320,192,104775,1,0,0:0:0:70:Kick 6.wav
64,192,105010,1,0,0:0:0:70:echo_snare1.wav
448,192,105010,1,0,0:0:0:0:
192,192,105479,1,0,0:0:0:70:Kick 6.wav
64,192,105947,1,0,0:0:0:70:echo_snare1.wav
320,192,105947,1,0,0:0:0:0:
448,192,106182,1,0,0:0:0:0:
192,192,106299,1,0,0:0:0:70:Kick 6.wav
192,192,106650,1,0,0:0:0:70:Kick 6.wav
64,192,106885,1,0,0:0:0:70:echo_snare1.wav
448,192,106885,1,0,0:0:0:0:
320,192,107119,1,0,0:0:0:70:Kick 6.wav
192,192,107354,1,0,0:0:0:70:cymbal.wav
448,192,107822,1,0,0:0:0:0:
192,192,108057,1,0,0:0:0:0:
64,192,108174,128,0,108760:0:0:0:0:
320,192,108760,1,0,0:0:0:0:
320,192,108994,1,0,0:0:0:0:
64,192,109229,128,0,109463:0:0:0:0:
192,192,109463,128,0,109697:0:0:0:0:
320,192,109697,128,0,109932:0:0:0:0:
64,192,109932,128,0,110166:0:0:0:0:
448,192,110166,128,0,110400:0:0:0:0:
64,192,110400,128,0,110635:0:0:0:0:
320,192,110635,128,0,110869:0:0:0:0:
448,192,110869,1,0,0:0:0:0:
64,192,111104,128,0,111338:0:0:0:0:
192,192,111338,128,0,111572:0:0:0:0:
320,192,111572,128,0,111807:0:0:0:0:
192,192,111807,128,0,112041:0:0:0:0:
320,192,112041,128,0,112275:0:0:0:0:
448,192,112275,128,0,112510:0:0:0:0:
64,192,112510,1,0,0:0:0:0:
320,192,112744,128,0,112979:0:0:0:0:
448,192,112979,128,0,113213:0:0:0:0:
192,192,113213,128,0,113447:0:0:0:0:
64,192,113447,128,0,113682:0:0:0:0:
192,192,113682,128,0,113916:0:0:0:0:
320,192,113916,128,0,114150:0:0:0:0:
448,192,114150,128,0,114385:0:0:0:0:
64,192,114385,1,0,0:0:0:0:
192,192,114619,128,0,114854:0:0:0:0:
320,192,114854,1,0,0:0:0:70:LR_Drum Kick Low.wav
192,192,115322,1,0,0:0:0:70:LR_Drum Hit P2.wav
448,192,115322,1,0,0:0:0:0:
320,192,115557,1,0,0:0:0:0:
64,192,115674,128,0,116260:0:0:0:0:
320,192,116260,1,0,0:0:0:70:LR_Drum Hit P2.wav
448,192,116260,1,0,0:0:0:0:
320,192,116494,1,0,0:0:0:0:
64,192,116729,128,0,116963:0:0:0:70:LR_Drum Kick Low.wav
192,192,116963,128,0,117197:0:0:0:0:
320,192,117197,128,0,117432:0:0:0:70:LR_Drum Hit P2.wav
448,192,117197,1,0,0:0:0:0:
64,192,117432,128,0,117666:0:0:0:0:
448,192,117666,128,0,117900:0:0:0:0:
64,192,117900,128,0,118135:0:0:0:0:
320,192,118135,128,0,118369:0:0:0:70:LR_Drum Hit P2.wav
448,192,118135,1,0,0:0:0:0:
192,192,118369,1,0,0:0:0:0:
64,192,118604,128,0,118838:0:0:0:70:LR_Drum Kick Low.wav
192,192,118838,128,0,119072:0:0:0:0:
320,192,119072,128,0,119307:0:0:0:70:LR_Drum Hit P2.wav
448,192,119072,1,0,0:0:0:0:
192,192,119307,128,0,119541:0:0:0:0:
320,192,119541,128,0,119775:0:0:0:0:
448,192,119775,128,0,120010:0:0:0:0:
64,192,120010,1,0,0:0:0:70:LR_Drum Hit P2.wav
192,192,120010,1,0,0:0:0:0:
320,192,120244,128,0,120479:0:0:0:0:
448,192,120479,128,0,120713:0:0:0:70:LR_Drum Kick Low.wav
192,192,120713,128,0,120947:0:0:0:0:
64,192,120947,128,0,121182:0:0:0:70:LR_Drum Hit P2.wav
448,192,120947,1,0,0:0:0:0:
192,192,121182,128,0,121416:0:0:0:0:
320,192,121416,128,0,121650:0:0:0:0:
448,192,121650,128,0,121885:0:0:0:0:
64,192,121885,1,0,0:0:0:70:clap.wav
192,192,121885,1,0,0:0:0:0:
64,192,122354,1,0,0:0:0:70:Kick 6.wav
320,192,122354,1,0,0:0:0:70:cymbal.wav
192,192,122822,1,0,0:0:0:70:Kick 6.wav
448,192,122822,1,0,0:0:0:0:
320,192,123291,1,0,0:0:0:70:Kick 6.wav
192,192,123760,1,0,0:0:0:70:Kick 6.wav
448,192,123760,1,0,0:0:0:0:
320,192,124229,1,0,0:0:0:70:Kick 6.wav
192,192,124697,1,0,0:0:0:70:Kick 6.wav
448,192,124697,1,0,0:0:0:0:
320,192,125166,1,0,0:0:0:70:Kick 6.wav
64,192,125635,1,0,0:0:0:70:Kick 6.wav
448,192,125635,1,0,0:0:0:70:hitclap.wav
320,192,125869,1,0,0:0:0:70:hitclap.wav
192,192,126104,1,0,0:0:0:70:Kick 6.wav
64,192,126572,1,0,0:0:0:70:Kick 6.wav
320,192,126572,1,0,0:0:0:0:
192,192,127041,1,0,0:0:0:70:Kick 6.wav
64,192,127510,1,0,0:0:0:70:Kick 6.wav
320,192,127510,1,0,0:0:0:0:
192,192,127979,1,0,0:0:0:70:Kick 6.wav
64,192,128447,1,0,0:0:0:70:Kick 6.wav
320,192,128447,1,0,0:0:0:0:
192,192,128916,1,0,0:0:0:70:Kick 6.wav
64,192,129385,1,0,0:0:0:70:Kick 6.wav
448,192,129385,1,0,0:0:0:70:hitclap.wav
320,192,129854,1,0,0:0:0:70:Kick 6.wav
448,192,129854,1,0,0:0:0:70:cymbal.wav
192,192,130088,1,0,0:0:0:70:Kick 6.wav
320,192,130322,1,0,0:0:0:70:Kick 6.wav
448,192,130322,1,0,0:0:0:0:
64,192,130557,1,0,0:0:0:70:Kick 6.wav
192,192,130791,1,0,0:0:0:70:Kick 6.wav
320,192,131025,1,0,0:0:0:70:Kick 6.wav
64,192,131260,1,0,0:0:0:70:Kick 6.wav
192,192,131260,1,0,0:0:0:0:
448,192,131494,128,0,131729:0:0:0:70:Kick 6.wav
320,192,131729,1,0,0:0:0:70:Kick 6.wav
64,192,131963,1,0,0:0:0:70:Kick 6.wav
320,192,132197,1,0,0:0:0:70:Kick 6.wav
448,192,132197,1,0,0:0:0:0:
192,192,132432,1,0,0:0:0:70:Kick 6.wav
320,192,132666,1,0,0:0:0:70:Kick 6.wav
64,192,132900,1,0,0:0:0:70:Kick 6.wav
320,192,133135,1,0,0:0:0:70:Kick 6.wav
448,192,133135,1,0,0:0:0:70:hitclap.wav
64,192,133369,128,0,133604:0:0:0:70:Kick 6.wav
192,192,133369,1,0,0:0:0:70:hitclap.wav
320,192,133604,1,0,0:0:0:70:Kick 6.wav
448,192,133604,128,0,133838:0:0:0:70:cymbal.wav
192,192,133838,128,0,134072:0:0:0:70:Kick 6.wav
64,192,134072,1,0,0:0:0:70:Kick 6.wav
320,192,134072,128,0,134307:0:0:0:0:
192,192,134307,128,0,134541:0:0:0:70:Kick 6.wav
448,192,134541,128,0,134775:0:0:0:70:Kick 6.wav
320,192,134775,128,0,135010:0:0:0:70:Kick 6.wav
64,192,135010,128,0,135244:0:0:0:70:Kick 6.wav
192,192,135010,1,0,0:0:0:0:
320,192,135244,128,0,135479:0:0:0:70:Kick 6.wav
64,192,135479,1,0,0:0:0:70:Kick 6.wav
448,192,135479,1,0,0:0:0:70:i dont think you understand how funny this sounds.wav
64,192,135947,1,0,0:0:0:0:
64,192,136416,1,0,0:0:0:0:
192,192,136885,128,0,137119:0:0:0:0:
448,192,136885,1,0,0:0:0:0:
320,192,137354,128,0,137588:0:0:0:70:Kick 6.wav
448,192,137354,128,0,137588:0:0:0:0:
64,192,137822,1,0,0:0:0:70:Kick 6.wav
192,192,137822,128,0,138057:0:0:0:70:clap.wav
320,192,138291,1,0,0:0:0:70:Kick 6.wav
192,192,138760,1,0,0:0:0:70:Kick 6.wav
448,192,138760,128,0,138994:0:0:0:70:clap.wav
64,192,139229,1,0,0:0:0:70:Kick 6.wav
320,192,139385,1,0,0:0:0:0:
64,192,139697,128,0,139932:0:0:0:70:Kick 6.wav
320,192,139697,1,0,0:0:0:70:clap.wav
448,192,140166,1,0,0:0:0:70:Kick 6.wav
192,192,140322,1,0,0:0:0:0:
192,192,140635,1,0,0:0:0:70:Kick 6.wav
448,192,140635,128,0,141104:0:0:0:70:clap.wav
64,192,141104,128,0,141572:0:0:0:70:Kick 6.wav
320,192,141572,128,0,141807:0:0:0:70:Kick 6.wav
448,192,141572,1,0,0:0:0:70:clap.wav
192,192,142041,1,0,0:0:0:70:Kick 6.wav
64,192,142510,128,0,142744:0:0:0:70:Kick 6.wav
320,192,142510,1,0,0:0:0:70:clap.wav
448,192,142979,1,0,0:0:0:70:Kick 6.wav
192,192,143135,1,0,0:0:0:0:
192,192,143447,1,0,0:0:0:70:Kick 6.wav
448,192,143447,128,0,143682:0:0:0:70:clap.wav
64,192,143916,1,0,0:0:0:70:Kick 6.wav
320,192,144072,1,0,0:0:0:0:
64,192,144385,128,0,144619:0:0:0:70:Kick 6.wav
320,192,144385,1,0,0:0:0:70:clap.wav
192,192,144854,128,0,145088:0:0:0:70:Kick 6.wav
448,192,144854,128,0,145088:0:0:0:70:T_T.wav
320,192,145088,1,0,0:0:0:0:
64,192,145322,1,0,0:0:0:70:Kick 6.wav
192,192,145322,128,0,145557:0:0:0:70:clap.wav
320,192,145791,1,0,0:0:0:70:Kick 6.wav
192,192,146260,1,0,0:0:0:70:Kick 6.wav
448,192,146260,128,0,146494:0:0:0:70:clap.wav
64,192,146729,1,0,0:0:0:70:Kick 6.wav
320,192,146885,1,0,0:0:0:0:
64,192,147197,128,0,147432:0:0:0:70:Kick 6.wav
320,192,147197,1,0,0:0:0:70:clap.wav
448,192,147666,1,0,0:0:0:70:Kick 6.wav
192,192,147822,1,0,0:0:0:0:
192,192,148135,1,0,0:0:0:70:Kick 6.wav
448,192,148135,128,0,148604:0:0:0:70:clap.wav
64,192,148604,128,0,149072:0:0:0:70:Kick 6.wav
320,192,149072,128,0,149307:0:0:0:70:Kick 6.wav
448,192,149072,1,0,0:0:0:70:clap.wav
192,192,149541,1,0,0:0:0:70:Kick 6.wav
64,192,150010,128,0,150244:0:0:0:70:Kick 6.wav
320,192,150010,1,0,0:0:0:70:clap.wav
448,192,150479,1,0,0:0:0:70:Kick 6.wav
192,192,150635,1,0,0:0:0:0:
320,192,150947,1,0,0:0:0:70:clap.wav
448,192,150947,128,0,151182:0:0:0:0:
64,192,151416,1,0,0:0:0:0:
192,192,151650,1,0,0:0:0:0:
64,192,151885,128,0,152119:0:0:0:70:clap.wav
320,192,151885,1,0,0:0:0:70:cymbal.wav
448,192,152119,1,0,0:0:0:0:
320,192,152354,128,0,152588:0:0:0:70:Kick 6.wav
192,192,152588,128,0,152822:0:0:0:70:Kick 6.wav
64,192,152822,1,0,0:0:0:70:Kick 6.wav
448,192,152822,128,0,153057:0:0:0:70:clap.wav
192,192,153291,1,0,0:0:0:70:Kick 6.wav
64,192,153760,128,0,154020:0:0:0:70:Kick 6.wav
320,192,153760,1,0,0:0:0:70:clap.wav
448,192,154020,1,0,0:0:0:0:
320,192,154150,1,0,0:0:0:0:
192,192,154385,1,0,0:0:0:0:
192,192,154697,1,0,0:0:0:70:Kick 6.wav
448,192,154697,128,0,154958:0:0:0:70:clap.wav
64,192,154958,1,0,0:0:0:0:
192,192,155088,1,0,0:0:0:0:
320,192,155322,1,0,0:0:0:0:
64,192,155635,128,0,156104:0:0:0:70:Kick 6.wav
320,192,155635,1,0,0:0:0:70:clap.wav
448,192,156104,128,0,156572:0:0:0:70:Kick 6.wav
64,192,156572,1,0,0:0:0:70:Kick 6.wav
192,192,156572,128,0,156807:0:0:0:70:clap.wav
320,192,157041,1,0,0:0:0:70:Kick 6.wav
192,192,157510,1,0,0:0:0:70:Kick 6.wav
448,192,157510,128,0,157770:0:0:0:70:clap.wav
64,192,157770,1,0,0:0:0:0:
192,192,157900,1,0,0:0:0:0:
320,192,158135,1,0,0:0:0:0:
64,192,158447,128,0,158708:0:0:0:70:Kick 6.wav
320,192,158447,1,0,0:0:0:70:clap.wav
448,192,158708,1,0,0:0:0:0:
320,192,158838,1,0,0:0:0:0:
192,192,159072,1,0,0:0:0:0:
192,192,159385,1,0,0:0:0:70:Kick 6.wav
448,192,159385,128,0,159619:0:0:0:70:clap.wav
64,192,159854,128,0,160088:0:0:0:70:Kick 6.wav
320,192,159854,128,0,160088:0:0:0:0:
192,192,160088,1,0,0:0:0:0:
320,192,160322,128,0,160557:0:0:0:70:Kick 6.wav
448,192,160322,1,0,0:0:0:70:clap.wav
192,192,160791,1,0,0:0:0:70:Kick 6.wav
64,192,161260,128,0,161520:0:0:0:70:Kick 6.wav
320,192,161260,1,0,0:0:0:70:clap.wav
448,192,161520,1,0,0:0:0:0:
320,192,161650,1,0,0:0:0:0:
192,192,161885,1,0,0:0:0:0:
192,192,162197,1,0,0:0:0:70:Kick 6.wav
448,192,162197,128,0,162458:0:0:0:70:clap.wav
64,192,162458,1,0,0:0:0:0:
192,192,162588,1,0,0:0:0:0:
320,192,162822,1,0,0:0:0:0:
64,192,163135,128,0,163604:0:0:0:70:Kick 6.wav
320,192,163135,1,0,0:0:0:70:clap.wav
448,192,163604,128,0,164072:0:0:0:70:Kick 6.wav
64,192,164072,1,0,0:0:0:70:Kick 6.wav
192,192,164072,128,0,164307:0:0:0:70:clap.wav
320,192,164541,1,0,0:0:0:70:Kick 6.wav
192,192,165010,1,0,0:0:0:70:Kick 6.wav
448,192,165010,128,0,165270:0:0:0:70:clap.wav
64,192,165270,1,0,0:0:0:0:
192,192,165400,1,0,0:0:0:0:
320,192,165635,1,0,0:0:0:0:
64,192,165947,128,0,166208:0:0:0:70:clap.wav
192,192,165947,1,0,0:0:0:0:
448,192,166208,1,0,0:0:0:0:
64,192,166416,1,0,0:0:0:0:
192,192,166650,1,0,0:0:0:0:
64,192,166885,128,0,167119:0:0:0:70:clap.wav
320,192,166885,1,0,0:0:0:70:cymbal.wav
448,192,167119,1,0,0:0:0:0:
64,192,167354,1,0,0:0:0:70:Kick 6.wav
192,192,167354,128,0,167588:0:0:0:0:
320,192,167588,128,0,167822:0:0:0:70:Kick 6.wav
64,192,167822,1,0,0:0:0:70:Kick 6.wav
448,192,167822,1,0,0:0:0:70:clap.wav
320,192,168291,1,0,0:0:0:70:Kick 6.wav
192,192,168760,1,0,0:0:0:70:Kick 6.wav
448,192,168760,1,0,0:0:0:70:clap.wav
64,192,169150,1,0,0:0:0:0:
320,192,169385,1,0,0:0:0:0:
64,192,169697,1,0,0:0:0:70:Kick 6.wav
320,192,169697,1,0,0:0:0:70:clap.wav
448,192,170088,1,0,0:0:0:0:
192,192,170322,1,0,0:0:0:0:
192,192,170635,1,0,0:0:0:70:Kick 6.wav
448,192,170635,128,0,171104:0:0:0:70:clap.wav
64,192,171104,128,0,171572:0:0:0:70:Kick 6.wav
320,192,171572,1,0,0:0:0:70:Kick 6.wav
448,192,171572,1,0,0:0:0:70:clap.wav
192,192,172041,1,0,0:0:0:70:Kick 6.wav
64,192,172510,1,0,0:0:0:70:Kick 6.wav
320,192,172510,1,0,0:0:0:70:clap.wav
448,192,172900,1,0,0:0:0:0:
192,192,173135,1,0,0:0:0:0:
192,192,173447,1,0,0:0:0:70:Kick 6.wav
448,192,173447,1,0,0:0:0:70:clap.wav
64,192,173838,1,0,0:0:0:0:
320,192,174072,1,0,0:0:0:0:
64,192,174385,1,0,0:0:0:70:Kick 6.wav
320,192,174385,1,0,0:0:0:70:clap.wav
192,192,174854,128,0,175088:0:0:0:70:Kick 6.wav
448,192,174854,128,0,175088:0:0:0:0:
320,192,175088,1,0,0:0:0:0:
64,192,175322,1,0,0:0:0:70:Kick 6.wav
192,192,175322,1,0,0:0:0:70:clap.wav
320,192,175791,1,0,0:0:0:70:Kick 6.wav
192,192,176260,1,0,0:0:0:70:Kick 6.wav
448,192,176260,1,0,0:0:0:70:clap.wav
64,192,176650,1,0,0:0:0:0:
320,192,176885,1,0,0:0:0:0:
64,192,177197,1,0,0:0:0:70:Kick 6.wav
320,192,177197,1,0,0:0:0:70:clap.wav
448,192,177588,1,0,0:0:0:0:
192,192,177822,1,0,0:0:0:0:
192,192,178135,1,0,0:0:0:70:Kick 6.wav
448,192,178135,128,0,178604:0:0:0:70:clap.wav
64,192,178604,128,0,179072:0:0:0:70:Kick 6.wav
320,192,179072,1,0,0:0:0:70:Kick 6.wav
448,192,179072,1,0,0:0:0:70:clap.wav
192,192,179541,1,0,0:0:0:70:Kick 6.wav
64,192,180010,1,0,0:0:0:70:Kick 6.wav
320,192,180010,1,0,0:0:0:70:clap.wav
448,192,180400,1,0,0:0:0:0:
192,192,180635,1,0,0:0:0:0:
320,192,180947,1,0,0:0:0:70:clap.wav
448,192,180947,1,0,0:0:0:0:
64,192,181338,1,0,0:0:0:0:
320,192,181572,1,0,0:0:0:0:
64,192,181885,1,0,0:0:0:70:clap.wav
192,192,181885,1,0,0:0:0:0:
320,192,182354,1,0,0:0:0:70:LR_Drum Kick Low.wav
448,192,182354,128,0,182822:0:0:0:0:
64,192,182822,128,0,183057:0:0:0:70:LR_Drum Hit P2.wav
192,192,182822,1,0,0:0:0:70:vibraslap.wav
320,192,183525,1,0,0:0:0:0:
64,192,183760,1,0,0:0:0:70:LR_Drum Hit P2.wav
192,192,183760,128,0,183994:0:0:0:0:
192,192,184229,1,0,0:0:0:70:LR_Drum Kick Low.wav
448,192,184385,1,0,0:0:0:0:
64,192,184697,1,0,0:0:0:70:LR_Drum Hit P2.wav
320,192,184697,128,0,184932:0:0:0:0:
320,192,185322,1,0,0:0:0:0:
64,192,185635,128,0,185869:0:0:0:70:LR_Drum Hit P2.wav
448,192,185635,128,0,185869:0:0:0:70:cymbal.wav
