osu file format v14

[General]
AudioFilename: audio.mp3
AudioLeadIn: 0
PreviewTime: 125184
Countdown: 0
SampleSet: Soft
StackLeniency: 0.7
Mode: 3
LetterboxInBreaks: 0
SpecialStyle: 0
WidescreenStoryboard: 1

[Editor]
Bookmarks: 1655,7302,10125,12949,35537,46831,55302,57419,58125,69419,80713,92007,100478,103302,114596,120243,123066,125184,125890,137184,148478,159772,171066
DistanceSpacing: 1
BeatDivisor: 4
GridSize: 8
TimelineZoom: 1.7

[Metadata]
Title:In My Head
TitleUnicode:In My Head
Artist:Aiobahn
ArtistUnicode:Aiobahn
Creator:Irone OSU
Version:Normal
Source:
Tags:FAMoss Featured Artist FA Mappers' Guild MG MPG EDM English Electronic Five​-​star Luster htcd-005 UK hardcore ukhardcore HolTunes instrumental アイオバーン min-seung kim 김민승 Kim Minseung Min-Hyuk minhyuk monstercat monster cat
BeatmapID:3032122
BeatmapSetID:1466792

[Difficulty]
HPDrainRate:7
CircleSize:4
OverallDifficulty:7
ApproachRate:5
SliderMultiplier:1.4
SliderTickRate:1

[Events]
//Background and Video events
0,0,"68175343.jpg",0,0
//Break Periods
//Storyboard Layer 0 (Background)
//Storyboard Layer 1 (Fail)
//Storyboard Layer 2 (Pass)
//Storyboard Layer 3 (Foreground)
//Storyboard Layer 4 (Overlay)
//Storyboard Sound Samples

[TimingPoints]
1655,352.941176470588,4,2,1,70,1,0
58125,-100,4,2,1,70,0,1
80713,-100,4,2,1,70,0,0
125890,-100,4,2,1,70,0,1
159772,-100,4,2,1,70,0,0

[HitObjects]
192,192,1655,128,6,2007:0:0:0:0:
320,192,2007,1,2,0:0:0:0:
448,192,2007,1,8,0:0:0:0:
192,192,2360,128,2,2713:0:0:0:0:
320,192,2713,1,2,0:0:0:0:
448,192,2713,1,8,0:0:0:0:
192,192,3066,128,2,3419:0:0:0:0:
320,192,3419,1,2,0:0:0:0:
448,192,3419,128,8,3772:0:0:0:0:
192,192,3772,128,2,4125:0:0:0:0:
320,192,4125,1,2,0:0:0:0:
448,192,4125,128,8,4478:0:0:0:0:
320,192,4478,128,2,4831:0:0:0:0:
64,192,4831,1,8,0:0:0:0:
192,192,4831,1,2,0:0:0:0:
320,192,5184,128,2,5537:0:0:0:0:
64,192,5537,1,8,0:0:0:0:
192,192,5537,1,2,0:0:0:0:
320,192,5890,128,2,6243:0:0:0:0:
64,192,6243,128,2,6596:0:0:0:0:
192,192,6243,1,8,0:0:0:0:
320,192,6596,128,2,6949:0:0:0:0:
64,192,6949,128,2,7302:0:0:0:0:
192,192,6949,1,8,0:0:0:0:
448,192,7302,1,0,0:0:0:70:VEC3 Snares 021.wav
192,192,7478,1,0,0:0:0:70:VEC3 Snares 021.wav
448,192,7654,1,8,0:0:0:0:
192,192,7831,1,0,0:0:0:70:VEC3 Snares 021.wav
448,192,8007,1,0,0:0:0:70:VEC3 Snares 021.wav
192,192,8184,1,0,0:0:0:70:VEC3 Snares 021.wav
448,192,8360,1,8,0:0:0:0:
192,192,8537,1,0,0:0:0:70:VEC3 Snares 021.wav
320,192,8625,1,0,0:0:0:70:VEC3 Snares 021.wav
64,192,8713,1,0,0:0:0:70:VEC3 Snares 021.wav
320,192,8890,1,0,0:0:0:70:VEC3 Snares 021.wav
64,192,9066,1,8,0:0:0:0:
320,192,9243,1,0,0:0:0:70:VEC3 Snares 021.wav
64,192,9419,1,0,0:0:0:70:VEC3 Snares 021.wav
320,192,9596,1,0,0:0:0:70:VEC3 Snares 021.wav
64,192,9772,1,8,0:0:0:0:
320,192,9949,1,0,0:0:0:70:VEC3 Snares 021.wav
192,192,10037,1,0,0:0:0:70:VEC3 Snares 021.wav
448,192,10125,1,0,0:0:0:70:VEC3 Snares 021.wav
64,192,10302,1,0,0:0:0:70:VEC3 Snares 021.wav
320,192,10478,1,8,0:0:0:0:
448,192,10566,1,0,0:0:0:70:VEC3 Snares 021.wav
64,192,10654,1,0,0:0:0:70:VEC3 Snares 021.wav
192,192,10743,1,0,0:0:0:70:VEC3 Snares 021.wav
320,192,10831,1,0,0:0:0:70:VEC3 Snares 021.wav
448,192,11007,1,0,0:0:0:70:VEC3 Snares 021.wav
192,192,11184,1,8,0:0:0:0:
64,192,11272,1,0,0:0:0:70:VEC3 Snares 021.wav
448,192,11360,1,0,0:0:0:70:VEC3 Snares 021.wav
320,192,11449,1,0,0:0:0:70:VEC3 Snares 021.wav
192,192,11537,1,0,0:0:0:70:VEC3 Snares 021.wav
64,192,11713,1,0,0:0:0:70:VEC3 Snares 021.wav
320,192,11890,1,8,0:0:0:0:
448,192,11978,1,0,0:0:0:70:VEC3 Snares 021.wav
64,192,12066,1,0,0:0:0:70:VEC3 Snares 021.wav
192,192,12154,1,0,0:0:0:70:VEC3 Snares 021.wav
320,192,12243,1,0,0:0:0:70:VEC3 Snares 021.wav
448,192,12419,1,0,0:0:0:70:VEC3 Snares 021.wav
64,192,12596,1,8,0:0:0:0:
192,192,12596,1,0,0:0:0:70:tom02.wav
320,192,12772,1,8,0:0:0:0:
448,192,12772,1,0,0:0:0:0:
64,192,12949,128,4,14360:0:0:0:0:
192,192,14360,128,0,15772:0:0:0:0:
320,192,15772,128,0,16478:0:0:0:0:
64,192,16478,1,0,0:0:0:0:
192,192,16566,128,0,17184:0:0:0:0:
448,192,17184,1,0,0:0:0:0:
320,192,17272,128,0,17890:0:0:0:0:
192,192,17890,1,0,0:0:0:0:
448,192,17978,1,0,0:0:0:0:
192,192,18066,1,0,0:0:0:0:
64,192,18154,128,0,18419:0:0:0:0:
192,192,18596,128,0,20007:0:0:0:0:
320,192,20007,128,0,21419:0:0:0:0:
448,192,21419,128,0,22125:0:0:0:0:
192,192,22125,1,0,0:0:0:0:
64,192,22213,128,0,22831:0:0:0:0:
320,192,22831,1,0,0:0:0:0:
448,192,22919,128,0,23537:0:0:0:0:
320,192,23537,1,0,0:0:0:0:
64,192,23625,1,0,0:0:0:0:
320,192,23713,1,0,0:0:0:0:
192,192,23802,128,0,24066:0:0:0:0:
64,192,24243,128,0,25654:0:0:0:0:
192,192,25654,128,0,27066:0:0:0:0:
320,192,27066,128,0,27772:0:0:0:0:
64,192,27772,1,0,0:0:0:0:
192,192,27860,128,0,28478:0:0:0:0:
448,192,28478,1,0,0:0:0:0:
320,192,28566,128,0,29184:0:0:0:0:
192,192,29184,1,0,0:0:0:0:
448,192,29272,1,0,0:0:0:0:
192,192,29360,1,0,0:0:0:0:
64,192,29449,128,0,29713:0:0:0:0:
192,192,29890,128,0,31302:0:0:0:0:
320,192,31302,128,0,32713:0:0:0:0:
448,192,32713,128,0,33419:0:0:0:0:
192,192,33419,1,0,0:0:0:0:
64,192,33507,128,0,34125:0:0:0:0:
320,192,34125,1,0,0:0:0:0:
448,192,34213,128,0,35537:0:0:0:0:
64,192,34478,1,0,0:0:0:0:
320,192,34831,1,0,0:0:0:0:
192,192,35184,1,0,0:0:0:0:
64,192,35537,1,8,0:0:0:0:
320,192,35537,1,0,0:0:0:0:
320,192,35890,1,8,0:0:0:0:
448,192,35890,1,0,0:0:0:0:
192,192,36066,1,0,0:0:0:0:
64,192,36243,1,8,0:0:0:0:
448,192,36243,1,0,0:0:0:0:
64,192,36596,1,8,0:0:0:0:
192,192,36596,1,0,0:0:0:0:
320,192,36772,1,0,0:0:0:0:
64,192,36949,1,8,0:0:0:0:
448,192,36949,1,0,0:0:0:0:
192,192,37302,1,8,0:0:0:0:
448,192,37302,1,0,0:0:0:0:
64,192,37654,1,8,0:0:0:0:
320,192,37654,1,0,0:0:0:0:
320,192,38007,1,8,0:0:0:0:
448,192,38007,1,0,0:0:0:0:
64,192,38360,1,8,0:0:0:0:
192,192,38360,1,0,0:0:0:0:
320,192,38713,1,8,0:0:0:0:
448,192,38713,1,0,0:0:0:0:
64,192,39066,1,8,0:0:0:0:
448,192,39066,1,0,0:0:0:0:
320,192,39419,1,8,0:0:0:0:
448,192,39419,1,0,0:0:0:0:
64,192,39772,1,8,0:0:0:0:
192,192,39772,1,0,0:0:0:0:
64,192,40125,1,8,0:0:0:0:
448,192,40125,1,0,0:0:0:0:
192,192,40478,1,8,0:0:0:0:
320,192,40478,1,0,0:0:0:0:
320,192,40831,1,8,0:0:0:0:
448,192,40831,1,0,0:0:0:0:
64,192,41184,1,8,0:0:0:0:
192,192,41184,1,0,0:0:0:0:
320,192,41537,1,8,0:0:0:0:
448,192,41537,1,0,0:0:0:0:
192,192,41713,1,0,0:0:0:0:
64,192,41890,1,8,0:0:0:0:
448,192,41890,1,0,0:0:0:0:
64,192,42243,1,8,0:0:0:0:
192,192,42243,1,0,0:0:0:0:
320,192,42419,1,0,0:0:0:0:
64,192,42596,1,8,0:0:0:0:
448,192,42596,1,0,0:0:0:0:
192,192,42949,1,8,0:0:0:0:
320,192,42949,1,0,0:0:0:0:
64,192,43302,1,8,0:0:0:0:
448,192,43302,1,0,0:0:0:0:
64,192,43654,1,8,0:0:0:0:
192,192,43743,1,0,0:0:0:0:
320,192,43831,1,0,0:0:0:0:
448,192,43919,1,0,0:0:0:0:
64,192,44007,1,8,0:0:0:0:
192,192,44007,1,0,0:0:0:0:
192,192,44360,1,8,0:0:0:0:
320,192,44360,1,0,0:0:0:0:
64,192,44713,1,8,0:0:0:0:
448,192,44713,1,0,0:0:0:0:
448,192,45066,1,8,0:0:0:0:
320,192,45154,1,0,0:0:0:0:
192,192,45243,1,0,0:0:0:0:
64,192,45331,1,0,0:0:0:0:
320,192,45419,1,8,0:0:0:0:
448,192,45419,1,0,0:0:0:0:
64,192,45772,1,8,0:0:0:0:
448,192,45772,1,0,0:0:0:0:
192,192,46125,1,8,0:0:0:0:
320,192,46125,1,0,0:0:0:0:
448,192,46478,1,8,0:0:0:0:
320,192,46566,1,0,0:0:0:0:
64,192,46654,1,0,0:0:0:0:
192,192,46743,1,0,0:0:0:0:
320,192,46831,1,0,0:0:0:70:VEC3 Snares 021.wav
448,192,46831,1,0,0:0:0:0:
64,192,47184,1,0,0:0:0:70:VEC3 Snares 021.wav
192,192,47184,1,0,0:0:0:0:
320,192,47360,1,0,0:0:0:0:
64,192,47537,1,0,0:0:0:70:VEC3 Snares 021.wav
192,192,47625,1,0,0:0:0:0:
320,192,47713,1,0,0:0:0:0:
448,192,47802,1,0,0:0:0:0:
64,192,47890,1,0,0:0:0:70:VEC3 Snares 021.wav
192,192,48066,1,0,0:0:0:0:
448,192,48243,1,0,0:0:0:70:VEC3 Snares 021.wav
192,192,48419,1,0,0:0:0:0:
64,192,48507,1,0,0:0:0:0:
320,192,48596,1,0,0:0:0:70:VEC3 Snares 021.wav
448,192,48772,1,0,0:0:0:0:
64,192,48949,1,0,0:0:0:70:VEC3 Snares 021.wav
448,192,49125,1,0,0:0:0:0:
64,192,49302,1,0,0:0:0:70:VEC3 Snares 021.wav
192,192,49390,1,0,0:0:0:0:
320,192,49478,1,0,0:0:0:0:
448,192,49566,1,0,0:0:0:0:
64,192,49654,1,0,0:0:0:70:VEC3 Snares 021.wav
192,192,49654,1,0,0:0:0:0:
320,192,50007,1,0,0:0:0:70:VEC3 Snares 021.wav
448,192,50007,1,0,0:0:0:0:
192,192,50184,1,0,0:0:0:0:
448,192,50360,1,0,0:0:0:70:VEC3 Snares 021.wav
320,192,50449,1,0,0:0:0:0:
192,192,50537,1,0,0:0:0:0:
64,192,50625,1,0,0:0:0:0:
448,192,50713,1,0,0:0:0:70:VEC3 Snares 021.wav
320,192,50890,1,0,0:0:0:0:
64,192,51066,1,0,0:0:0:70:VEC3 Snares 021.wav
320,192,51243,1,0,0:0:0:0:
448,192,51331,1,0,0:0:0:0:
192,192,51419,1,0,0:0:0:70:VEC3 Snares 021.wav
64,192,51596,1,0,0:0:0:0:
448,192,51772,1,0,0:0:0:70:VEC3 Snares 021.wav
64,192,51949,1,0,0:0:0:0:
448,192,52125,1,0,0:0:0:70:VEC3 Snares 021.wav
320,192,52213,1,0,0:0:0:0:
192,192,52302,1,0,0:0:0:0:
64,192,52390,1,0,0:0:0:0:
320,192,52478,1,0,0:0:0:70:VEC3 Snares 021.wav
448,192,52478,1,0,0:0:0:0:
64,192,52654,1,0,0:0:0:70:VEC3 Snares 021.wav
192,192,52831,1,0,0:0:0:70:VEC3 Snares 021.wav
320,192,53007,1,0,0:0:0:70:VEC3 Snares 021.wav
448,192,53184,1,0,0:0:0:70:VEC3 Snares 021.wav
192,192,53360,1,0,0:0:0:70:VEC3 Snares 021.wav
64,192,53537,1,0,0:0:0:70:VEC3 Snares 021.wav
448,192,53713,1,0,0:0:0:70:VEC3 Snares 021.wav
320,192,53802,1,0,0:0:0:70:VEC3 Snares 021.wav
64,192,53890,1,0,0:0:0:70:VEC3 Snares 021.wav
448,192,54066,1,0,0:0:0:70:VEC3 Snares 021.wav
320,192,54243,1,0,0:0:0:70:VEC3 Snares 021.wav
192,192,54419,1,0,0:0:0:70:VEC3 Snares 021.wav
64,192,54596,1,0,0:0:0:70:VEC3 Snares 021.wav
320,192,54772,1,0,0:0:0:70:VEC3 Snares 021.wav
448,192,54949,1,0,0:0:0:70:VEC3 Snares 021.wav
64,192,55125,1,0,0:0:0:70:VEC3 Snares 021.wav
192,192,55213,1,0,0:0:0:70:VEC3 Snares 021.wav
448,192,55302,1,0,0:0:0:70:VEC3 Snares 021.wav
320,192,55478,1,0,0:0:0:70:VEC3 Snares 021.wav
64,192,55654,1,0,0:0:0:70:VEC3 Snares 021.wav
192,192,55743,1,0,0:0:0:70:VEC3 Snares 021.wav
448,192,55831,1,0,0:0:0:70:VEC3 Snares 021.wav
320,192,55919,1,0,0:0:0:70:VEC3 Snares 021.wav
64,192,56007,1,0,0:0:0:70:VEC3 Snares 021.wav
192,192,56184,1,0,0:0:0:70:VEC3 Snares 021.wav
448,192,56360,1,0,0:0:0:70:VEC3 Snares 021.wav
320,192,56449,1,0,0:0:0:70:VEC3 Snares 021.wav
64,192,56537,1,0,0:0:0:70:VEC3 Snares 021.wav
192,192,56625,1,0,0:0:0:70:VEC3 Snares 021.wav
448,192,56713,1,0,0:0:0:70:VEC3 Snares 021.wav
320,192,56890,1,0,0:0:0:70:VEC3 Snares 021.wav
64,192,57066,1,0,0:0:0:70:VEC3 Snares 021.wav
448,192,57154,1,0,0:0:0:70:VEC3 Snares 021.wav
320,192,57243,1,0,0:0:0:70:VEC3 Snares 021.wav
64,192,57331,1,0,0:0:0:70:VEC3 Snares 021.wav
192,192,57419,1,0,0:0:0:70:tom01.wav
448,192,57596,1,0,0:0:0:70:tom02.wav
320,192,57684,1,0,0:0:0:70:tom02.wav
64,192,57772,1,0,0:0:0:70:tom03.wav
448,192,57860,1,0,0:0:0:70:tom03.wav
192,192,57949,1,0,0:0:0:70:tom04.wav
320,192,58125,1,4,0:0:0:0:
448,192,58125,128,2,58478:0:0:0:0:
64,192,58478,1,8,0:0:0:0:
192,192,58478,1,2,0:0:0:0:
320,192,58831,1,2,0:0:0:0:
448,192,58831,128,0,59184:0:0:0:0:
64,192,59184,1,8,0:0:0:0:
192,192,59184,1,2,0:0:0:0:
192,192,59537,1,2,0:0:0:0:
320,192,59537,128,0,59713:0:0:0:0:
64,192,59890,128,8,60066:0:0:0:0:
448,192,59890,1,2,0:0:0:0:
192,192,60243,128,2,60419:0:0:0:0:
320,192,60243,1,0,0:0:0:0:
64,192,60596,1,8,0:0:0:0:
448,192,60596,128,2,60772:0:0:0:0:
64,192,60949,128,2,61302:0:0:0:0:
192,192,60949,1,0,0:0:0:0:
320,192,61302,1,2,0:0:0:0:
448,192,61302,1,8,0:0:0:0:
64,192,61654,128,2,62007:0:0:0:0:
192,192,61654,1,0,0:0:0:0:
320,192,62007,1,2,0:0:0:0:
448,192,62007,1,8,0:0:0:0:
192,192,62360,128,2,62537:0:0:0:0:
448,192,62360,1,0,0:0:0:0:
64,192,62713,1,8,0:0:0:0:
320,192,62713,128,2,62890:0:0:0:0:
192,192,63066,1,2,0:0:0:0:
448,192,63066,128,0,63243:0:0:0:0:
64,192,63419,128,8,63596:0:0:0:0:
320,192,63419,1,2,0:0:0:0:
320,192,63772,1,2,0:0:0:0:
448,192,63772,128,0,64125:0:0:0:0:
64,192,64125,1,2,0:0:0:0:
192,192,64125,1,8,0:0:0:0:
320,192,64478,1,2,0:0:0:0:
448,192,64478,128,0,64831:0:0:0:0:
64,192,64831,1,2,0:0:0:0:
192,192,64831,1,8,0:0:0:0:
192,192,65184,1,2,0:0:0:0:
320,192,65184,128,0,65360:0:0:0:0:
64,192,65537,128,2,65713:0:0:0:0:
448,192,65537,1,8,0:0:0:0:
192,192,65890,128,2,66066:0:0:0:0:
320,192,65890,1,0,0:0:0:0:
64,192,66243,1,2,0:0:0:0:
448,192,66243,128,8,66419:0:0:0:0:
64,192,66596,128,2,66949:0:0:0:0:
192,192,66596,1,0,0:0:0:0:
320,192,66949,1,8,0:0:0:0:
448,192,66949,1,2,0:0:0:0:
64,192,67302,128,2,67654:0:0:0:0:
192,192,67302,1,0,0:0:0:0:
320,192,67654,1,8,0:0:0:0:
448,192,67654,1,2,0:0:0:0:
192,192,68007,1,2,0:0:0:0:
448,192,68007,128,0,68184:0:0:0:0:
64,192,68360,128,2,68537:0:0:0:0:
320,192,68360,1,8,0:0:0:0:
192,192,68713,128,2,68890:0:0:0:0:
448,192,68713,1,0,0:0:0:0:
320,192,69066,128,2,69243:0:0:0:0:
448,192,69066,1,8,0:0:0:0:
192,192,69243,1,0,0:0:0:0:
64,192,69419,1,4,0:0:0:0:
448,192,69419,128,2,69772:0:0:0:0:
64,192,69772,1,8,0:0:0:0:
192,192,69772,1,2,0:0:0:0:
64,192,70125,1,2,0:0:0:0:
448,192,70125,128,0,70478:0:0:0:0:
64,192,70478,1,8,0:0:0:0:
192,192,70478,1,2,0:0:0:0:
192,192,70831,1,2,0:0:0:0:
320,192,70831,128,0,71007:0:0:0:0:
64,192,71184,128,8,71360:0:0:0:0:
448,192,71184,128,2,71360:0:0:0:0:
192,192,71537,128,2,71713:0:0:0:0:
320,192,71537,1,0,0:0:0:0:
320,192,71890,128,8,72066:0:0:0:0:
448,192,71890,128,2,72066:0:0:0:0:
64,192,72243,128,2,72596:0:0:0:0:
448,192,72243,1,0,0:0:0:0:
320,192,72596,1,2,0:0:0:0:
448,192,72596,1,8,0:0:0:0:
64,192,72949,128,2,73302:0:0:0:0:
448,192,72949,1,0,0:0:0:0:
320,192,73302,1,2,0:0:0:0:
448,192,73302,1,8,0:0:0:0:
192,192,73654,128,2,73831:0:0:0:0:
320,192,73654,1,0,0:0:0:0:
64,192,74007,128,8,74184:0:0:0:0:
448,192,74007,128,2,74184:0:0:0:0:
192,192,74360,1,2,0:0:0:0:
320,192,74360,128,0,74537:0:0:0:0:
64,192,74713,128,8,74890:0:0:0:0:
192,192,74713,128,2,74890:0:0:0:0:
64,192,75066,1,2,0:0:0:0:
448,192,75066,128,0,75419:0:0:0:0:
64,192,75419,1,2,0:0:0:0:
192,192,75419,1,8,0:0:0:0:
64,192,75772,1,2,0:0:0:0:
448,192,75772,128,0,76125:0:0:0:0:
64,192,76125,1,2,0:0:0:0:
192,192,76125,1,8,0:0:0:0:
64,192,76478,1,2,0:0:0:0:
448,192,76478,128,0,76654:0:0:0:0:
192,192,76831,128,2,77007:0:0:0:0:
320,192,76831,128,8,77007:0:0:0:0:
64,192,77184,128,2,77360:0:0:0:0:
448,192,77184,1,0,0:0:0:0:
320,192,77537,128,2,77713:0:0:0:0:
448,192,77537,128,8,77713:0:0:0:0:
64,192,77890,128,2,78243:0:0:0:0:
448,192,77890,1,0,0:0:0:0:
320,192,78243,1,8,0:0:0:0:
448,192,78243,1,2,0:0:0:0:
64,192,78596,128,2,78949:0:0:0:0:
448,192,78596,1,0,0:0:0:0:
320,192,78949,1,8,0:0:0:0:
448,192,78949,1,2,0:0:0:0:
192,192,79302,128,0,79478:0:0:0:0:
320,192,79654,128,8,79831:0:0:0:0:
448,192,79654,128,0,79831:0:0:0:70:tom01.wav
64,192,80007,128,0,80184:0:0:0:0:
320,192,80360,128,8,80537:0:0:0:0:
448,192,80360,1,0,0:0:0:70:tom02.wav
192,192,80537,1,0,0:0:0:0:
64,192,80713,1,4,0:0:0:0:
448,192,80713,1,2,0:0:0:0:
192,192,81066,1,2,0:0:0:0:
320,192,81066,1,0,0:0:0:0:
192,192,81419,1,2,0:0:0:0:
448,192,81419,1,0,0:0:0:0:
64,192,81772,1,2,0:0:0:0:
320,192,81772,1,0,0:0:0:0:
320,192,82125,1,2,0:0:0:0:
448,192,82125,1,0,0:0:0:0:
64,192,82478,1,2,0:0:0:0:
192,192,82478,1,0,0:0:0:0:
448,192,82654,1,0,0:0:0:0:
64,192,82831,1,2,0:0:0:0:
320,192,82831,1,0,0:0:0:0:
192,192,83184,1,2,0:0:0:0:
448,192,83184,1,0,0:0:0:0:
64,192,83360,1,0,0:0:0:0:
320,192,83537,1,2,0:0:0:0:
448,192,83537,1,0,0:0:0:0:
64,192,83890,1,2,0:0:0:0:
192,192,83890,1,0,0:0:0:0:
192,192,84243,1,2,0:0:0:0:
448,192,84243,1,0,0:0:0:0:
64,192,84596,1,2,0:0:0:0:
320,192,84596,1,0,0:0:0:0:
320,192,84949,1,2,0:0:0:0:
448,192,84949,1,0,0:0:0:0:
192,192,85125,1,0,0:0:0:0:
64,192,85302,1,2,0:0:0:0:
448,192,85302,1,0,0:0:0:0:
320,192,85478,1,0,0:0:0:0:
64,192,85654,1,2,0:0:0:0:
192,192,85654,1,0,0:0:0:0:
192,192,86007,1,2,0:0:0:0:
320,192,86007,1,0,0:0:0:0:
448,192,86184,1,0,0:0:0:0:
64,192,86360,1,2,0:0:0:0:
192,192,86360,1,0,0:0:0:0:
320,192,86537,1,0,0:0:0:0:
64,192,86713,1,2,0:0:0:0:
448,192,86713,1,0,0:0:0:0:
192,192,87066,1,2,0:0:0:0:
320,192,87066,1,0,0:0:0:0:
192,192,87419,1,2,0:0:0:0:
448,192,87419,1,0,0:0:0:0:
64,192,87772,1,2,0:0:0:0:
320,192,87772,1,0,0:0:0:0:
320,192,88125,1,2,0:0:0:0:
448,192,88125,1,0,0:0:0:0:
64,192,88478,1,2,0:0:0:0:
192,192,88478,1,0,0:0:0:0:
320,192,88654,1,0,0:0:0:0:
64,192,88831,1,2,0:0:0:0:
448,192,88831,1,0,0:0:0:0:
192,192,89007,1,0,0:0:0:0:
320,192,89184,1,2,0:0:0:0:
448,192,89184,1,0,0:0:0:0:
64,192,89360,1,0,0:0:0:0:
192,192,89537,1,2,0:0:0:0:
448,192,89537,1,0,0:0:0:0:
192,192,89890,1,2,0:0:0:0:
320,192,89890,1,0,0:0:0:0:
320,192,90243,1,2,0:0:0:0:
448,192,90243,1,0,0:0:0:0:
64,192,90596,1,2,0:0:0:0:
192,192,90596,1,0,0:0:0:0:
320,192,90949,1,2,0:0:0:0:
448,192,90949,1,0,0:0:0:0:
192,192,91302,1,2,0:0:0:0:
448,192,91302,1,0,0:0:0:0:
64,192,91654,1,2,0:0:0:0:
192,192,91654,1,0,0:0:0:0:
320,192,91831,1,0,0:0:0:0:
64,192,92007,1,2,0:0:0:0:
448,192,92007,1,0,0:0:0:0:
192,192,92360,1,2,0:0:0:0:
320,192,92360,1,0,0:0:0:0:
192,192,92713,1,2,0:0:0:0:
448,192,92713,1,0,0:0:0:0:
64,192,93066,1,2,0:0:0:0:
320,192,93066,1,0,0:0:0:0:
320,192,93419,1,2,0:0:0:0:
448,192,93419,1,0,0:0:0:0:
64,192,93772,1,2,0:0:0:0:
192,192,93772,1,0,0:0:0:0:
448,192,93949,1,0,0:0:0:0:
64,192,94125,1,2,0:0:0:0:
320,192,94125,1,0,0:0:0:0:
192,192,94478,1,2,0:0:0:0:
448,192,94478,1,0,0:0:0:0:
64,192,94654,1,0,0:0:0:0:
320,192,94831,1,2,0:0:0:0:
448,192,94831,1,0,0:0:0:0:
64,192,95184,1,2,0:0:0:0:
192,192,95184,1,0,0:0:0:0:
192,192,95537,1,2,0:0:0:0:
448,192,95537,1,0,0:0:0:0:
64,192,95890,1,2,0:0:0:0:
320,192,95890,1,0,0:0:0:0:
320,192,96243,1,2,0:0:0:0:
448,192,96243,1,0,0:0:0:0:
192,192,96419,1,0,0:0:0:0:
64,192,96596,1,2,0:0:0:0:
448,192,96596,1,0,0:0:0:0:
320,192,96772,1,0,0:0:0:0:
64,192,96949,1,2,0:0:0:0:
192,192,96949,1,0,0:0:0:0:
192,192,97302,1,2,0:0:0:0:
320,192,97302,1,0,0:0:0:0:
448,192,97478,1,0,0:0:0:0:
64,192,97654,1,2,0:0:0:0:
192,192,97654,1,0,0:0:0:0:
320,192,97831,1,2,0:0:0:0:
64,192,98007,1,2,0:0:0:0:
448,192,98007,1,0,0:0:0:0:
192,192,98184,1,2,0:0:0:0:
320,192,98360,1,2,0:0:0:0:
448,192,98360,1,0,0:0:0:0:
64,192,98537,1,2,0:0:0:0:
192,192,98713,1,2,0:0:0:0:
448,192,98713,1,0,0:0:0:0:
320,192,98890,1,2,0:0:0:0:
64,192,99066,1,2,0:0:0:0:
64,192,99243,1,2,0:0:0:0:
320,192,99419,1,2,0:0:0:0:
320,192,99596,1,2,0:0:0:0:
192,192,99772,1,2,0:0:0:0:
192,192,99949,1,2,0:0:0:0:
64,192,100125,1,2,0:0:0:0:
448,192,100125,1,0,0:0:0:0:
320,192,100302,1,2,0:0:0:0:
64,192,100478,1,2,0:0:0:0:
192,192,100478,1,0,0:0:0:0:
448,192,100654,1,2,0:0:0:0:
192,192,100831,1,2,0:0:0:0:
320,192,100919,1,2,0:0:0:0:
448,192,101007,1,2,0:0:0:0:
64,192,101096,1,2,0:0:0:0:
192,192,101184,1,2,0:0:0:0:
448,192,101360,1,2,0:0:0:0:
320,192,101537,1,2,0:0:0:0:
192,192,101625,1,2,0:0:0:0:
64,192,101713,1,2,0:0:0:0:
448,192,101802,1,2,0:0:0:0:
320,192,101890,1,2,0:0:0:0:
192,192,102066,1,2,0:0:0:0:
64,192,102243,1,2,0:0:0:0:
192,192,102331,1,2,0:0:0:0:
448,192,102419,1,2,0:0:0:0:
320,192,102507,1,2,0:0:0:0:
192,192,102596,1,2,0:0:0:0:
320,192,102772,1,2,0:0:0:0:
64,192,102949,1,8,0:0:0:0:
448,192,102949,1,0,0:0:0:0:
192,192,103302,1,0,0:0:0:0:
320,192,103302,1,0,0:0:0:0:
320,192,103654,1,8,0:0:0:0:
448,192,103654,128,0,103831:0:0:0:0:
192,192,103831,1,0,0:0:0:0:
64,192,104007,128,8,104184:0:0:0:0:
448,192,104007,1,0,0:0:0:0:
64,192,104360,1,8,0:0:0:0:
192,192,104360,128,0,104537:0:0:0:0:
320,192,104537,1,0,0:0:0:0:
64,192,104713,1,8,0:0:0:0:
448,192,104713,128,0,104890:0:0:0:0:
192,192,105066,128,8,105243:0:0:0:0:
320,192,105066,1,0,0:0:0:0:
192,192,105419,128,8,105596:0:0:0:0:
448,192,105419,1,0,0:0:0:0:
64,192,105772,1,8,0:0:0:0:
320,192,105772,128,0,105949:0:0:0:0:
64,192,106125,1,0,0:0:0:0:
320,192,106478,1,8,0:0:0:0:
448,192,106478,128,0,106654:0:0:0:0:
64,192,106831,128,8,107007:0:0:0:0:
448,192,106831,1,0,0:0:0:0:
320,192,107184,1,8,0:0:0:0:
448,192,107184,128,0,107360:0:0:0:0:
64,192,107537,128,8,107713:0:0:0:0:
448,192,107537,1,0,0:0:0:0:
192,192,107890,1,8,0:0:0:0:
320,192,107890,128,0,108066:0:0:0:0:
64,192,108243,1,8,0:0:0:0:
320,192,108243,128,0,108419:0:0:0:0:
192,192,108596,128,8,108772:0:0:0:0:
448,192,108596,1,0,0:0:0:0:
64,192,108949,1,0,0:0:0:0:
320,192,109302,1,8,0:0:0:0:
448,192,109302,128,0,109478:0:0:0:0:
192,192,109478,1,0,0:0:0:0:
64,192,109654,128,8,109831:0:0:0:0:
448,192,109654,1,0,0:0:0:0:
64,192,110007,1,8,0:0:0:0:
192,192,110007,128,0,110184:0:0:0:0:
320,192,110184,1,0,0:0:0:0:
64,192,110360,1,8,0:0:0:0:
448,192,110360,128,0,110537:0:0:0:0:
192,192,110713,128,8,110890:0:0:0:0:
320,192,110713,1,0,0:0:0:0:
192,192,111066,128,8,111243:0:0:0:0:
448,192,111066,1,0,0:0:0:0:
64,192,111419,1,8,0:0:0:0:
320,192,111419,128,0,111596:0:0:0:0:
64,192,111772,1,0,0:0:0:0:
320,192,112125,1,8,0:0:0:0:
448,192,112125,128,0,112302:0:0:0:0:
64,192,112478,128,8,112654:0:0:0:0:
448,192,112478,1,0,0:0:0:0:
320,192,112831,1,8,0:0:0:0:
448,192,112831,128,0,113007:0:0:0:0:
192,192,113184,128,8,113360:0:0:0:0:
320,192,113184,1,0,0:0:0:0:
64,192,113537,1,8,0:0:0:0:
320,192,113537,128,0,113713:0:0:0:0:
192,192,113890,1,8,0:0:0:0:
448,192,113890,128,0,114066:0:0:0:0:
64,192,114243,128,8,114419:0:0:0:0:
448,192,114243,1,0,0:0:0:0:
320,192,114596,1,0,0:0:0:70:VEC3 Snares 021.wav
448,192,114596,1,0,0:0:0:0:
64,192,114949,1,0,0:0:0:70:VEC3 Snares 021.wav
192,192,114949,1,0,0:0:0:0:
320,192,115125,1,0,0:0:0:0:
64,192,115302,1,0,0:0:0:70:VEC3 Snares 021.wav
192,192,115390,1,0,0:0:0:0:
320,192,115478,1,0,0:0:0:0:
448,192,115566,1,0,0:0:0:0:
64,192,115654,1,0,0:0:0:70:VEC3 Snares 021.wav
192,192,115831,1,0,0:0:0:0:
448,192,116007,1,0,0:0:0:70:VEC3 Snares 021.wav
192,192,116184,1,0,0:0:0:0:
64,192,116272,1,0,0:0:0:0:
320,192,116360,1,0,0:0:0:70:VEC3 Snares 021.wav
448,192,116537,1,0,0:0:0:0:
64,192,116713,1,0,0:0:0:70:VEC3 Snares 021.wav
448,192,116890,1,0,0:0:0:0:
64,192,117066,1,0,0:0:0:70:VEC3 Snares 021.wav
192,192,117154,1,0,0:0:0:0:
320,192,117243,1,0,0:0:0:0:
448,192,117331,1,0,0:0:0:0:
64,192,117419,1,0,0:0:0:70:VEC3 Snares 021.wav
192,192,117419,1,0,0:0:0:0:
320,192,117772,1,0,0:0:0:70:VEC3 Snares 021.wav
448,192,117772,1,0,0:0:0:0:
192,192,117949,1,0,0:0:0:0:
448,192,118125,1,0,0:0:0:70:VEC3 Snares 021.wav
320,192,118213,1,0,0:0:0:0:
192,192,118302,1,0,0:0:0:0:
64,192,118390,1,0,0:0:0:0:
448,192,118478,1,0,0:0:0:70:VEC3 Snares 021.wav
320,192,118654,1,0,0:0:0:0:
64,192,118831,1,0,0:0:0:70:VEC3 Snares 021.wav
320,192,119007,1,0,0:0:0:0:
448,192,119096,1,0,0:0:0:0:
192,192,119184,1,0,0:0:0:70:VEC3 Snares 021.wav
64,192,119360,1,0,0:0:0:0:
448,192,119537,1,0,0:0:0:70:VEC3 Snares 021.wav
64,192,119713,1,0,0:0:0:0:
448,192,119890,1,0,0:0:0:70:VEC3 Snares 021.wav
320,192,119978,1,0,0:0:0:0:
192,192,120066,1,0,0:0:0:0:
64,192,120154,1,0,0:0:0:0:
320,192,120243,1,0,0:0:0:70:VEC3 Snares 021.wav
448,192,120243,1,0,0:0:0:0:
64,192,120419,1,0,0:0:0:70:VEC3 Snares 021.wav
192,192,120596,1,0,0:0:0:70:VEC3 Snares 021.wav
320,192,120772,1,0,0:0:0:70:VEC3 Snares 021.wav
448,192,120949,1,0,0:0:0:70:VEC3 Snares 021.wav
192,192,121125,1,0,0:0:0:70:VEC3 Snares 021.wav
64,192,121302,1,0,0:0:0:70:VEC3 Snares 021.wav
448,192,121478,1,0,0:0:0:70:VEC3 Snares 021.wav
320,192,121566,1,0,0:0:0:70:VEC3 Snares 021.wav
64,192,121654,1,0,0:0:0:70:VEC3 Snares 021.wav
448,192,121831,1,0,0:0:0:70:VEC3 Snares 021.wav
320,192,122007,1,0,0:0:0:70:VEC3 Snares 021.wav
192,192,122184,1,0,0:0:0:70:VEC3 Snares 021.wav
64,192,122360,1,0,0:0:0:70:VEC3 Snares 021.wav
320,192,122537,1,0,0:0:0:70:VEC3 Snares 021.wav
448,192,122713,1,0,0:0:0:70:VEC3 Snares 021.wav
64,192,122890,1,0,0:0:0:70:VEC3 Snares 021.wav
192,192,122978,1,0,0:0:0:70:VEC3 Snares 021.wav
448,192,123066,1,0,0:0:0:70:VEC3 Snares 021.wav
320,192,123243,1,0,0:0:0:70:VEC3 Snares 021.wav
64,192,123419,1,0,0:0:0:70:VEC3 Snares 021.wav
192,192,123507,1,0,0:0:0:70:VEC3 Snares 021.wav
448,192,123596,1,0,0:0:0:70:VEC3 Snares 021.wav
320,192,123684,1,0,0:0:0:70:VEC3 Snares 021.wav
64,192,123772,1,0,0:0:0:70:VEC3 Snares 021.wav
192,192,123949,1,0,0:0:0:70:VEC3 Snares 021.wav
448,192,124125,1,0,0:0:0:70:VEC3 Snares 021.wav
320,192,124213,1,0,0:0:0:70:VEC3 Snares 021.wav
64,192,124302,1,0,0:0:0:70:VEC3 Snares 021.wav
192,192,124390,1,0,0:0:0:70:VEC3 Snares 021.wav
448,192,124478,1,0,0:0:0:70:VEC3 Snares 021.wav
320,192,124654,1,0,0:0:0:70:VEC3 Snares 021.wav
64,192,124831,1,0,0:0:0:70:VEC3 Snares 021.wav
448,192,124919,1,0,0:0:0:70:VEC3 Snares 021.wav
320,192,125007,1,0,0:0:0:70:VEC3 Snares 021.wav
192,192,125184,1,0,0:0:0:70:tom01.wav
448,192,125360,1,0,0:0:0:70:tom02.wav
320,192,125449,1,0,0:0:0:70:tom02.wav
64,192,125537,1,0,0:0:0:70:tom03.wav
448,192,125625,1,0,0:0:0:70:tom03.wav
192,192,125713,1,0,0:0:0:70:tom04.wav
320,192,125890,128,4,126243:0:0:0:0:
448,192,125890,128,2,126243:0:0:0:0:
64,192,126243,1,8,0:0:0:0:
192,192,126243,1,2,0:0:0:0:
320,192,126596,128,2,126949:0:0:0:0:
448,192,126596,128,0,126949:0:0:0:0:
64,192,126949,1,8,0:0:0:0:
192,192,126949,1,2,0:0:0:0:
192,192,127302,1,2,0:0:0:0:
320,192,127302,128,0,127478:0:0:0:0:
64,192,127654,128,8,127831:0:0:0:0:
448,192,127654,1,2,0:0:0:0:
320,192,127831,1,0,0:0:0:0:
192,192,128007,128,2,128184:0:0:0:0:
448,192,128007,1,0,0:0:0:0:
64,192,128184,1,0,0:0:0:0:
320,192,128360,1,8,0:0:0:0:
448,192,128360,128,2,128537:0:0:0:0:
64,192,128713,128,2,129066:0:0:0:0:
192,192,128713,128,0,129066:0:0:0:0:
320,192,129066,1,2,0:0:0:0:
448,192,129066,1,8,0:0:0:0:
64,192,129419,128,2,129772:0:0:0:0:
192,192,129419,128,0,129772:0:0:0:0:
320,192,129772,1,2,0:0:0:0:
448,192,129772,1,8,0:0:0:0:
192,192,130125,128,2,130302:0:0:0:0:
448,192,130125,1,0,0:0:0:0:
64,192,130478,1,8,0:0:0:0:
320,192,130478,128,2,130654:0:0:0:0:
192,192,130654,1,0,0:0:0:0:
64,192,130831,1,2,0:0:0:0:
448,192,130831,128,0,131007:0:0:0:0:
320,192,131007,1,0,0:0:0:0:
64,192,131184,128,8,131360:0:0:0:0:
192,192,131184,1,2,0:0:0:0:
320,192,131537,128,2,131890:0:0:0:0:
448,192,131537,128,0,131890:0:0:0:0:
64,192,131890,1,2,0:0:0:0:
192,192,131890,1,8,0:0:0:0:
320,192,132243,128,2,132596:0:0:0:0:
448,192,132243,128,0,132596:0:0:0:0:
64,192,132596,1,2,0:0:0:0:
192,192,132596,1,8,0:0:0:0:
64,192,132949,128,2,133125:0:0:0:0:
448,192,132949,1,0,0:0:0:0:
192,192,133302,1,2,0:0:0:0:
320,192,133302,128,8,133478:0:0:0:0:
64,192,133478,1,0,0:0:0:0:
192,192,133654,128,2,133831:0:0:0:0:
448,192,133654,1,0,0:0:0:0:
320,192,133831,1,0,0:0:0:0:
64,192,134007,1,2,0:0:0:0:
448,192,134007,128,8,134184:0:0:0:0:
320,192,134184,1,0,0:0:0:0:
64,192,134360,128,2,134713:0:0:0:0:
192,192,134360,128,0,134713:0:0:0:0:
320,192,134713,1,8,0:0:0:0:
448,192,134713,1,2,0:0:0:0:
64,192,135066,128,2,135419:0:0:0:0:
192,192,135066,128,0,135419:0:0:0:0:
320,192,135419,1,8,0:0:0:0:
448,192,135419,1,2,0:0:0:0:
64,192,135772,1,2,0:0:0:0:
448,192,135772,128,0,135949:0:0:0:0:
192,192,135949,1,0,0:0:0:0:
64,192,136125,1,2,0:0:0:0:
320,192,136125,128,8,136302:0:0:0:0:
448,192,136302,1,0,0:0:0:0:
64,192,136478,1,2,0:0:0:0:
192,192,136478,128,0,136654:0:0:0:0:
320,192,136654,1,0,0:0:0:0:
64,192,136831,128,2,137007:0:0:0:0:
448,192,136831,1,8,0:0:0:0:
320,192,137184,128,4,137537:0:0:0:0:
448,192,137184,128,2,137537:0:0:0:0:
64,192,137537,1,8,0:0:0:0:
192,192,137537,1,2,0:0:0:0:
320,192,137890,128,2,138243:0:0:0:0:
448,192,137890,128,0,138243:0:0:0:0:
64,192,138243,1,8,0:0:0:0:
192,192,138243,1,2,0:0:0:0:
320,192,138596,128,2,138772:0:0:0:0:
448,192,138596,1,0,0:0:0:0:
192,192,138772,1,0,0:0:0:0:
64,192,138949,128,8,139125:0:0:0:0:
448,192,138949,128,2,139125:0:0:0:0:
320,192,139125,1,0,0:0:0:0:
192,192,139302,128,2,139478:0:0:0:0:
448,192,139302,1,0,0:0:0:0:
64,192,139478,1,0,0:0:0:0:
320,192,139654,128,8,139831:0:0:0:0:
448,192,139654,128,2,139831:0:0:0:0:
64,192,140007,128,2,140360:0:0:0:0:
192,192,140007,128,0,140360:0:0:0:0:
320,192,140360,1,2,0:0:0:0:
448,192,140360,1,8,0:0:0:0:
64,192,140713,128,2,141066:0:0:0:0:
192,192,140713,128,0,141066:0:0:0:0:
320,192,141066,1,2,0:0:0:0:
448,192,141066,1,8,0:0:0:0:
192,192,141419,128,2,141596:0:0:0:0:
320,192,141419,1,0,0:0:0:0:
64,192,141772,128,8,141949:0:0:0:0:
448,192,141772,128,2,141949:0:0:0:0:
192,192,141949,1,0,0:0:0:0:
64,192,142125,1,2,0:0:0:0:
320,192,142125,128,0,142302:0:0:0:0:
448,192,142302,1,0,0:0:0:0:
64,192,142478,128,8,142654:0:0:0:0:
192,192,142478,128,2,142654:0:0:0:0:
64,192,142831,1,2,0:0:0:0:
448,192,142831,128,0,143184:0:0:0:0:
64,192,143184,1,2,0:0:0:0:
192,192,143184,1,8,0:0:0:0:
64,192,143537,1,2,0:0:0:0:
448,192,143537,128,0,143890:0:0:0:0:
64,192,143890,1,2,0:0:0:0:
192,192,143890,1,8,0:0:0:0:
64,192,144243,1,2,0:0:0:0:
448,192,144243,128,0,144419:0:0:0:0:
192,192,144596,128,2,144772:0:0:0:0:
320,192,144596,128,8,144772:0:0:0:0:
64,192,144949,128,2,145125:0:0:0:0:
448,192,144949,1,0,0:0:0:0:
320,192,145302,128,2,145478:0:0:0:0:
448,192,145302,128,8,145478:0:0:0:0:
64,192,145654,128,2,146007:0:0:0:0:
448,192,145654,1,0,0:0:0:0:
320,192,146007,1,8,0:0:0:0:
448,192,146007,1,2,0:0:0:0:
64,192,146360,128,2,146713:0:0:0:0:
448,192,146360,1,0,0:0:0:0:
320,192,146713,1,8,0:0:0:0:
448,192,146713,1,2,0:0:0:0:
192,192,147066,128,0,147243:0:0:0:0:
320,192,147419,128,8,147596:0:0:0:0:
448,192,147419,128,0,147596:0:0:0:70:tom01.wav
64,192,147772,128,0,147949:0:0:0:0:
192,192,148125,1,8,0:0:0:0:
448,192,148125,128,0,148302:0:0:0:70:tom02.wav
320,192,148302,1,0,0:0:0:0:
64,192,148478,128,0,148831:0:0:0:0:
192,192,148478,128,0,148831:0:0:0:0:
320,192,148831,1,12,0:0:0:0:
448,192,148831,1,2,0:0:0:0:
64,192,149184,1,2,0:0:0:0:
448,192,149184,128,0,149537:0:0:0:0:
64,192,149537,1,8,0:0:0:0:
192,192,149537,1,2,0:0:0:0:
192,192,149890,1,2,0:0:0:0:
320,192,149890,128,0,150066:0:0:0:0:
64,192,150243,128,8,150419:0:0:0:0:
448,192,150243,128,2,150419:0:0:0:0:
192,192,150596,128,2,150772:0:0:0:0:
320,192,150596,1,0,0:0:0:0:
320,192,150949,128,8,151125:0:0:0:0:
448,192,150949,128,2,151125:0:0:0:0:
64,192,151302,128,2,151654:0:0:0:0:
448,192,151302,1,0,0:0:0:0:
320,192,151654,1,2,0:0:0:0:
448,192,151654,1,8,0:0:0:0:
64,192,152007,128,2,152360:0:0:0:0:
448,192,152007,1,0,0:0:0:0:
320,192,152360,1,2,0:0:0:0:
448,192,152360,1,8,0:0:0:0:
192,192,152713,128,2,152890:0:0:0:0:
320,192,152713,1,0,0:0:0:0:
64,192,153066,128,8,153243:0:0:0:0:
448,192,153066,128,2,153243:0:0:0:0:
192,192,153419,1,2,0:0:0:0:
320,192,153419,128,0,153596:0:0:0:0:
64,192,153772,128,8,153949:0:0:0:0:
192,192,153772,128,2,153949:0:0:0:0:
64,192,154125,1,2,0:0:0:0:
448,192,154125,128,0,154478:0:0:0:0:
64,192,154478,1,2,0:0:0:0:
192,192,154478,1,8,0:0:0:0:
64,192,154831,1,2,0:0:0:0:
448,192,154831,128,0,155184:0:0:0:0:
64,192,155184,1,2,0:0:0:0:
192,192,155184,1,8,0:0:0:0:
64,192,155537,1,2,0:0:0:0:
448,192,155537,128,0,155713:0:0:0:0:
192,192,155890,128,2,156066:0:0:0:0:
320,192,155890,128,8,156066:0:0:0:0:
64,192,156243,128,2,156419:0:0:0:0:
448,192,156243,1,0,0:0:0:0:
320,192,156596,128,2,156772:0:0:0:0:
448,192,156596,128,8,156772:0:0:0:0:
64,192,156949,128,2,157302:0:0:0:0:
448,192,156949,1,0,0:0:0:0:
320,192,157302,1,8,0:0:0:0:
448,192,157302,1,2,0:0:0:0:
64,192,157654,128,2,158007:0:0:0:0:
448,192,157654,1,0,0:0:0:0:
320,192,158007,1,8,0:0:0:0:
448,192,158007,1,2,0:0:0:0:
192,192,158360,128,0,158537:0:0:0:0:
320,192,158713,128,8,158890:0:0:0:0:
448,192,158713,128,0,158890:0:0:0:70:tom01.wav
64,192,159066,128,0,159243:0:0:0:0:
448,192,159243,1,0,0:0:0:70:tom02.wav
64,192,159419,1,8,0:0:0:0:
320,192,159419,128,0,159596:0:0:0:0:
192,192,159596,1,0,0:0:0:0:
64,192,159772,1,2,0:0:0:0:
448,192,159772,1,4,0:0:0:0:
320,192,160125,1,0,0:0:0:0:
192,192,160302,1,0,0:0:0:0:
64,192,160390,1,0,0:0:0:70:VEC3 Snares 021.wav
448,192,160478,1,2,0:0:0:0:
192,192,160654,1,0,0:0:0:70:VEC3 Snares 021.wav
448,192,160831,1,0,0:0:0:0:
192,192,161007,1,0,0:0:0:70:VEC3 Snares 021.wav
64,192,161184,1,2,0:0:0:0:
448,192,161184,1,0,0:0:0:0:
192,192,161537,1,0,0:0:0:0:
64,192,161802,1,0,0:0:0:70:VEC3 Snares 021.wav
320,192,161890,1,2,0:0:0:0:
64,192,162066,1,0,0:0:0:70:VEC3 Snares 021.wav
448,192,162243,1,0,0:0:0:0:
64,192,162419,1,0,0:0:0:70:VEC3 Snares 021.wav
320,192,162596,1,2,0:0:0:0:
192,192,162772,1,0,0:0:0:0:
320,192,162949,1,0,0:0:0:0:
192,192,163213,1,0,0:0:0:70:VEC3 Snares 021.wav
448,192,163302,1,2,0:0:0:0:
192,192,163478,1,0,0:0:0:70:VEC3 Snares 021.wav
448,192,163654,1,0,0:0:0:0:
192,192,163831,1,0,0:0:0:70:VEC3 Snares 021.wav
64,192,164007,1,2,0:0:0:0:
448,192,164007,1,0,0:0:0:0:
192,192,164360,1,0,0:0:0:0:
64,192,164625,1,0,0:0:0:70:VEC3 Snares 021.wav
320,192,164713,1,2,0:0:0:0:
64,192,164890,1,0,0:0:0:70:VEC3 Snares 021.wav
320,192,165066,1,0,0:0:0:0:
64,192,165243,1,0,0:0:0:70:VEC3 Snares 021.wav
192,192,165419,1,2,0:0:0:0:
448,192,165596,1,0,0:0:0:0:
320,192,165772,1,0,0:0:0:0:
192,192,165949,1,0,0:0:0:0:
64,192,166037,1,0,0:0:0:70:VEC3 Snares 021.wav
448,192,166125,1,2,0:0:0:0:
192,192,166302,1,0,0:0:0:70:VEC3 Snares 021.wav
448,192,166478,1,0,0:0:0:0:
192,192,166654,1,0,0:0:0:70:VEC3 Snares 021.wav
64,192,166831,1,2,0:0:0:0:
448,192,166831,1,0,0:0:0:0:
192,192,167184,1,0,0:0:0:0:
64,192,167449,1,0,0:0:0:70:VEC3 Snares 021.wav
320,192,167537,1,2,0:0:0:0:
64,192,167713,1,0,0:0:0:70:VEC3 Snares 021.wav
448,192,167890,1,0,0:0:0:0:
320,192,168066,1,0,0:0:0:70:VEC3 Snares 021.wav
64,192,168243,1,2,0:0:0:0:
192,192,168419,1,0,0:0:0:0:
320,192,168596,1,0,0:0:0:0:
192,192,168860,1,0,0:0:0:70:VEC3 Snares 021.wav
448,192,168949,1,2,0:0:0:0:
192,192,169125,1,0,0:0:0:70:VEC3 Snares 021.wav
448,192,169302,1,0,0:0:0:0:
192,192,169478,1,0,0:0:0:70:VEC3 Snares 021.wav
64,192,169654,1,2,0:0:0:0:
448,192,169654,1,0,0:0:0:0:
192,192,170007,1,0,0:0:0:0:
320,192,170272,1,0,0:0:0:70:VEC3 Snares 021.wav
64,192,170360,1,2,0:0:0:0:
320,192,170537,1,0,0:0:0:70:VEC3 Snares 021.wav
64,192,170713,1,0,0:0:0:0:
192,192,170890,1,0,0:0:0:70:VEC3 Snares 021.wav
320,192,170978,1,0,0:0:0:0:
64,192,171066,1,4,0:0:0:0:
448,192,171066,128,0,173890:0:0:0:0:
