osu file format v14

[General]
AudioFilename: audio.ogg
AudioLeadIn: 0
PreviewTime: 35970
Countdown: 0
SampleSet: Soft
StackLeniency: 0.7
Mode: 0
LetterboxInBreaks: 0
WidescreenStoryboard: 0

[Editor]
Bookmarks: 6064,9064,12064,24064,30064,33064,36064,48064,54064,57064
DistanceSpacing: 0.9
BeatDivisor: 4
GridSize: 32
TimelineZoom: 1.5

[Metadata]
Title:INTERNET ANGEL
TitleUnicode:INTERNET ANGEL
Artist:Aiobahn
ArtistUnicode:Aiobahn
Creator:bnmc
Version::pray: BLESS :pray:
Source:NEEDY GIRL OVERDOSE
Tags:japanese instrumental novelty electronic video game vgm NEEDY STREAMER OVERLOAD ニーディーガールオーバードーズ OST Why so serious? WSS playground 超絶最かわてんしちゃん OMGkawaiiAngel 超てんちゃん KAngel あめちゃん ame-chan Xemono peposoft にゃるら nyalra nyarura Gorou Wanpachi Cycopton CClemon Yua -Yua
BeatmapID:4179909
BeatmapSetID:2009205

[Difficulty]
HPDrainRate:5
CircleSize:4.4
OverallDifficulty:9
ApproachRate:9.5
SliderMultiplier:1.85
SliderTickRate:1

[Events]
//Background and Video events
0,0,"i can fix her.jpg",0,0
//Break Periods
//Storyboard Layer 0 (Background)
//Storyboard Layer 1 (Fail)
//Storyboard Layer 2 (Pass)
//Storyboard Layer 3 (Foreground)
//Storyboard Layer 4 (Overlay)
//Storyboard Sound Samples

[TimingPoints]
64,375,4,2,1,55,1,0
2501,-100,4,2,2,55,0,0
2689,-80,4,2,1,55,0,0
2970,-80,4,2,1,5,0,0
3064,-100,4,2,1,55,0,0
5501,-100,4,2,2,55,0,0
5689,-100,4,2,1,55,0,0
6064,-100,4,2,1,55,0,0
6626,-90.9090909090909,4,2,1,55,0,0
6814,-90.9090909090909,4,2,2,60,0,0
6907,-90.9090909090909,4,2,1,60,0,0
7189,-125,4,2,1,60,0,0
7564,-100,4,2,1,63,0,0
8501,-100,4,2,2,63,0,0
8689,-100,4,2,1,63,0,0
9064,-83.3333333333333,4,2,20,65,0,0
9157,-83.3333333333333,4,2,1,65,0,0
9814,-80,4,2,20,65,0,0
10001,-80,4,2,2,65,0,0
10189,-80,4,2,1,65,0,0
10376,-80,4,2,2,65,0,0
10564,-76.9230769230769,4,2,20,65,0,0
10939,-76.9230769230769,4,2,21,65,0,0
11032,-76.9230769230769,4,2,1,65,0,0
11314,-76.9230769230769,4,2,22,65,0,0
11407,-76.9230769230769,4,2,1,65,0,0
11689,-76.9230769230769,4,2,21,67,0,0
11782,-76.9230769230769,4,2,1,67,0,0
12064,-66.6666666666667,4,2,1,70,0,0
12157,-66.6666666666667,4,2,1,5,0,0
12251,-80,4,2,1,70,0,0
12439,-80,4,2,3,70,0,0
12626,-80,4,2,1,70,0,0
14689,-142.857142857143,4,2,1,70,0,0
14970,-142.857142857143,4,2,1,5,0,0
15064,-80,4,2,1,70,0,0
15439,-80,4,2,3,70,0,0
15626,-80,4,2,1,70,0,0
17689,-80,4,2,3,70,0,0
18064,-66.6666666666667,4,2,1,70,0,0
18157,-66.6666666666667,4,2,1,5,0,0
18251,-66.6666666666667,4,2,1,70,0,0
18439,-66.6666666666667,4,2,3,70,0,0
18626,-66.6666666666667,4,2,1,70,0,0
20689,-142.857142857143,4,2,1,70,0,0
20970,-142.857142857143,4,2,1,5,0,0
21064,-80,4,2,1,70,0,0
21439,-80,4,2,3,70,0,0
21626,-80,4,2,1,70,0,0
23314,-80,4,2,3,70,0,0
23689,-80,4,2,3,80,0,0
24064,-66.6666666666667,4,2,1,70,0,0
24345,-66.6666666666667,4,2,1,5,0,0
24439,-66.6666666666667,4,2,3,70,0,0
24626,-66.6666666666667,4,2,1,70,0,0
25189,-80,4,2,1,70,0,0
25470,-80,4,2,1,5,0,0
25564,-80,4,2,1,70,0,0
26970,-80,4,2,1,5,0,0
27064,-80,4,2,1,70,0,0
27439,-80,4,2,3,70,0,0
27626,-80,4,2,1,70,0,0
28470,-80,4,2,1,5,0,0
28564,-80,4,2,1,70,0,0
29689,-142.857142857143,4,2,1,70,0,0
29970,-142.857142857143,4,2,1,5,0,0
30064,-80,4,2,2,63,0,0
30439,-80,4,2,3,63,0,0
30532,-80,4,2,2,63,0,0
30814,-66.6666666666667,4,2,2,63,0,0
31564,-76.9230769230769,4,2,2,65,0,0
32314,-66.6666666666667,4,2,2,65,0,0
33064,-64.5161290322581,4,2,20,67,0,0
33157,-64.5161290322581,4,2,2,67,0,0
33814,-47.6190476190476,4,2,20,67,0,0
33907,-47.6190476190476,4,2,2,67,0,0
34564,-55.5555555555556,4,2,20,67,0,0
34657,-55.5555555555556,4,2,2,67,0,0
34939,-45.4545454545455,4,2,23,67,0,0
35032,-45.4545454545455,4,2,2,67,0,0
35314,-47.6190476190476,4,2,22,67,0,0
35407,-47.6190476190476,4,2,2,67,0,0
35689,-47.6190476190476,4,2,21,70,0,0
35782,-47.6190476190476,4,2,3,70,0,0
36064,-45.4545454545455,4,2,11,75,0,1
36439,-47.6190476190476,4,2,11,75,0,1
36814,-47.6190476190476,4,2,12,75,0,1
37189,-40.8163265306122,4,2,12,75,0,1
37564,-47.6190476190476,4,2,12,75,0,1
37751,-50,4,2,12,75,0,1
38314,-45.4545454545455,4,2,12,75,0,1
38689,-90.9090909090909,4,2,12,75,0,1
39064,-45.4545454545455,4,2,11,75,0,1
39626,-47.6190476190476,4,2,11,75,0,1
39814,-47.6190476190476,4,2,12,75,0,1
40189,-45.4545454545455,4,2,12,75,0,1
40564,-47.6190476190476,4,2,12,75,0,1
41689,-47.6190476190476,4,2,3,75,0,1
42064,-45.4545454545455,4,2,11,75,0,1
42439,-47.6190476190476,4,2,11,75,0,1
42814,-47.6190476190476,4,2,12,75,0,1
43189,-43.4782608695652,4,2,12,75,0,1
43564,-47.6190476190476,4,2,12,75,0,1
44314,-44.4444444444445,4,2,12,75,0,1
44689,-90.9090909090909,4,2,12,75,0,1
45064,-45.4545454545455,4,2,11,75,0,1
45626,-44.4444444444445,4,2,11,75,0,1
45814,-45.4545454545455,4,2,12,75,0,1
46189,-45.4545454545455,4,2,11,75,0,1
46564,-37.7358490566038,4,2,11,75,0,1
46751,-37.7358490566038,4,2,12,75,0,1
46939,-35.0877192982456,4,2,12,75,0,1
47314,-38.4615384615385,4,2,3,75,0,1
47689,-38.4615384615385,4,2,3,85,0,1
48064,-45.4545454545455,4,2,11,75,0,1
48345,-47.6190476190476,4,2,11,75,0,1
48814,-47.6190476190476,4,2,12,75,0,1
49189,-45.4545454545455,4,2,12,75,0,1
49564,-52.6315789473684,4,2,12,75,0,1
49939,-47.6190476190476,4,2,12,75,0,1
51064,-45.4545454545455,4,2,11,75,0,1
51814,-45.4545454545455,4,2,12,75,0,1
52564,-47.6190476190476,4,2,12,75,0,1
53314,-45.4545454545455,4,2,12,75,0,1
53689,-90.9090909090909,4,2,12,75,0,1
54064,-39.2156862745098,4,2,13,70,0,1
54157,-39.2156862745098,4,2,14,70,0,1
54251,-39.2156862745098,4,2,13,70,0,1
54345,-46.5116279069767,4,2,13,70,0,1
54439,-46.5116279069767,4,2,14,70,0,1
54532,-46.5116279069767,4,2,13,70,0,1
54720,-46.5116279069767,4,2,14,70,0,1
55189,-44.4444444444445,4,2,13,70,0,1
55282,-44.4444444444445,4,2,14,70,0,1
55564,-41.6666666666667,4,2,13,73,0,1
55657,-41.6666666666667,4,2,14,73,0,1
55939,-46.5116279069767,4,2,13,73,0,1
56032,-46.5116279069767,4,2,14,73,0,1
56314,-46.5116279069767,4,2,13,73,0,1
56407,-46.5116279069767,4,2,14,73,0,1
56689,-46.5116279069767,4,2,13,73,0,1
56782,-46.5116279069767,4,2,14,73,0,1
57064,-37.7358490566038,4,2,30,73,0,1
57157,-37.7358490566038,4,2,14,73,0,1
57251,-37.7358490566038,4,2,13,73,0,1
57345,-45.4545454545455,4,2,13,73,0,1
57439,-45.4545454545455,4,2,14,73,0,1
57532,-45.4545454545455,4,2,13,73,0,1
57720,-45.4545454545455,4,2,14,73,0,1
57814,-39.2156862745098,4,2,20,73,0,1
58001,-45.4545454545455,4,2,20,73,0,1
58189,-45.4545454545455,4,2,13,73,0,1
58564,-36.3636363636364,4,2,30,73,0,1
58657,-36.3636363636364,4,2,14,73,0,1
58939,-44.4444444444445,4,2,23,73,0,1
59314,-44.4444444444445,4,2,22,73,0,1
59689,-45.4545454545455,4,2,21,85,0,1
59782,-45.4545454545455,4,2,3,85,0,1
60064,-1000,4,2,3,85,0,0

[Colours]
Combo1 : 239,63,67
Combo2 : 232,170,244
Combo3 : 56,118,118
Combo4 : 190,142,249

[HitObjects]
35,293,64,6,0,B|126:321|116:227|215:259,1,185,14|10,0:0|0:1,0:0:0:0:
365,357,626,2,0,P|301:291|284:194,1,185,10|8,0:0|0:1,0:0:0:0:
211,346,1189,1,10,0:0:0:0:
222,355,1564,6,0,B|306:344|306:344|316:352|316:352|410:342,1,185,10|8,0:0|0:1,0:0:0:0:
499,332,2126,1,10,0:0:0:0:
340,255,2314,1,2,0:0:0:0:
340,255,2407,1,2,0:0:0:0:
340,255,2501,1,10,0:1:0:0:
485,136,2689,2,0,B|459:125|448:94|448:94|434:211,1,173.4375,10|0,0:0|0:0,0:0:0:0:
457,289,3064,6,0,B|357:304|395:216|277:230,1,185,10|10,0:0|0:1,0:0:0:0:
172,319,3626,2,0,B|194:285|220:280|220:280|201:142,1,185,10|8,0:0|0:1,0:0:0:0:
193,80,4189,1,10,0:0:0:0:
193,80,4376,1,2,1:2:0:0:
13,144,4564,6,0,B|45:107|99:120|99:120|131:167|189:167,1,185,10|8,0:0|0:1,0:0:0:0:
261,134,5126,1,10,0:0:0:0:
96,219,5314,1,2,0:0:0:0:
96,219,5407,1,2,0:0:0:0:
96,219,5501,1,10,0:1:0:0:
184,93,5689,1,10,0:0:0:0:
228,218,5876,1,2,0:0:0:0:
415,160,6064,6,0,B|377:120|381:72|381:72|357:115|307:129,1,185,14|10,1:2|1:1,0:0:0:0:
304,36,6626,2,0,B|224:32|224:32|218:38|218:38|144:34,1,152.625004657746,10|0,1:2|1:0,0:0:0:0:
77,29,7001,1,8,1:1:0:0:
192,149,7189,2,0,L|184:102,3,37,10|0|0|0,1:2|1:0|1:0|1:0,0:0:0:0:
135,212,7564,6,0,B|102:273|102:273|133:350,1,138.75,10|0,1:2|1:0,0:0:0:0:
196,281,7939,1,8,1:1:0:0:
25,255,8126,1,10,1:2:0:0:
207,172,8314,1,2,1:2:0:0:
207,172,8407,1,2,1:2:0:0:
207,172,8501,1,10,1:1:0:0:
114,343,8689,1,10,1:2:0:0:
152,318,8782,1,0,1:0:0:0:
195,301,8876,1,0,1:0:0:0:
241,299,8970,1,0,1:0:0:0:
292,319,9064,6,0,B|364:371|444:349|444:349|398:332|395:283,1,221.999993225098,14|10,1:2|1:1,0:0:0:0:
220,381,9626,1,10,1:2:0:0:
349,225,9814,2,0,B|316:220|301:190|301:190|306:220|292:244,1,115.625,4|10,3:2|1:1,0:0:0:0:
377,106,10189,1,10,1:2:0:0:
217,210,10376,1,0,3:2:0:0:
411,310,10564,6,0,B|429:282|460:273|460:273|434:142,1,180.374991743088,14|0,1:2|1:0,0:0:0:0:
414,81,10939,2,0,B|390:59|390:59|402:34|402:34|425:52|425:52|415:83,1,120.249994495392,14|10,1:2|1:2,0:0:0:0:
296,191,11314,1,6,1:2:0:0:
296,191,11407,1,2,1:2:0:0:
296,191,11501,2,0,P|328:178|364:174,1,60.1249972476961,10|0,1:2|1:0,0:0:0:0:
253,271,11689,5,14,1:2:0:0:
227,241,11783,1,0,1:0:0:0:
178,211,11877,1,10,1:2:0:0:
107,199,11971,1,0,1:0:0:0:
25,220,12064,6,0,P|35:182|36:134,1,69.3750026464463,14|0,0:0|0:0,0:0:0:0:
147,299,12251,1,2,3:2:0:0:
94,96,12439,1,10,0:3:0:0:
35,323,12626,1,2,3:2:0:0:
187,138,12814,5,10,0:2:0:0:
5,236,13001,1,2,3:2:0:0:
257,284,13189,1,10,0:3:0:0:
82,222,13376,1,2,3:2:0:0:
318,107,13564,6,0,P|321:168|335:221,1,115.625,10|2,0:2|3:2,0:0:0:0:
439,141,13939,1,10,0:3:0:0:
216,183,14126,1,2,3:2:0:0:
386,26,14314,5,10,0:2:0:0:
286,276,14501,1,2,3:2:0:0:
473,116,14689,2,0,B|430:111|430:111|422:115|422:115|369:109,1,97.1249970359803,10|0,0:3|0:0,0:0:0:0:
312,68,15064,6,0,L|195:77,1,115.625,10|2,0:2|3:2,0:0:0:0:
422,1,15439,1,10,0:3:0:0:
340,195,15626,1,2,3:2:0:0:
178,51,15814,5,10,0:2:0:0:
420,108,16001,1,2,3:2:0:0:
236,217,16189,1,10,0:3:0:0:
303,23,16376,1,2,3:2:0:0:
398,241,16564,2,0,P|461:226|524:226,1,115.625,10|2,0:2|3:2,0:0:0:0:
296,171,16939,1,10,0:3:0:0:
366,366,17126,1,2,3:2:0:0:
158,280,17314,5,10,0:2:0:0:
414,219,17501,1,2,3:2:0:0:
264,103,17689,5,10,0:3:0:0:
195,122,17783,1,2,0:3:0:0:
134,153,17877,1,2,3:3:0:0:
86,203,17970,1,2,0:3:0:0:
31,271,18064,6,0,P|20:238|0:211,1,69.3750026464463,10|0,0:2|0:0,0:0:0:0:
141,322,18251,1,2,3:2:0:0:
46,114,18439,1,10,0:3:0:0:
259,209,18626,1,2,3:2:0:0:
10,244,18814,5,10,0:2:0:0:
250,294,19001,1,2,3:2:0:0:
174,75,19189,1,10,0:3:0:0:
122,307,19376,1,2,3:2:0:0:
279,174,19564,6,0,P|336:192|417:201,1,138.750005292893,10|2,0:2|3:2,0:0:0:0:
512,127,19939,1,10,0:3:0:0:
336,281,20126,1,2,3:2:0:0:
360,79,20314,5,10,0:2:0:0:
497,307,20501,1,2,3:2:0:0:
340,160,20689,2,0,B|294:164|294:164|285:160|285:160|240:165,1,97.1249970359803,10|0,0:3|0:0,0:0:0:0:
189,225,21064,6,0,B|159:175|159:175|179:121,1,115.625,10|2,0:2|3:2,0:0:0:0:
61,264,21439,1,10,0:3:0:0:
293,292,21626,1,2,3:2:0:0:
119,149,21814,5,10,0:2:0:0:
183,364,22001,1,2,3:2:0:0:
340,178,22189,1,10,0:3:0:0:
100,236,22376,1,2,3:2:0:0:
272,59,22564,5,10,0:2:0:0:
220,283,22751,1,2,3:2:0:0:
98,81,22939,1,10,0:3:0:0:
341,203,23126,1,2,3:2:0:0:
356,19,23314,5,10,0:2:0:0:
311,54,23407,1,2,0:3:0:0:
244,58,23501,1,2,3:2:0:0:
174,29,23595,1,2,0:3:0:0:
95,2,23689,1,10,0:3:0:0:
16,38,23782,1,2,0:3:0:0:
15,128,23876,1,2,3:2:0:0:
102,168,23970,1,2,0:3:0:0:
196,120,24064,6,0,B|179:168|215:221|215:221|177:245|167:310,1,208.125007939339,12|0,0:0|0:0,0:0:0:0:
199,379,24439,1,10,0:3:0:0:
17,205,24626,1,0,3:2:0:0:
250,226,24814,5,10,0:2:0:0:
90,357,25001,1,2,3:2:0:0:
318,298,25189,2,0,B|376:298|436:322|436:322|410:298|407:264,1,173.4375,10|0,0:3|0:0,0:0:0:0:
483,259,25564,6,0,B|473:202|473:202|478:193|478:193|470:143,1,115.625,8|0,0:2|3:2,0:0:0:0:
446,19,25939,1,8,0:3:0:0:
351,207,26126,1,0,3:2:0:0:
512,182,26314,5,10,0:2:0:0:
274,146,26501,1,2,3:2:0:0:
430,14,26689,2,0,B|390:50|391:91|391:91|375:45|329:26,1,173.4375,10|0,0:3|0:0,0:0:0:0:
293,111,27064,6,0,P|238:130|178:137,1,115.625,8|0,0:2|3:2,0:0:0:0:
61,97,27439,1,10,0:3:0:0:
261,219,27626,1,0,3:2:0:0:
215,16,27814,5,10,0:2:0:0:
99,202,28001,1,2,3:2:0:0:
307,45,28189,2,0,B|282:109|334:161|334:161|335:127|362:98,1,173.4375,10|0,0:3|0:0,0:0:0:0:
413,160,28564,5,10,0:2:0:0:
211,111,28751,1,2,3:2:0:0:
254,324,28939,1,10,0:3:0:0:
347,117,29126,1,2,3:2:0:0:
441,305,29314,5,10,0:2:0:0:
195,208,29501,1,2,3:2:0:0:
331,344,29689,2,0,B|289:338|289:338|282:342|282:342|224:335,1,97.1249970359803,10|0,0:3|0:0,0:0:0:0:
129,374,30064,6,0,B|140:350|163:341|163:341|151:269,1,115.625,12|0,1:2|3:2,0:0:0:0:
77,208,30439,1,10,1:3:0:0:
81,179,30532,1,0,1:0:0:0:
86,150,30626,1,0,3:2:0:0:
91,121,30720,1,0,1:0:0:0:
95,92,30814,6,0,P|59:103|19:108,1,69.3750026464463,10|0,1:2|1:0,0:0:0:0:
194,66,31001,2,0,P|201:29|216:-7,1,69.3750026464463,2|0,3:2|1:0,0:0:0:0:
170,164,31189,2,0,B|244:150|225:205|303:193,1,138.750005292893,10|0,1:3|3:2,0:0:0:0:
362,138,31470,5,0,1:0:0:0:
362,138,31564,2,0,B|384:196|384:196|353:256,1,120.249994495392,12|0,1:2|3:2,0:0:0:0:
279,60,31939,1,8,1:3:0:0:
491,105,32126,5,0,3:2:0:0:
491,105,32220,1,0,1:0:0:0:
491,105,32314,2,0,L|414:88,1,69.3750026464463,10|0,1:2|1:0,0:0:0:0:
295,44,32501,2,0,L|315:110,1,69.3750026464463,2|0,3:2|1:0,0:0:0:0:
337,243,32689,2,0,L|383:191,1,69.3750026464463,10|0,1:3|1:0,0:0:0:0:
257,189,32876,5,0,3:2:0:0:
257,189,32970,1,0,1:0:0:0:
257,189,33064,2,0,B|223:191|182:181|182:181|127:219|127:219|84:209|42:209,1,215.062501640797,12|0,1:2|1:0,0:0:0:0:
0,162,33439,1,8,1:3:0:0:
147,299,33626,5,0,3:2:0:0:
147,299,33720,1,0,1:0:0:0:
147,299,33814,2,0,B|136:337|167:355|167:355|162:333|172:309,1,97.1249970359803,14|0,1:2|1:0,0:0:0:0:
288,183,34001,2,0,B|260:154|229:172|229:172|251:178|266:199,1,97.1249970359803,2|0,3:2|1:0,0:0:0:0:
319,376,34189,2,0,B|357:366|357:330|357:330|340:346|315:349,1,97.1249970359803,10|0,1:3|1:0,0:0:0:0:
257,282,34376,5,0,3:2:0:0:
257,282,34470,1,0,1:0:0:0:
257,282,34564,2,0,B|333:275|333:275|342:282|342:282|425:275,1,166.499994918823,14|2,1:2|3:2,0:0:0:0:
502,299,34845,5,0,1:0:0:0:
502,299,34939,2,0,B|541:229|506:169|506:169|496:202|462:219,1,203.500006210327,14|2,1:3|3:2,0:0:0:0:
447,126,35221,5,0,1:0:0:0:
447,126,35314,2,0,B|456:110|478:103|478:103|404:42|314:80|314:80|304:119|263:137,1,291.374991107941,14|0,1:2|1:0,0:0:0:0:
131,79,35689,5,14,0:3:0:0:
183,139,35782,1,2,0:3:0:0:
202,218,35876,1,2,3:3:0:0:
186,306,35970,1,2,0:2:0:0:
39,354,36064,6,0,B|140:320|128:420|235:382,1,203.500006210327,14|2,1:2|3:2,0:0:0:0:
288,318,36345,1,0,1:0:0:0:
288,318,36439,2,0,B|279:273|279:273|283:264|283:264|274:214,1,97.1249970359803,10|0,0:3|1:0,0:0:0:0:
171,121,36626,2,0,B|162:164|162:164|166:172|166:172|157:222,1,97.1249970359803,2|0,3:2|0:0,0:0:0:0:
74,149,36814,1,10,0:2:0:0:
362,269,37001,1,2,3:2:0:0:
229,50,37189,6,0,B|298:-16|386:18|386:18|359:38|352:63,1,226.625002161264,10|2,1:3|3:2,0:0:0:0:
512,113,37470,1,0,0:0:0:0:
512,113,37564,2,0,P|471:95|416:86,1,97.1249970359803,10|0,1:2|0:0,0:0:0:0:
304,204,37751,2,0,P|335:175|364:131,1,92.5,2|0,3:2|0:0,0:0:0:0:
458,221,37939,1,10,1:3:0:0:
167,135,38126,1,2,3:2:0:0:
309,344,38314,6,0,B|283:353|271:375|271:375|267:350|248:330,1,101.750003105164,10|0,1:2|0:0,0:0:0:0:
323,170,38501,2,0,B|294:159|283:137|283:137|278:162|262:179,1,101.750003105164,2|0,3:2|0:0,0:0:0:0:
268,256,38689,6,0,L|168:243,1,101.750003105164,10|0,1:3|3:2,0:0:0:0:
24,384,39064,6,0,B|34:366|52:357|52:357|41:294,1,101.750003105164,10|0,1:2|0:0,0:0:0:0:
92,238,39251,1,2,3:2:0:0:
92,238,39345,2,0,B|81:220|63:211|63:211|74:148,1,101.750003105164,0|10,1:0|0:3,0:0:0:0:
23,75,39532,1,0,1:0:0:0:
23,75,39626,2,0,B|62:68|62:68|72:73|72:73|130:64,1,97.1249970359803,2|0,3:2|0:0,0:0:0:0:
196,57,39814,1,10,0:2:0:0:
117,314,40001,1,2,3:2:0:0:
413,163,40189,6,0,B|352:117|269:132|269:132|261:160|227:177,1,203.500006210327,10|2,1:3|3:2,0:0:0:0:
145,149,40470,1,0,0:0:0:0:
145,149,40564,2,0,P|165:194|172:240,1,97.1249970359803,10|0,1:2|0:0,0:0:0:0:
323,211,40751,2,0,P|281:239|250:273,1,97.1249970359803,2|0,3:2|0:0,0:0:0:0:
262,102,40939,1,10,1:3:0:0:
360,384,41126,1,2,3:2:0:0:
504,122,41314,6,0,B|525:153|512:178|512:178|505:158|482:146,1,97.1249970359803,10|0,1:2|0:0,0:0:0:0:
347,217,41501,2,0,B|336:179|356:159|356:159|356:180|374:200,1,97.1249970359803,2|0,3:2|0:0,0:0:0:0:
456,118,41689,5,10,0:3:0:0:
389,156,41782,1,2,0:3:0:0:
310,155,41876,1,2,3:3:0:0:
233,138,41970,1,2,0:3:0:0:
187,45,42064,6,0,B|166:79|134:90|134:90|156:233,1,203.500006210327,10|2,1:2|3:2,0:0:0:0:
179,309,42345,1,0,1:0:0:0:
179,309,42439,2,0,P|130:291|73:289,1,97.1249970359803,10|0,0:3|1:0,0:0:0:0:
8,197,42626,2,0,P|56:193|101:176,1,97.1249970359803,2|0,3:2|0:0,0:0:0:0:
37,104,42814,1,10,0:2:0:0:
119,384,43001,1,2,3:2:0:0:
140,109,43189,6,0,B|243:82|229:187|340:154,1,212.750004057884,10|2,1:3|3:2,0:0:0:0:
419,107,43470,1,0,0:0:0:0:
419,107,43564,2,0,B|411:152|411:152|415:160|415:160|406:215,1,97.1249970359803,10|0,1:2|0:0,0:0:0:0:
305,285,43751,2,0,B|298:243|298:243|302:235|302:235|294:190,1,97.1249970359803,2|0,3:2|0:0,0:0:0:0:
420,322,43939,1,10,1:3:0:0:
321,66,44126,1,2,3:2:0:0:
271,361,44314,6,0,B|226:332|226:332|169:341,1,104.062503969669,10|0,1:2|0:0,0:0:0:0:
216,183,44501,2,0,B|261:212|261:212|310:204,1,104.062503969669,2|0,3:2|0:0,0:0:0:0:
155,252,44689,6,0,L|54:233,1,101.750003105164,10|0,1:3|3:2,0:0:0:0:
0,44,45064,6,0,B|44:37|44:37|52:40|52:40|101:34,1,101.750003105164,10|0,1:2|0:0,0:0:0:0:
184,0,45251,1,2,3:2:0:0:
184,0,45345,2,0,B|180:25|195:49|195:49|173:60|165:99,1,101.750003105164,0|10,1:0|0:3,0:0:0:0:
252,179,45532,1,0,1:0:0:0:
252,179,45626,2,0,B|229:159|228:133|228:133|214:156|186:166,1,104.062503969669,2|0,3:2|0:0,0:0:0:0:
185,384,45814,1,10,0:2:0:0:
0,140,46001,1,2,3:2:0:0:
237,123,46189,5,10,1:3:0:0:
282,98,46282,1,0,1:0:0:0:
351,87,46376,1,2,3:2:0:0:
432,112,46470,1,0,1:0:0:0:
497,181,46564,6,0,B|440:242|467:343|467:343|483:302|520:284,1,245.125010285855,10|2,1:2|3:2,0:0:0:0:
302,81,46939,6,0,B|295:54|272:39|272:39|357:25|428:64|428:64|400:71|387:89,1,263.625002514124,10|2,1:3|3:2,0:0:0:0:
382,302,47314,5,10,0:2:0:0:
319,267,47407,1,2,0:3:0:0:
242,265,47501,1,2,3:2:0:0:
172,304,47595,1,2,0:3:0:0:
103,363,47689,1,10,0:3:0:0:
4,339,47782,1,2,0:3:0:0:
0,235,47876,1,2,3:2:0:0:
87,187,47970,1,2,0:3:0:0:
191,211,48064,6,0,B|197:156|159:116|159:116|199:83|205:24,1,203.500006210327,12|0,1:2|3:2,0:0:0:0:
256,126,48345,2,0,B|298:121|298:121|305:126|305:126|355:121,1,97.1249970359803,0|10,1:0|0:3,0:0:0:0:
404,249,48532,1,0,1:0:0:0:
404,249,48626,2,0,B|361:244|361:244|355:249|355:249|305:244,1,97.1249970359803,0|0,3:2|0:0,0:0:0:0:
481,146,48814,1,10,0:2:0:0:
367,379,49001,1,2,3:2:0:0:
370,101,49189,6,0,B|328:68|269:81|269:81|243:132|187:134,1,203.500006210327,10|0,1:3|3:2,0:0:0:0:
131,74,49470,1,0,0:0:0:0:
131,74,49564,2,0,B|100:115|110:157|110:157|85:119|39:103,1,175.749995306969,8|0,1:2|3:2,0:0:0:0:
41,316,49939,6,0,B|127:321|127:321|135:329|135:329|234:335,1,194.249994071961,8|0,1:3|3:2,0:0:0:0:
327,364,50220,5,0,0:0:0:0:
327,364,50314,2,0,B|304:334|311:306|311:306|321:324|342:334,1,97.1249970359803,10|0,1:2|0:0,0:0:0:0:
512,286,50501,2,0,B|497:320|470:327|470:327|480:311|478:288,1,97.1249970359803,2|0,3:2|0:0,0:0:0:0:
322,178,50689,2,0,P|377:169|417:152,1,97.1249970359803,10|0,1:3|0:0,0:0:0:0:
393,257,50876,1,0,3:2:0:0:
330,51,51064,6,0,B|299:52|279:66|279:66|261:47|229:46,1,101.750003105164,8|0,1:2|0:0,0:0:0:0:
162,89,51251,1,0,3:2:0:0:
162,89,51345,2,0,B|174:109|194:117|194:117|183:189,1,101.750003105164,0|10,1:0|0:3,0:0:0:0:
244,226,51532,1,0,1:0:0:0:
244,226,51626,2,0,B|232:246|212:254|212:254|223:326,1,101.750003105164,0|0,3:2|0:0,0:0:0:0:
238,384,51814,1,10,0:2:0:0:
1,155,52001,1,2,3:2:0:0:
278,130,52189,6,0,B|180:114|211:211|86:187,1,203.500006210327,10|0,1:3|3:2,0:0:0:0:
25,140,52470,1,0,0:0:0:0:
25,140,52564,2,0,P|41:89|42:44,1,97.1249970359803,10|0,1:2|0:0,0:0:0:0:
185,104,52751,2,0,P|186:152|202:198,1,97.1249970359803,2|0,3:2|0:0,0:0:0:0:
82,240,52939,1,10,1:3:0:0:
290,27,53126,1,2,3:2:0:0:
187,298,53314,6,0,B|226:294|259:287|259:287|318:317|318:317|351:311|387:307,1,203.500006210327,10|2,1:2|3:2,0:0:0:0:
455,345,53595,1,0,0:0:0:0:
455,345,53689,2,0,B|466:292|466:292|431:247,1,101.750003105164,10|0,1:3|3:2,0:0:0:0:
495,96,54064,6,0,B|434:45|331:66|331:66|364:83|374:119,1,235.874996850729,12|0,1:2|3:2,0:0:0:0:
296,136,54345,2,0,B|291:184|291:184|285:190|285:190|279:240,1,99.4375015172959,0|8,1:0|1:3,0:0:0:0:
237,57,54532,1,0,1:0:0:0:
237,57,54626,2,0,B|285:52|285:52|291:46|291:46|341:40,1,99.4375015172959,0|0,3:2|1:0,0:0:0:0:
174,141,54814,5,10,1:2:0:0:
144,136,54907,1,0,1:0:0:0:
114,130,55001,2,0,L|9:113,1,99.4375015172959,2|0,3:2|1:0,0:0:0:0:
11,249,55189,2,0,B|46:236|60:198|60:198|77:339,1,208.125007939339,10|0,1:3|3:2,0:0:0:0:
151,253,55470,5,0,1:0:0:0:
151,253,55564,2,0,B|194:212|254:232|254:232|288:283|346:287,1,221.999993225098,12|0,1:2|3:2,0:0:0:0:
435,249,55845,1,0,1:0:0:0:
435,249,55939,2,0,P|420:299|414:347,1,99.4375015172959,8|0,1:3|1:0,0:0:0:0:
342,180,56126,1,0,3:2:0:0:
394,112,56220,1,0,1:0:0:0:
356,34,56314,6,0,L|258:24,1,99.4375015172959,10|0,1:2|1:0,0:0:0:0:
231,189,56501,2,0,L|190:99,1,99.4375015172959,2|0,3:2|1:0,0:0:0:0:
360,203,56689,2,0,L|417:123,1,99.4375015172959,10|0,1:3|1:0,0:0:0:0:
289,280,56876,1,0,3:2:0:0:
305,315,56970,1,0,1:0:0:0:
315,352,57064,6,0,B|317:330|340:312|340:312|246:279|258:378|148:344,1,245.125010285855,12|0,1:2|3:2,0:0:0:0:
89,295,57345,2,0,B|81:247|81:247|86:239|86:239|77:191,1,101.750003105164,0|8,1:0|1:3,0:0:0:0:
213,118,57532,1,0,1:0:0:0:
213,118,57626,2,0,B|204:160|204:160|209:168|209:168|201:216,1,101.750003105164,0|0,3:2|1:0,0:0:0:0:
57,63,57814,6,0,B|84:52|114:69|114:69|128:39|164:23,1,117.937498425365,14|0,1:2|1:0,0:0:0:0:
261,66,58001,2,0,B|247:51|245:31|245:31|215:52|231:94,1,101.750003105164,2|0,3:2|1:0,0:0:0:0:
205,183,58189,5,10,1:3:0:0:
257,156,58282,1,0,1:0:0:0:
337,146,58376,1,0,3:2:0:0:
430,178,58470,1,0,1:0:0:0:
507,280,58564,6,0,B|423:270|423:270|413:276|413:276|313:263|313:263|349:261|367:232,1,254.375002425909,14|2,1:2|3:2,0:0:0:0:
250,217,58845,1,0,1:0:0:0:
250,217,58939,2,0,B|280:261|280:261|265:314,1,104.062503969669,14|0,1:3|1:0,0:0:0:0:
431,192,59126,2,0,B|395:153|395:153|401:102,1,104.062503969669,2|0,3:2|1:0,0:0:0:0:
272,114,59314,6,0,P|222:135|162:142,1,104.062503969669,14|0,1:2|1:0,0:0:0:0:
365,2,59501,2,0,P|414:23|475:30,1,104.062503969669,2|0,3:2|1:0,0:0:0:0:
198,50,59689,5,14,0:3:0:0:
111,22,59782,1,2,0:3:0:0:
25,55,59876,1,2,3:3:0:0:
0,143,59970,1,2,0:2:0:0:
