osu file format v14

[General]
AudioFilename: audio.ogg
AudioLeadIn: 0
PreviewTime: 35970
Countdown: 0
SampleSet: Soft
StackLeniency: 0.4
Mode: 0
LetterboxInBreaks: 0
WidescreenStoryboard: 1

[Editor]
Bookmarks: 6064,9064,12064,24064,30064,33064,36064,48064,54064,57064
DistanceSpacing: 0.9
BeatDivisor: 6
GridSize: 32
TimelineZoom: 1.5

[Metadata]
Title:INTERNET ANGEL
TitleUnicode:INTERNET ANGEL
Artist:Aiobahn
ArtistUnicode:Aiobahn
Creator:bnmc
Version:YUA'S EXTRA
Source:NEEDY GIRL OVERDOSE
Tags:japanese instrumental novelty electronic video game vgm NEEDY STREAMER OVERLOAD ニーディーガールオーバードーズ OST Why so serious? WSS playground 超絶最かわてんしちゃん OMGkawaiiAngel 超てんちゃん KAngel あめちゃん ame-chan Xemono peposoft にゃるら nyalra nyarura Gorou Wanpachi Cycopton CClemon Yua -Yua
BeatmapID:4204410
BeatmapSetID:2009205

[Difficulty]
HPDrainRate:5.2
CircleSize:3.8
OverallDifficulty:8.8
ApproachRate:9.2
SliderMultiplier:1.75
SliderTickRate:1

[Events]
//Background and Video events
0,0,"i can fix her.jpg",0,0
//Break Periods
//Storyboard Layer 0 (Background)
//Storyboard Layer 1 (Fail)
//Storyboard Layer 2 (Pass)
//Storyboard Layer 3 (Foreground)
//Storyboard Layer 4 (Overlay)
//Storyboard Sound Samples

[TimingPoints]
64,375,4,2,1,55,1,0
64,-100,4,2,1,55,0,0
2501,-100,4,2,2,55,0,0
2689,-80,4,2,1,55,0,0
2970,-80,4,2,1,55,0,0
3064,-100,4,2,1,55,0,0
5501,-100,4,2,2,55,0,0
5689,-100,4,2,1,55,0,0
6064,-83.3333333333333,4,2,1,55,0,0
6814,-83.3333333333333,4,2,2,60,0,0
6907,-83.3333333333333,4,2,1,60,0,0
7564,-83.3333333333333,4,2,1,63,0,0
8501,-83.3333333333333,4,2,2,63,0,0
8689,-83.3333333333333,4,2,1,63,0,0
9064,-83.3333333333333,4,2,20,65,0,0
9157,-83.3333333333333,4,2,1,65,0,0
9814,-83.3333333333333,4,2,20,65,0,0
10001,-83.3333333333333,4,2,2,65,0,0
10189,-83.3333333333333,4,2,1,65,0,0
10376,-83.3333333333333,4,2,2,65,0,0
10564,-71.4285714285714,4,2,20,65,0,0
10939,-71.4285714285714,4,2,21,65,0,0
11032,-71.4285714285714,4,2,1,65,0,0
11314,-71.4285714285714,4,2,22,65,0,0
11407,-71.4285714285714,4,2,1,65,0,0
11689,-71.4285714285714,4,2,21,67,0,0
11782,-71.4285714285714,4,2,1,67,0,0
12064,-71.4285714285714,4,2,1,70,0,0
12157,-71.4285714285714,4,2,1,70,0,0
12251,-71.4285714285714,4,2,1,70,0,0
12439,-71.4285714285714,4,2,3,70,0,0
12626,-71.4285714285714,4,2,1,70,0,0
14970,-71.4285714285714,4,2,1,70,0,0
15064,-71.4285714285714,4,2,1,70,0,0
15439,-71.4285714285714,4,2,3,70,0,0
15626,-71.4285714285714,4,2,1,70,0,0
17689,-71.4285714285714,4,2,3,70,0,0
18064,-71.4285714285714,4,2,1,70,0,0
18157,-71.4285714285714,4,2,1,70,0,0
18251,-71.4285714285714,4,2,1,70,0,0
18439,-71.4285714285714,4,2,3,70,0,0
18626,-71.4285714285714,4,2,1,70,0,0
20970,-71.4285714285714,4,2,1,70,0,0
21064,-71.4285714285714,4,2,1,70,0,0
21439,-71.4285714285714,4,2,3,70,0,0
21626,-71.4285714285714,4,2,1,70,0,0
23314,-71.4285714285714,4,2,3,70,0,0
23689,-71.4285714285714,4,2,3,80,0,0
24064,-66.6666666666667,4,2,1,70,0,0
24439,-66.6666666666667,4,2,3,70,0,0
24626,-62.5,4,2,1,70,0,0
25470,-62.5,4,2,1,70,0,0
25564,-62.5,4,2,1,70,0,0
26970,-62.5,4,2,1,70,0,0
27064,-62.5,4,2,1,70,0,0
27439,-62.5,4,2,3,70,0,0
27626,-62.5,4,2,1,70,0,0
28470,-62.5,4,2,1,70,0,0
28564,-62.5,4,2,1,70,0,0
29970,-62.5,4,2,1,70,0,0
30064,-62.5,4,2,2,63,0,0
30439,-62.5,4,2,3,63,0,0
30532,-62.5,4,2,2,63,0,0
30814,-83.3333333333333,4,2,2,63,0,0
31564,-62.5,4,2,2,65,0,0
32314,-83.3333333333333,4,2,2,65,0,0
33064,-62.5,4,2,20,67,0,0
33157,-62.5,4,2,2,67,0,0
33814,-62.5,4,2,20,67,0,0
33907,-62.5,4,2,2,67,0,0
34564,-62.5,4,2,20,67,0,0
34657,-62.5,4,2,2,67,0,0
34939,-62.5,4,2,23,67,0,0
35032,-62.5,4,2,2,67,0,0
35314,-62.5,4,2,22,67,0,0
35407,-62.5,4,2,2,67,0,0
35689,-62.5,4,2,21,70,0,0
35782,-62.5,4,2,3,70,0,0
36064,-58.8235294117647,4,2,11,75,0,0
36814,-58.8235294117647,4,2,12,75,0,0
37470,-58.8235294117647,4,2,12,5,0,0
37564,-58.8235294117647,4,2,12,75,0,0
38689,-71.4285714285714,4,2,12,75,0,0
39064,-58.8235294117647,4,2,11,75,0,0
39814,-58.8235294117647,4,2,12,75,0,0
41314,-71.4285714285714,4,2,12,75,0,0
41689,-90.9090909090909,4,2,3,75,0,0
42064,-58.8235294117647,4,2,11,75,0,0
42814,-58.8235294117647,4,2,12,75,0,0
43470,-58.8235294117647,4,2,12,5,0,0
43564,-58.8235294117647,4,2,12,75,0,0
44689,-71.4285714285714,4,2,12,75,0,0
45064,-58.8235294117647,4,2,11,75,0,0
45814,-58.8235294117647,4,2,12,75,0,0
46189,-58.8235294117647,4,2,11,75,0,0
46751,-58.8235294117647,4,2,12,75,0,0
47314,-58.8235294117647,4,2,3,75,0,0
47689,-58.8235294117647,4,2,3,85,0,0
48064,-58.8235294117647,4,2,11,75,0,0
48814,-58.8235294117647,4,2,12,75,0,0
51064,-58.8235294117647,4,2,11,75,0,0
51814,-58.8235294117647,4,2,12,75,0,0
54064,-55.5555555555556,4,2,13,70,0,0
54157,-55.5555555555556,4,2,14,70,0,0
54251,-55.5555555555556,4,2,13,70,0,0
54439,-55.5555555555556,4,2,14,70,0,0
54532,-55.5555555555556,4,2,13,70,0,0
54720,-55.5555555555556,4,2,14,70,0,0
55189,-55.5555555555556,4,2,13,70,0,0
55282,-55.5555555555556,4,2,14,70,0,0
55564,-55.5555555555556,4,2,13,73,0,0
55657,-55.5555555555556,4,2,14,73,0,0
55939,-55.5555555555556,4,2,13,73,0,0
56032,-55.5555555555556,4,2,14,73,0,0
56314,-55.5555555555556,4,2,13,73,0,0
56407,-55.5555555555556,4,2,14,73,0,0
56689,-55.5555555555556,4,2,13,73,0,0
56782,-55.5555555555556,4,2,14,73,0,0
57064,-55.5555555555556,4,2,30,73,0,0
57157,-55.5555555555556,4,2,14,73,0,0
57251,-55.5555555555556,4,2,13,73,0,0
57439,-55.5555555555556,4,2,14,73,0,0
57532,-55.5555555555556,4,2,13,73,0,0
57720,-55.5555555555556,4,2,14,73,0,0
57814,-55.5555555555556,4,2,20,73,0,0
58189,-55.5555555555556,4,2,13,73,0,0
58564,-55.5555555555556,4,2,30,73,0,0
58657,-55.5555555555556,4,2,14,73,0,0
58939,-55.5555555555556,4,2,23,73,0,0
59314,-55.5555555555556,4,2,22,73,0,0
59689,-55.5555555555556,4,2,21,85,0,0
59782,-55.5555555555556,4,2,3,85,0,0

[Colours]
Combo1 : 239,63,67
Combo2 : 232,170,244
Combo3 : 56,118,118
Combo4 : 190,142,249

[HitObjects]
46,26,64,6,0,P|75:82|74:204,1,175,14|10,0:0|0:1,0:0:0:0:
10,268,626,2,0,P|66:244|74:344,1,175,10|8,0:0|0:1,0:0:0:0:
4,365,1189,1,10,0:0:0:0:
209,240,1564,6,0,B|294:258|254:323|381:333,1,175,10|8,0:0|0:1,0:0:0:0:
446,360,2126,2,0,P|439:338|436:307,1,43.75,10|0,0:0|0:0,0:0:0:0:
500,210,2314,1,2,0:0:0:0:
507,220,2407,1,2,0:0:0:0:
508,231,2501,1,10,0:1:0:0:
436,317,2689,1,10,0:0:0:0:
314,155,3064,6,0,P|400:134|422:34,1,175,10|10,0:0|0:1,0:0:0:0:
338,7,3626,2,0,P|270:43|155:56,1,175,10|8,0:0|0:1,0:0:0:0:
75,93,4189,2,0,L|62:28,1,43.75,10|0,0:0|0:0,0:0:0:0:
84,100,4376,2,0,L|71:35,1,43.75,2|0,1:2|0:0,0:0:0:0:
13,211,4564,6,0,B|54:173|118:174|118:174|125:206|166:229,1,175,10|8,0:0|0:1,0:0:0:0:
172,304,5126,2,0,L|130:313,1,43.75,10|0,0:0|0:0,0:0:0:0:
290,240,5314,1,2,0:0:0:0:
301,241,5408,1,2,0:0:0:0:
311,248,5501,1,10,0:1:0:0:
241,369,5689,1,10,0:0:0:0:
167,296,5876,1,2,0:0:0:0:
283,153,6064,6,0,P|330:147|386:196,1,104.999996795654,14|0,1:2|1:0,0:0:0:0:
446,234,6345,1,0,1:0:0:0:
458,230,6439,2,0,L|469:158,1,52.4999983978272,10|0,1:1|1:0,0:0:0:0:
500,11,6626,2,0,P|427:62|289:52,1,209.999993591309,10|8,1:2|1:1,0:0:0:0:
144,16,7189,1,10,1:2:0:0:
167,26,7282,1,0,1:0:0:0:
186,44,7376,1,0,1:0:0:0:
196,69,7470,1,0,1:0:0:0:
196,95,7564,6,0,P|146:132|79:107,1,104.999996795654,10|0,1:2|1:0,0:0:0:0:
25,176,7845,1,0,1:0:0:0:
37,184,7939,2,0,P|61:219|61:250,1,52.4999983978272,8|0,1:1|1:0,0:0:0:0:
4,359,8126,2,0,P|22:320|49:305,1,52.4999983978272,10|0,1:2|1:0,0:0:0:0:
173,253,8314,1,2,1:2:0:0:
168,278,8407,1,2,1:2:0:0:
164,304,8501,1,10,1:1:0:0:
160,330,8595,1,0,1:0:0:0:
156,356,8689,5,10,1:2:0:0:
207,343,8782,1,0,1:0:0:0:
258,331,8876,1,0,1:0:0:0:
309,319,8970,1,0,1:0:0:0:
360,307,9064,6,0,L|377:225,1,52.4999983978272,14|0,1:2|1:0,0:0:0:0:
371,323,9251,2,0,L|354:405,1,52.4999983978272,0|0,1:0|1:0,0:0:0:0:
472,210,9439,6,0,L|455:127,1,52.4999983978272,10|0,1:1|1:0,0:0:0:0:
462,226,9626,2,0,L|478:308,1,52.4999983978272,10|0,1:2|1:0,0:0:0:0:
306,138,9814,6,0,L|322:55,1,52.4999983978272,4|0,3:2|1:0,0:0:0:0:
316,154,10001,2,0,L|299:236,1,52.4999983978272,10|0,1:1|1:0,0:0:0:0:
507,89,10189,5,10,1:2:0:0:
504,76,10282,1,0,1:0:0:0:
501,63,10376,1,0,3:2:0:0:
499,50,10470,1,0,1:0:0:0:
496,37,10564,6,0,P|440:59|382:-4,1,122.499996261597,14|0,1:2|1:0,0:0:0:0:
316,86,10845,1,0,1:0:0:0:
300,103,10939,2,0,L|228:89,1,61.2499981307984,14|0,1:2|1:0,0:0:0:0:
413,196,11126,2,0,L|473:184,1,61.2499981307984,10|0,1:2|1:0,0:0:0:0:
271,348,11314,5,6,1:2:0:0:
292,311,11407,1,2,1:2:0:0:
287,270,11501,2,0,P|278:236|253:214,1,61.2499981307984,10|0,1:2|1:0,0:0:0:0:
139,284,11689,6,0,L|128:323,2,30.6249990653992,14|0|0,1:2|0:0|1:0,0:0:0:0:
68,222,11876,2,0,L|57:183,2,30.6249990653992,10|0|0,1:2|0:0|1:0,0:0:0:0:
152,143,12064,6,0,P|159:87|179:18,1,122.499996261597,14|2,0:0|3:2,0:0:0:0:
357,152,12439,1,10,0:3:0:0:
139,284,12626,1,2,3:2:0:0:
381,361,12814,6,0,P|374:305|354:236,1,122.499996261597,10|2,0:2|3:2,0:0:0:0:
176,23,13189,1,10,0:3:0:0:
251,223,13376,1,2,3:2:0:0:
421,46,13564,6,0,P|352:65|302:73,1,122.499996261597,10|2,0:2|3:2,0:0:0:0:
137,192,13939,1,10,0:3:0:0:
356,241,14126,1,2,3:2:0:0:
110,273,14314,5,10,0:2:0:0:
221,49,14501,1,2,3:2:0:0:
258,300,14689,1,10,0:3:0:0:
123,96,14876,1,0,3:2:0:0:
356,241,15064,6,0,P|337:310|326:371,1,122.499996261597,10|2,0:2|3:2,0:0:0:0:
479,110,15439,1,10,0:3:0:0:
279,198,15626,1,2,3:2:0:0:
494,328,15814,6,0,P|479:267|462:209,1,122.499996261597,10|2,0:2|3:2,0:0:0:0:
327,45,16189,1,10,0:3:0:0:
356,241,16376,1,2,3:2:0:0:
114,125,16564,6,0,P|179:114|238:90,1,122.499996261597,10|2,0:2|3:2,0:0:0:0:
463,210,16939,1,10,0:3:0:0:
233,188,17126,1,2,3:2:0:0:
385,249,17314,5,10,0:2:0:0:
231,93,17501,1,2,3:2:0:0:
374,6,17689,1,10,0:3:0:0:
362,40,17782,1,2,0:3:0:0:
352,74,17876,1,2,3:3:0:0:
341,109,17970,1,2,0:3:0:0:
333,145,18064,6,0,P|342:200|348:290,1,122.499996261597,10|2,0:2|3:2,0:0:0:0:
118,347,18439,1,10,0:3:0:0:
182,142,18626,1,2,3:2:0:0:
336,360,18814,6,0,P|281:347|192:334,1,122.499996261597,10|2,0:2|3:2,0:0:0:0:
42,172,19189,1,10,0:3:0:0:
118,347,19376,1,2,3:2:0:0:
182,142,19564,6,0,P|173:64|175:9,1,122.499996261597,10|2,0:2|3:2,0:0:0:0:
398,147,19939,1,10,0:3:0:0:
191,223,20126,1,2,3:2:0:0:
427,248,20314,5,10,0:2:0:0:
182,142,20501,1,2,3:2:0:0:
423,62,20689,1,10,0:3:0:0:
277,265,20876,1,0,3:2:0:0:
455,365,21064,6,0,P|434:309|427:244,1,122.499996261597,10|2,0:2|3:2,0:0:0:0:
292,71,21439,1,10,0:3:0:0:
508,138,21626,1,2,3:2:0:0:
232,198,21814,6,0,P|172:178|100:161,1,122.499996261597,10|2,0:2|3:2,0:0:0:0:
376,259,22189,1,10,0:3:0:0:
292,71,22376,1,2,3:2:0:0:
113,163,22564,6,0,P|135:242|142:296,1,122.499996261597,10|2,0:2|3:2,0:0:0:0:
292,71,22939,1,10,0:3:0:0:
96,18,23126,1,2,3:2:0:0:
232,198,23314,6,0,L|312:177,1,61.2499981307984,10|2,0:2|0:3,0:0:0:0:
140,281,23501,2,0,L|60:260,1,61.2499981307984,2|2,3:2|0:3,0:0:0:0:
263,373,23689,1,10,0:3:0:0:
295,321,23782,1,2,0:3:0:0:
347,289,23876,1,2,3:2:0:0:
407,281,23970,1,2,0:3:0:0:
465,299,24064,6,0,P|402:287|414:189,1,131.25000500679,12|0,0:0|3:2,0:0:0:0:
456,111,24345,1,0,0:0:0:0:
480,97,24439,2,0,P|501:157|410:196,1,131.25000500679,10|0,0:3|3:2,0:0:0:0:
234,30,24814,5,10,0:2:0:0:
383,228,25001,1,2,3:2:0:0:
170,105,25189,1,10,0:3:0:0:
408,44,25376,1,0,3:2:0:0:
301,258,25564,6,0,P|237:239|164:228,1,140,8|0,0:2|3:2,0:0:0:0:
20,341,25845,1,0,0:0:0:0:
31,360,25939,2,0,B|68:370|68:370|74:308|96:257,1,140,8|0,0:3|3:2,0:0:0:0:
32,64,26314,5,10,0:2:0:0:
164,228,26501,1,2,3:2:0:0:
153,20,26689,1,10,0:3:0:0:
90,271,26876,1,0,3:2:0:0:
352,145,27064,6,0,P|316:93|336:7,1,140,8|0,0:2|3:2,0:0:0:0:
475,94,27345,1,0,0:0:0:0:
485,110,27439,2,0,L|461:254,1,140,10|0,0:3|3:2,0:0:0:0:
287,376,27814,5,10,0:2:0:0:
352,145,28001,1,2,3:2:0:0:
198,322,28189,1,10,0:3:0:0:
461,248,28376,1,0,3:2:0:0:
217,125,28564,5,10,0:2:0:0:
287,376,28751,1,2,3:2:0:0:
112,152,28939,1,10,0:3:0:0:
122,369,29126,1,2,3:2:0:0:
330,272,29314,5,10,0:2:0:0:
69,236,29501,1,2,3:2:0:0:
217,125,29689,1,10,0:3:0:0:
156,296,29876,1,0,3:2:0:0:
73,92,30064,6,0,P|86:53|129:27,3,70,12|0|0|0,1:2|1:0|3:2|1:0,0:0:0:0:
203,11,30439,1,10,1:3:0:0:
231,52,30532,1,0,1:0:0:0:
275,77,30626,1,0,3:2:0:0:
327,79,30720,1,0,1:0:0:0:
374,55,30814,6,0,P|393:47|440:59,1,52.4999983978272,10|0,1:2|1:0,0:0:0:0:
493,163,31001,1,2,3:2:0:0:
493,163,31095,1,0,1:0:0:0:
493,163,31189,2,0,P|460:196|454:278,1,104.999996795654,10|0,1:3|3:2,0:0:0:0:
486,359,31470,1,0,1:0:0:0:
486,359,31564,6,0,L|401:340,3,70,12|0|0|0,1:2|1:0|3:2|1:0,0:0:0:0:
323,301,31939,1,8,1:3:0:0:
276,308,32032,1,0,1:0:0:0:
230,315,32126,1,0,3:2:0:0:
184,322,32220,1,0,1:0:0:0:
138,329,32314,6,0,B|126:299|126:299|139:246,1,52.4999983978272,10|0,1:2|1:0,0:0:0:0:
53,182,32501,1,2,3:2:0:0:
53,182,32595,1,0,1:0:0:0:
53,182,32689,2,0,P|102:150|167:160,1,104.999996795654,10|0,1:3|3:2,0:0:0:0:
255,105,32970,1,0,1:0:0:0:
255,105,33064,6,0,P|245:137|237:191,3,70,12|0|0|0,1:2|1:0|3:2|1:0,0:0:0:0:
288,268,33439,1,8,1:3:0:0:
333,292,33532,1,0,1:0:0:0:
385,286,33626,1,0,3:2:0:0:
425,254,33720,1,0,1:0:0:0:
440,204,33814,6,0,P|471:186|506:185,3,70,14|0|2|0,1:2|1:0|3:2|1:0,0:0:0:0:
379,114,34189,1,10,1:3:0:0:
358,65,34282,1,0,1:0:0:0:
319,31,34376,1,0,3:2:0:0:
269,17,34470,1,0,1:0:0:0:
218,27,34564,5,14,1:2:0:0:
221,37,34657,1,0,1:0:0:0:
222,48,34751,2,0,L|235:135,1,70,2|0,3:2|1:0,0:0:0:0:
67,202,34939,6,0,L|80:115,1,70,14|0,1:3|1:0,0:0:0:0:
249,216,35126,2,0,L|262:303,1,70,2|0,3:2|1:0,0:0:0:0:
47,358,35314,5,14,1:2:0:0:
57,355,35407,1,0,1:0:0:0:
68,354,35501,2,0,L|155:341,1,70,2|0,3:2|1:0,0:0:0:0:
259,285,35689,1,14,0:3:0:0:
312,242,35782,1,2,0:3:0:0:
380,249,35876,1,2,3:3:0:0:
426,300,35970,1,2,0:2:0:0:
430,368,36064,6,0,P|352:329|262:308,1,148.750002837181,14|2,1:2|3:2,0:0:0:0:
164,215,36345,1,0,1:0:0:0:
175,225,36439,2,0,P|210:183|215:147,1,74.3750014185906,10|0,0:3|1:0,0:0:0:0:
128,108,36626,2,0,P|93:150|88:186,1,74.3750014185906,2|0,3:2|0:0,0:0:0:0:
305,158,36814,2,0,L|285:3,1,148.750002837181,10|2,0:2|3:2,0:0:0:0:
415,35,37095,1,0,0:0:0:0:
430,60,37189,2,0,L|170:93,1,223.125004255772,10|0,1:3|0:0,0:0:0:0:
305,158,37564,6,0,L|460:137,1,148.750002837181,10|2,1:2|3:2,0:0:0:0:
499,327,37939,5,10,1:3:0:0:
295,255,38126,1,2,3:2:0:0:
467,127,38314,5,10,1:2:0:0:
219,300,38501,1,2,3:2:0:0:
272,39,38689,6,0,L|306:163,1,122.499996261597,10|0,1:3|3:2,0:0:0:0:
219,300,39064,6,0,B|127:313|149:241|63:269,1,148.750002837181,10|2,1:2|3:2,0:0:0:0:
11,172,39345,1,0,1:0:0:0:
3,158,39439,2,0,P|12:111|17:73,1,74.3750014185906,10|0,0:3|1:0,0:0:0:0:
148,40,39626,2,0,P|139:87|134:125,1,74.3750014185906,2|0,3:2|0:0,0:0:0:0:
219,300,39814,2,0,P|268:225|341:221,1,148.750002837181,10|2,0:2|3:2,0:0:0:0:
419,320,40095,1,0,0:0:0:0:
431,351,40189,2,0,P|341:346|301:284,1,148.750002837181,10|2,1:3|3:2,0:0:0:0:
490,135,40564,5,10,1:2:0:0:
431,351,40751,1,2,3:2:0:0:
500,100,40939,5,10,1:3:0:0:
307,304,41126,1,2,3:2:0:0:
201,14,41314,6,0,P|217:73|223:158,1,122.499996261597,10|2,1:2|3:2,0:0:0:0:
36,342,41689,1,10,0:3:0:0:
37,317,41782,1,2,0:3:0:0:
40,294,41876,1,2,3:3:0:0:
44,270,41970,1,2,0:3:0:0:
49,252,42064,6,0,P|103:197|186:238,1,148.750002837181,10|2,1:2|3:2,0:0:0:0:
303,343,42346,1,0,1:0:0:0:
289,358,42439,2,0,B|258:334|258:334|251:285,1,74.3750014185906,10|0,0:3|1:0,0:0:0:0:
341,249,42626,2,0,B|372:273|372:273|379:322,1,74.3750014185906,2|0,3:2|0:0,0:0:0:0:
222,130,42814,2,0,P|316:98|379:66,1,148.750002837181,10|2,0:2|3:2,0:0:0:0:
458,0,43095,1,0,0:0:0:0:
483,25,43189,2,0,P|455:121|454:256,1,223.125004255772,10|0,1:3|0:0,0:0:0:0:
377,308,43564,6,0,P|302:241|242:203,1,148.750002837181,10|2,1:2|3:2,0:0:0:0:
7,158,43939,5,10,1:3:0:0:
268,42,44126,1,2,3:2:0:0:
133,254,44314,5,10,1:2:0:0:
31,0,44501,1,2,3:2:0:0:
256,133,44689,6,0,P|327:115|356:68,1,122.499996261597,10|0,1:3|3:2,0:0:0:0:
109,107,45064,6,0,P|125:175|133:283,1,148.750002837181,10|2,1:2|3:2,0:0:0:0:
251,323,45345,1,0,1:0:0:0:
261,333,45439,2,0,P|295:320|337:310,1,74.3750014185906,10|0,0:3|1:0,0:0:0:0:
127,264,45626,2,0,P|274:227|417:173,1,297.500005674362,2|2,3:2|3:2,0:0:0:0:
512,28,46189,1,10,1:3:0:0:
442,6,46282,1,0,1:0:0:0:
379,40,46376,1,2,3:2:0:0:
363,110,46470,1,0,1:0:0:0:
405,170,46564,6,0,P|464:185|491:267,1,148.750002837181,10|2,1:2|3:2,0:0:0:0:
270,358,46939,5,10,1:3:0:0:
363,110,47126,1,2,3:2:0:0:
221,29,47314,1,10,0:2:0:0:
224,47,47407,1,2,0:3:0:0:
227,65,47501,1,2,3:2:0:0:
230,84,47595,1,2,0:3:0:0:
244,101,47689,5,10,0:3:0:0:
172,88,47782,1,2,0:3:0:0:
100,76,47876,1,2,3:2:0:0:
24,64,47970,1,2,0:3:0:0:
18,75,48064,6,0,B|19:108|44:134|44:134|31:253,1,148.750002837181,12|0,1:2|3:2,0:0:0:0:
97,353,48345,1,0,1:0:0:0:
127,341,48439,2,0,B|135:304|135:304|139:299|139:299|151:241,1,74.3750014185906,10|0,0:3|1:0,0:0:0:0:
241,178,48626,2,0,B|249:214|249:214|253:219|253:219|265:277,1,74.3750014185906,0|0,3:2|0:0,0:0:0:0:
207,369,48814,5,10,0:2:0:0:
323,111,49001,1,2,3:2:0:0:
145,269,49189,5,10,1:3:0:0:
460,184,49376,1,0,3:2:0:0:
141,40,49564,6,0,P|114:83|109:179,1,148.750002837181,8|0,1:2|3:2,0:0:0:0:
338,364,49939,5,8,1:3:0:0:
216,76,50126,1,0,3:2:0:0:
483,268,50314,5,10,1:2:0:0:
197,366,50501,1,2,3:2:0:0:
441,170,50689,5,10,1:3:0:0:
338,364,50876,1,0,3:2:0:0:
481,102,51064,6,0,B|439:81|401:97|401:97|378:134|333:133,1,148.750002837181,8|0,1:2|3:2,0:0:0:0:
245,45,51345,1,0,1:0:0:0:
265,31,51439,2,0,B|306:28|306:28|345:74,1,74.3750014185906,10|0,0:3|1:0,0:0:0:0:
281,193,51626,2,0,B|240:196|240:196|201:150,1,74.3750014185906,0|0,3:2|0:0,0:0:0:0:
97,4,51814,5,10,0:2:0:0:
348,132,52001,1,2,3:2:0:0:
33,202,52189,5,10,1:3:0:0:
265,31,52376,1,0,3:2:0:0:
224,300,52564,5,10,1:2:0:0:
269,9,52751,1,2,3:2:0:0:
413,216,52939,5,10,1:3:0:0:
154,53,53126,1,2,3:2:0:0:
224,300,53314,5,10,1:2:0:0:
316,128,53501,1,2,3:2:0:0:
356,340,53689,5,10,1:3:0:0:
413,216,53876,1,0,3:2:0:0:
224,300,54064,6,0,B|185:310|185:310|148:286,3,78.7499975967408,12|0|0|0,1:2|1:0|3:2|1:0,0:0:0:0:
48,261,54439,1,8,1:3:0:0:
28,206,54532,1,0,1:0:0:0:
42,149,54626,1,0,3:2:0:0:
84,109,54720,1,0,1:0:0:0:
141,99,54814,6,0,L|163:195,1,78.7499975967408,10|0,1:2|1:0,0:0:0:0:
309,331,55001,1,2,3:2:0:0:
312,317,55095,1,0,1:0:0:0:
315,305,55189,6,0,L|337:209,1,78.7499975967408,10|0,1:3|1:0,0:0:0:0:
224,32,55376,2,0,L|246:128,1,78.7499975967408,0|0,3:2|1:0,0:0:0:0:
425,249,55564,6,0,P|462:232|471:181,3,78.7499975967408,12|0|0|0,1:2|1:0|3:2|1:0,0:0:0:0:
492,84,55939,1,8,1:3:0:0:
446,46,56032,1,0,1:0:0:0:
388,43,56126,1,0,3:2:0:0:
339,74,56220,1,0,1:0:0:0:
317,127,56314,6,0,P|273:112|220:108,1,78.7499975967408,10|0,1:2|1:0,0:0:0:0:
49,282,56501,1,2,3:2:0:0:
58,271,56595,1,0,1:0:0:0:
71,265,56689,6,0,P|115:250|168:246,1,78.7499975967408,10|0,1:3|1:0,0:0:0:0:
384,350,56876,2,0,P|340:335|287:331,1,78.7499975967408,0|0,3:2|1:0,0:0:0:0:
90,164,57064,6,0,L|112:71,3,78.7499975967408,12|0|0|0,1:2|1:0|3:2|1:0,0:0:0:0:
215,14,57439,1,8,1:3:0:0:
222,72,57532,1,0,1:0:0:0:
230,131,57626,1,0,3:2:0:0:
238,189,57720,1,0,1:0:0:0:
246,248,57814,6,0,B|286:259|286:259|340:230,1,78.7499975967408,14|0,1:2|1:0,0:0:0:0:
436,111,58001,2,0,B|396:100|396:100|342:129,1,78.7499975967408,2|0,3:2|1:0,0:0:0:0:
460,374,58189,5,10,1:3:0:0:
453,316,58282,1,0,1:0:0:0:
445,257,58376,1,0,3:2:0:0:
437,199,58470,1,0,1:0:0:0:
429,140,58564,5,14,1:2:0:0:
432,125,58657,1,0,1:0:0:0:
436,111,58751,2,0,B|396:100|396:100|342:129,1,78.7499975967408,2|0,3:2|1:0,0:0:0:0:
225,228,58939,5,14,1:3:0:0:
236,238,59032,1,0,1:0:0:0:
246,248,59126,2,0,B|275:218|275:218|277:157,1,78.7499975967408,2|0,3:2|1:0,0:0:0:0:
250,7,59314,5,14,1:2:0:0:
236,11,59407,1,0,1:0:0:0:
222,15,59501,2,0,B|232:55|232:55|284:87,1,78.7499975967408,2|0,3:2|1:0,0:0:0:0:
512,32,59689,5,14,0:3:0:0:
457,17,59782,1,2,0:3:0:0:
418,57,59876,1,2,3:3:0:0:
435,111,59970,1,2,0:2:0:0:
