osu file format v14

[General]
AudioFilename: audio.ogg
AudioLeadIn: 0
PreviewTime:35970
Countdown: 0
SampleSet: Soft
StackLeniency: 0.7
Mode: 0
LetterboxInBreaks: 0
WidescreenStoryboard: 1

[Editor]
Bookmarks: 6064,9064,12064,24064,30064,33064,36064,48064,54064,57064
DistanceSpacing: 1
BeatDivisor: 4
GridSize: 32
TimelineZoom: 1.5

[Metadata]
Title:INTERNET ANGEL
TitleUnicode:INTERNET ANGEL
Artist:Aiobahn
ArtistUnicode:Aiobahn
Creator:bnmc
Version:NORMAL
Source:NEEDY GIRL OVERDOSE
Tags:japanese instrumental novelty electronic video game vgm NEEDY STREAMER OVERLOAD ニーディーガールオーバードーズ OST Why so serious? WSS playground 超絶最かわてんしちゃん OMGkawaiiAngel 超てんちゃん KAngel あめちゃん ame-chan Xemono peposoft にゃるら nyalra nyarura Gorou Wanpachi Cycopton CClemon Yua -Yua
BeatmapID:4199069
BeatmapSetID:2009205

[Difficulty]
HPDrainRate:3
CircleSize:3.6
OverallDifficulty:4
ApproachRate:5.4
SliderMultiplier:1.05
SliderTickRate:1

[Events]
//Background and Video events
0,0,"i can fix her.jpg",0,0
//Break Periods
//Storyboard Layer 0 (Background)
//Storyboard Layer 1 (Fail)
//Storyboard Layer 2 (Pass)
//Storyboard Layer 3 (Foreground)
//Storyboard Layer 4 (Overlay)
//Storyboard Sound Samples

[TimingPoints]
64,375,4,2,1,55,1,0
2501,-100,4,2,2,55,0,0
2689,-100,4,2,1,55,0,0
5501,-100,4,2,2,55,0,0
5689,-100,4,2,1,55,0,0
6064,-100,4,2,1,55,0,0
6814,-100,4,2,2,60,0,0
6907,-100,4,2,1,60,0,0
7564,-100,4,2,1,63,0,0
8501,-100,4,2,2,63,0,0
8689,-100,4,2,1,63,0,0
9064,-100,4,2,20,65,0,0
9157,-100,4,2,1,65,0,0
9814,-100,4,2,20,65,0,0
10001,-100,4,2,2,65,0,0
10189,-100,4,2,1,65,0,0
10376,-100,4,2,2,65,0,0
10564,-100,4,2,20,65,0,0
10939,-100,4,2,21,65,0,0
11032,-100,4,2,1,65,0,0
11314,-100,4,2,22,65,0,0
11407,-100,4,2,1,65,0,0
11689,-100,4,2,21,67,0,0
11782,-100,4,2,1,67,0,0
12064,-97.0873786407767,4,2,1,70,0,0
12439,-97.0873786407767,4,2,3,70,0,0
12626,-97.0873786407767,4,2,1,70,0,0
15439,-97.0873786407767,4,2,3,70,0,0
15626,-97.0873786407767,4,2,1,70,0,0
17689,-97.0873786407767,4,2,3,70,0,0
18064,-97.0873786407767,4,2,1,70,0,0
18439,-97.0873786407767,4,2,3,70,0,0
18626,-97.0873786407767,4,2,1,70,0,0
21439,-97.0873786407767,4,2,3,70,0,0
21626,-97.0873786407767,4,2,1,70,0,0
23314,-95.2380952380952,4,2,3,70,0,0
23689,-95.2380952380952,4,2,3,80,0,0
24064,-97.0873786407767,4,2,1,70,0,0
24439,-97.0873786407767,4,2,3,70,0,0
24626,-97.0873786407767,4,2,1,70,0,0
27439,-97.0873786407767,4,2,3,70,0,0
27626,-97.0873786407767,4,2,1,70,0,0
30064,-97.0873786407767,4,2,2,63,0,0
30439,-97.0873786407767,4,2,3,63,0,0
30532,-97.0873786407767,4,2,2,63,0,0
31564,-97.0873786407767,4,2,2,65,0,0
33064,-95.2380952380952,4,2,20,67,0,0
33157,-95.2380952380952,4,2,2,67,0,0
33814,-95.2380952380952,4,2,20,67,0,0
33907,-95.2380952380952,4,2,2,67,0,0
34564,-95.2380952380952,4,2,20,67,0,0
34657,-95.2380952380952,4,2,2,67,0,0
34939,-95.2380952380952,4,2,23,67,0,0
35032,-95.2380952380952,4,2,2,67,0,0
35314,-95.2380952380952,4,2,22,67,0,0
35407,-95.2380952380952,4,2,2,67,0,0
35689,-95.2380952380952,4,2,21,70,0,0
35782,-95.2380952380952,4,2,3,70,0,0
36064,-93.4579439252336,4,2,11,75,0,1
36814,-93.4579439252336,4,2,12,75,0,1
39064,-93.4579439252336,4,2,11,75,0,1
39814,-93.4579439252336,4,2,12,75,0,1
41689,-93.4579439252336,4,2,3,75,0,1
42064,-93.4579439252336,4,2,11,75,0,1
42814,-93.4579439252336,4,2,12,75,0,1
45064,-93.4579439252336,4,2,11,75,0,1
45814,-93.4579439252336,4,2,12,75,0,1
46189,-93.4579439252336,4,2,11,75,0,1
46751,-93.4579439252336,4,2,12,75,0,1
47314,-93.4579439252336,4,2,3,75,0,1
47689,-93.4579439252336,4,2,3,85,0,1
48064,-93.4579439252336,4,2,11,75,0,1
48814,-93.4579439252336,4,2,12,75,0,1
51064,-93.4579439252336,4,2,11,75,0,1
51814,-93.4579439252336,4,2,12,75,0,1
54064,-93.4579439252336,4,2,13,70,0,1
54157,-93.4579439252336,4,2,14,70,0,1
54251,-93.4579439252336,4,2,13,70,0,1
54439,-93.4579439252336,4,2,14,70,0,1
54532,-93.4579439252336,4,2,13,70,0,1
54720,-93.4579439252336,4,2,14,70,0,1
55189,-93.4579439252336,4,2,13,70,0,1
55282,-93.4579439252336,4,2,14,70,0,1
55564,-93.4579439252336,4,2,13,73,0,1
55657,-93.4579439252336,4,2,14,73,0,1
55939,-93.4579439252336,4,2,13,73,0,1
56032,-93.4579439252336,4,2,14,73,0,1
56314,-93.4579439252336,4,2,13,73,0,1
56407,-93.4579439252336,4,2,14,73,0,1
56689,-93.4579439252336,4,2,13,73,0,1
56782,-93.4579439252336,4,2,14,73,0,1
57064,-90.9090909090909,4,2,30,73,0,1
57157,-90.9090909090909,4,2,14,73,0,1
57251,-90.9090909090909,4,2,13,73,0,1
57439,-90.9090909090909,4,2,14,73,0,1
57532,-90.9090909090909,4,2,13,73,0,1
57720,-90.9090909090909,4,2,14,73,0,1
57814,-90.9090909090909,4,2,20,73,0,1
58189,-90.9090909090909,4,2,13,73,0,1
58564,-90.9090909090909,4,2,30,73,0,1
58657,-90.9090909090909,4,2,14,73,0,1
58939,-90.9090909090909,4,2,23,73,0,1
59314,-90.9090909090909,4,2,22,73,0,1
59689,-90.9090909090909,4,2,21,85,0,1
59782,-90.9090909090909,4,2,3,85,0,1
60064,-90.9090909090909,4,2,3,85,0,0

[Colours]
Combo1 : 239,63,67
Combo2 : 232,170,244
Combo3 : 56,118,118
Combo4 : 190,142,249

[HitObjects]
29,289,64,6,0,B|57:259|103:271|103:271|124:307|178:308,1,157.5,14|10,0:0|0:0,0:0:0:0:
259,255,1001,1,8,0:1:0:0:
259,255,1189,1,10,0:0:0:0:
349,309,1564,2,0,B|328:234|408:241|375:152,1,157.5,10|10,0:0|0:0,0:0:0:0:
361,117,2314,2,0,P|384:124|412:127,2,52.5,2|10|10,0:0|0:1|0:0,0:0:0:0:
268,66,3064,6,0,B|210:73|210:73|174:46|174:46|112:54,1,157.5,10|10,0:0|0:0,0:0:0:0:
19,45,4001,1,8,0:1:0:0:
19,45,4189,2,0,L|26:98,1,52.5,10|2,0:0|1:2,0:0:0:0:
52,136,4564,2,0,B|43:178|65:213|65:213|27:230|24:286,1,157.5,10|10,0:0|0:0,0:0:0:0:
33,321,5314,1,2,0:0:0:0:
117,383,5689,1,10,0:0:0:0:
214,344,6064,6,0,B|201:319|180:307|180:307|192:239,1,105,14|10,1:2|1:1,0:0:0:0:
202,208,6626,1,10,1:2:0:0:
301,254,7001,1,8,1:1:0:0:
301,254,7189,2,0,L|356:246,1,52.5,10|0,1:2|1:0,0:0:0:0:
399,240,7564,1,10,1:2:0:0:
462,156,7939,2,0,P|446:131|439:102,1,52.5,8|10,1:1|1:2,0:0:0:0:
458,65,8314,2,0,P|483:57|505:43,2,52.5,2|10|10,1:2|1:1|1:2,0:0:0:0:
360,26,9064,6,0,B|331:21|307:38|307:38|294:17|266:9,1,105,14|10,1:2|1:1,0:0:0:0:
225,23,9626,1,10,1:2:0:0:
225,23,9814,2,0,B|233:70|233:70|228:78|228:78|238:131,1,105,4|10,3:2|1:2,0:0:0:0:
213,227,10564,2,0,B|159:220,1,52.5,14|0,1:2|1:0,0:0:0:0:
122,192,10939,2,0,B|68:185,1,52.5,14|10,1:2|1:2,0:0:0:0:
23,178,11314,1,6,1:2:0:0:
7,281,11689,2,0,P|37:272|64:270,1,52.5,14|10,1:2|1:2,0:0:0:0:
102,291,12064,6,0,B|159:300|145:261|204:269,1,108.149999092369,14|10,0:0|0:3,0:0:0:0:
255,285,12626,1,2,3:2:0:0:
255,285,12814,1,10,0:2:0:0:
335,357,13189,1,10,0:3:0:0:
435,315,13564,2,0,B|422:288|401:277|401:277|410:208,1,108.149999092369,10|10,0:2|0:3,0:0:0:0:
442,185,14126,1,2,3:2:0:0:
442,185,14314,2,0,L|449:132,1,54.0749995461845,10|2,0:2|3:2,0:0:0:0:
458,83,14689,1,10,0:3:0:0:
353,109,15064,6,0,B|304:113|304:113|296:106|296:106|246:111,1,108.149999092369,10|10,0:2|0:3,0:0:0:0:
202,116,15626,1,2,3:2:0:0:
202,116,15814,1,10,0:2:0:0:
218,222,16189,1,10,0:3:0:0:
259,321,16564,2,0,P|214:306|151:300,1,108.149999092369,10|10,0:2|0:3,0:0:0:0:
109,305,17126,1,2,3:2:0:0:
109,305,17314,1,10,0:2:0:0:
16,249,17689,2,0,L|6:192,1,54.0749995461845,10|2,0:3|3:3,0:0:0:0:
24,150,18064,6,0,P|75:166|129:171,1,108.149999092369,10|10,0:2|0:3,0:0:0:0:
181,168,18626,1,2,3:2:0:0:
181,168,18814,1,10,0:2:0:0:
258,242,19189,1,10,0:3:0:0:
353,191,19564,2,0,B|347:157|361:136|361:136|339:125|325:97,1,108.149999092369,10|10,0:2|0:3,0:0:0:0:
339,56,20126,1,2,3:2:0:0:
339,56,20314,2,0,L|394:47,1,54.0749995461845,10|2,0:2|3:2,0:0:0:0:
441,41,20689,1,10,0:3:0:0:
511,122,21064,6,0,L|503:230,1,108.149999092369,10|10,0:2|0:3,0:0:0:0:
500,281,21626,1,2,3:2:0:0:
500,281,21814,1,10,0:2:0:0:
399,240,22189,1,10,0:3:0:0:
343,333,22564,2,0,B|281:343|295:304|237:313,1,108.149999092369,10|10,0:2|0:3,0:0:0:0:
135,349,23314,2,0,P|135:321|128:291,1,55.1249983177186,10|2,0:2|3:2,0:0:0:0:
96,257,23689,2,0,P|68:256|38:263,1,55.1249983177186,10|2,0:3|3:2,0:0:0:0:
0,288,24064,6,0,B|3:240|3:240|11:233|11:233|14:182,1,108.149999092369,12|10,0:0|0:3,0:0:0:0:
1,76,24814,2,0,P|26:86|53:90,1,54.0749995461845,10|2,0:2|3:2,0:0:0:0:
101,84,25189,1,10,0:3:0:0:
171,165,25564,1,8,0:2:0:0:
270,123,25939,1,8,0:3:0:0:
361,179,26314,2,0,P|350:204|346:231,1,54.0749995461845,10|2,0:2|3:2,0:0:0:0:
370,273,26689,2,0,P|380:298|384:325,1,54.0749995461845,10|0,0:3|3:2,0:0:0:0:
373,372,27064,5,8,0:2:0:0:
480,383,27439,1,10,0:3:0:0:
508,278,27814,2,0,P|496:252|492:225,1,54.0749995461845,10|2,0:2|3:2,0:0:0:0:
498,178,28189,1,10,0:3:0:0:
431,92,28564,2,0,B|413:106|403:127|403:127|340:119,1,108.149999092369,10|10,0:2|0:3,0:0:0:0:
303,96,29126,1,2,3:2:0:0:
303,96,29314,2,0,L|249:88,1,54.0749995461845,10|2,0:2|3:2,0:0:0:0:
201,80,29689,1,10,0:3:0:0:
103,32,30064,6,0,B|103:59|81:84|81:84|105:101|111:132,1,108.149999092369,12|10,1:2|1:3,0:0:0:0:
93,173,30626,1,0,3:2:0:0:
93,173,30814,2,0,P|66:178|41:189,2,54.0749995461845,10|2|10,1:2|3:2|1:3,0:0:0:0:
200,183,31564,1,12,1:2:0:0:
172,287,31939,2,0,L|186:344,1,54.0749995461845,8|0,1:3|3:2,0:0:0:0:
219,374,32314,2,0,P|243:363|270:358,1,54.0749995461845,10|2,1:2|3:2,0:0:0:0:
319,359,32689,1,10,1:3:0:0:
425,329,33064,6,0,B|430:276|430:276|423:269|423:269|429:211,1,110.249996635437,12|8,1:2|1:3,0:0:0:0:
459,184,33626,1,0,3:2:0:0:
459,184,33814,2,0,B|395:197|412:152|342:165,1,110.249996635437,14|10,1:2|1:3,0:0:0:0:
309,179,34376,1,0,3:2:0:0:
309,179,34564,1,14,1:2:0:0:
225,250,34939,2,0,L|169:244,1,55.1249983177186,14|2,1:3|3:2,0:0:0:0:
120,238,35314,1,14,1:2:0:0:
14,269,35689,1,14,0:3:0:0:
1,156,36064,6,0,L|9:99,1,56.1749982856751,14|2,1:2|3:2,0:0:0:0:
37,60,36439,1,10,0:3:0:0:
37,60,36626,2,0,B|67:57|92:76|92:76|105:50|137:37,1,112.34999657135,2|2,3:2|3:2,0:0:0:0:
181,34,37189,1,10,1:3:0:0:
263,113,37564,2,0,L|255:168,1,56.1749982856751,10|2,1:2|3:2,0:0:0:0:
249,218,37939,1,10,1:3:0:0:
196,317,38314,2,0,P|250:303|309:301,1,112.34999657135,10|10,1:2|1:3,0:0:0:0:
416,324,39064,6,0,L|408:265,1,56.1749982856751,10|2,1:2|3:2,0:0:0:0:
432,225,39439,1,10,0:3:0:0:
432,225,39626,2,0,B|437:174|437:174|431:165|431:165|437:114,1,112.34999657135,2|2,3:2|3:2,0:0:0:0:
447,65,40189,1,10,1:3:0:0:
336,87,40564,2,0,P|308:84|281:75,1,56.1749982856751,10|2,1:2|3:2,0:0:0:0:
248,36,40939,2,0,P|221:27|193:24,1,56.1749982856751,10|2,1:3|3:2,0:0:0:0:
144,32,41314,1,10,1:2:0:0:
32,22,41689,2,0,P|40:48|43:76,1,56.1749982856751,10|2,0:3|3:3,0:0:0:0:
13,117,42064,6,0,L|6:176,1,56.1749982856751,10|2,1:2|3:2,0:0:0:0:
30,223,42439,1,10,0:3:0:0:
30,223,42626,2,0,B|73:218|73:218|96:231|96:231|141:224,1,112.34999657135,2|2,3:2|3:2,0:0:0:0:
188,216,43189,1,10,1:3:0:0:
298,193,43564,2,0,L|291:252,1,56.1749982856751,10|2,1:2|3:2,0:0:0:0:
285,299,43939,1,10,1:3:0:0:
378,360,44314,2,0,B|410:360|432:377|432:377|445:352|483:342,1,112.34999657135,10|10,1:2|1:3,0:0:0:0:
509,237,45064,6,0,P|496:207|491:182,1,56.1749982856751,10|2,1:2|3:2,0:0:0:0:
512,140,45439,1,10,0:3:0:0:
512,140,45626,2,0,B|444:124|463:176|393:153,1,112.34999657135,2|2,3:2|3:2,0:0:0:0:
361,130,46189,2,0,L|354:74,1,56.1749982856751,10|2,1:3|3:2,0:0:0:0:
350,23,46564,1,10,1:2:0:0:
248,70,46939,1,10,1:3:0:0:
145,23,47314,2,0,P|118:13|90:9,1,56.1749982856751,10|2,0:2|3:2,0:0:0:0:
44,29,47689,2,0,P|53:55|57:83,1,56.1749982856751,10|2,0:3|3:2,0:0:0:0:
32,127,48064,6,0,B|27:177|27:177|20:184|20:184|15:235,1,112.34999657135,12|10,1:2|0:3,0:0:0:0:
11,289,48626,1,0,3:2:0:0:
11,289,48814,1,10,0:2:0:0:
116,251,49189,1,10,1:3:0:0:
187,337,49564,2,0,L|303:324,1,112.34999657135,8|8,1:2|1:3,0:0:0:0:
405,357,50314,2,0,P|408:324|402:291,1,56.1749982856751,10|2,1:2|3:2,0:0:0:0:
382,256,50689,1,10,1:3:0:0:
434,156,51064,6,0,L|489:162,2,56.1749982856751,8|0|10,1:2|3:2|0:3,0:0:0:0:
396,130,51626,1,0,3:2:0:0:
396,130,51813,2,0,B|324:122|324:122|312:140|290:149,1,112.34999657135,10|10,0:2|1:3,0:0:0:0:
228,55,52564,2,0,P|201:43|173:39,1,56.1749982856751,10|2,1:2|3:2,0:0:0:0:
126,54,52939,2,0,P|110:77|100:105,1,56.1749982856751,10|2,1:3|3:2,0:0:0:0:
110,153,53314,1,10,1:2:0:0:
211,200,53689,1,10,1:3:0:0:
204,313,54064,6,0,B|140:301|157:348|94:336,1,112.34999657135,12|8,1:2|1:3,0:0:0:0:
59,313,54626,1,0,3:2:0:0:
59,313,54814,2,0,L|50:254,1,56.1749982856751,10|2,1:2|3:2,0:0:0:0:
44,207,55189,1,10,1:3:0:0:
4,101,55564,1,12,1:2:0:0:
73,11,55939,2,0,B|103:13|125:30|125:30|142:7|171:-1,1,112.34999657135,8|10,1:3|1:2,0:0:0:0:
224,5,56501,1,2,3:2:0:0:
224,5,56689,1,10,1:3:0:0:
316,74,57064,6,0,B|300:99|280:109|280:109|293:183,1,115.50000352478,12|8,1:2|1:3,0:0:0:0:
331,214,57626,1,0,3:2:0:0:
331,214,57814,2,0,P|362:201|392:197,1,57.7500017623902,14|2,1:2|3:2,0:0:0:0:
433,218,58189,2,0,P|446:249|450:279,1,57.7500017623902,10|0,1:3|3:2,0:0:0:0:
441,324,58564,1,14,1:2:0:0:
341,381,58939,1,14,1:3:0:0:
247,313,59314,2,0,L|190:306,1,57.7500017623902,14|2,1:2|3:2,0:0:0:0:
142,301,59689,1,14,0:3:0:0:
142,301,59876,1,2,3:3:0:0:
