osu file format v14

[General]
AudioFilename: audio.ogg
AudioLeadIn: 0
PreviewTime:35970
Countdown: 0
SampleSet: Soft
StackLeniency: 0.7
Mode: 0
LetterboxInBreaks: 0
WidescreenStoryboard: 1

[Editor]
Bookmarks: 6064,9064,12064,24064,30064,33064,36064,48064,54064,57064
DistanceSpacing: 0.8
BeatDivisor: 4
GridSize: 32
TimelineZoom: 1.5

[Metadata]
Title:INTERNET ANGEL
TitleUnicode:INTERNET ANGEL
Artist:Aiobahn
ArtistUnicode:Aiobahn
Creator:bnmc
Version:INSANE
Source:NEEDY GIRL OVERDOSE
Tags:japanese instrumental novelty electronic video game vgm NEEDY STREAMER OVERLOAD ニーディーガールオーバードーズ OST Why so serious? WSS playground 超絶最かわてんしちゃん OMGkawaiiAngel 超てんちゃん KAngel あめちゃん ame-chan Xemono peposoft にゃるら nyalra nyarura Gorou Wanpachi Cycopton CClemon Yua -Yua
BeatmapID:4214135
BeatmapSetID:2009205

[Difficulty]
HPDrainRate:5
CircleSize:4.2
OverallDifficulty:8
ApproachRate:9
SliderMultiplier:1.7
SliderTickRate:1

[Events]
//Background and Video events
0,0,"i can fix her.jpg",0,0
//Break Periods
//Storyboard Layer 0 (Background)
//Storyboard Layer 1 (Fail)
//Storyboard Layer 2 (Pass)
//Storyboard Layer 3 (Foreground)
//Storyboard Layer 4 (Overlay)
//Storyboard Sound Samples

[TimingPoints]
64,375,4,2,1,55,1,0
2501,-100,4,2,2,55,0,0
2689,-83.3333333333333,4,2,1,55,0,0
2970,-83.3333333333333,4,2,1,5,0,0
3064,-100,4,2,1,55,0,0
5501,-100,4,2,2,55,0,0
5689,-100,4,2,1,55,0,0
6064,-95.2380952380952,4,2,1,55,0,0
6626,-90.9090909090909,4,2,1,55,0,0
6814,-90.9090909090909,4,2,2,60,0,0
6907,-90.9090909090909,4,2,1,60,0,0
7189,-80,4,2,1,60,0,0
7564,-90.9090909090909,4,2,1,63,0,0
8501,-80,4,2,2,63,0,0
8689,-90.9090909090909,4,2,1,63,0,0
9064,-76.9230769230769,4,2,20,65,0,0
9157,-76.9230769230769,4,2,1,65,0,0
9814,-86.9565217391304,4,2,20,65,0,0
10001,-86.9565217391304,4,2,2,65,0,0
10189,-86.9565217391304,4,2,1,65,0,0
10376,-86.9565217391304,4,2,2,65,0,0
10564,-90.9090909090909,4,2,20,65,0,0
10939,-90.9090909090909,4,2,21,65,0,0
11032,-90.9090909090909,4,2,1,65,0,0
11314,-83.3333333333333,4,2,22,65,0,0
11407,-83.3333333333333,4,2,1,65,0,0
11689,-83.3333333333333,4,2,21,67,0,0
11782,-83.3333333333333,4,2,1,67,0,0
12064,-80,4,2,1,70,0,0
12439,-80,4,2,3,70,0,0
12626,-80,4,2,1,70,0,0
14689,-95.2380952380952,4,2,1,70,0,0
14970,-105.263157894737,4,2,1,5,0,0
15064,-80,4,2,1,70,0,0
15439,-80,4,2,3,70,0,0
15626,-80,4,2,1,70,0,0
17689,-80,4,2,3,70,0,0
18064,-80,4,2,1,70,0,0
18439,-80,4,2,3,70,0,0
18626,-80,4,2,1,70,0,0
20689,-95.2380952380952,4,2,1,70,0,0
20970,-95.2380952380952,4,2,1,5,0,0
21064,-80,4,2,1,70,0,0
21439,-80,4,2,3,70,0,0
21626,-80,4,2,1,70,0,0
23314,-80,4,2,3,70,0,0
23501,-76.9230769230769,4,2,3,70,0,0
23689,-76.9230769230769,4,2,3,80,0,0
24064,-80,4,2,1,70,0,0
24345,-80,4,2,1,5,0,0
24439,-80,4,2,3,70,0,0
24626,-80,4,2,1,70,0,0
25189,-83.3333333333333,4,2,1,70,0,0
25470,-86.9565217391304,4,2,1,5,0,0
25564,-80,4,2,1,70,0,0
26689,-71.4285714285714,4,2,1,70,0,0
26970,-71.4285714285714,4,2,1,5,0,0
27064,-80,4,2,1,70,0,0
27439,-80,4,2,3,70,0,0
27626,-80,4,2,1,70,0,0
28470,-80,4,2,1,5,0,0
28564,-80,4,2,1,70,0,0
29689,-86.9565217391304,4,2,1,70,0,0
29970,-90.9090909090909,4,2,1,5,0,0
30064,-80,4,2,2,63,0,0
30439,-80,4,2,3,63,0,0
30532,-80,4,2,2,63,0,0
30626,-76.9230769230769,4,2,2,63,0,0
31564,-76.9230769230769,4,2,2,65,0,0
33064,-76.9230769230769,4,2,20,67,0,0
33157,-76.9230769230769,4,2,2,67,0,0
33814,-76.9230769230769,4,2,20,67,0,0
33907,-76.9230769230769,4,2,2,67,0,0
34189,-80,4,2,2,67,0,0
34564,-62.5,4,2,20,67,0,0
34657,-62.5,4,2,2,67,0,0
34939,-48.780487804878,4,2,23,67,0,0
35032,-48.780487804878,4,2,2,67,0,0
35314,-52.6315789473684,4,2,22,67,0,0
35407,-52.6315789473684,4,2,2,67,0,0
35689,-47.6190476190476,4,2,21,70,0,0
35782,-47.6190476190476,4,2,3,70,0,0
36064,-55.5555555555556,4,2,11,75,0,1
36626,-58.8235294117647,4,2,11,75,0,1
36814,-58.8235294117647,4,2,12,75,0,1
37189,-55.5555555555556,4,2,12,75,0,1
38314,-58.8235294117647,4,2,12,75,0,1
38689,-62.5,4,2,12,75,0,1
38970,-62.5,4,2,12,5,0,1
39064,-57.1428571428571,4,2,11,75,0,1
39626,-58.8235294117647,4,2,11,75,0,1
39814,-58.8235294117647,4,2,12,75,0,1
41689,-47.6190476190476,4,2,3,75,0,1
42064,-55.5555555555556,4,2,11,75,0,1
42626,-58.8235294117647,4,2,11,75,0,1
42814,-58.8235294117647,4,2,12,75,0,1
43189,-55.5555555555556,4,2,12,75,0,1
44314,-58.8235294117647,4,2,12,75,0,1
44970,-58.8235294117647,4,2,12,5,0,1
45064,-55.5555555555556,4,2,11,75,0,1
45626,-57.1428571428571,4,2,11,75,0,1
45814,-57.1428571428571,4,2,12,75,0,1
46189,-57.1428571428571,4,2,11,75,0,1
46564,-55.5555555555556,4,2,11,75,0,1
46751,-55.5555555555556,4,2,12,75,0,1
46939,-50,4,2,12,75,0,1
47314,-71.4285714285714,4,2,3,75,0,1
47689,-71.4285714285714,4,2,3,85,0,1
48064,-45.4545454545455,4,2,11,75,0,1
48439,-55.5555555555556,4,2,11,75,0,1
48814,-55.5555555555556,4,2,12,75,0,1
49564,-58.8235294117647,4,2,12,75,0,1
51064,-55.5555555555556,4,2,11,75,0,1
51814,-55.5555555555556,4,2,12,75,0,1
53314,-58.8235294117647,4,2,12,75,0,1
53689,-52.6315789473684,4,2,12,75,0,1
53970,-52.6315789473684,4,2,12,5,0,1
54064,-55.5555555555556,4,2,13,70,0,1
54157,-55.5555555555556,4,2,14,70,0,1
54251,-55.5555555555556,4,2,13,70,0,1
54439,-55.5555555555556,4,2,14,70,0,1
54532,-55.5555555555556,4,2,13,70,0,1
54720,-55.5555555555556,4,2,14,70,0,1
55189,-55.5555555555556,4,2,13,70,0,1
55282,-55.5555555555556,4,2,14,70,0,1
55564,-55.5555555555556,4,2,13,73,0,1
55657,-55.5555555555556,4,2,14,73,0,1
55939,-55.5555555555556,4,2,13,73,0,1
56032,-55.5555555555556,4,2,14,73,0,1
56314,-55.5555555555556,4,2,13,73,0,1
56407,-55.5555555555556,4,2,14,73,0,1
56689,-58.8235294117647,4,2,13,73,0,1
56782,-58.8235294117647,4,2,14,73,0,1
57064,-54.054054054054,4,2,30,73,0,1
57157,-54.054054054054,4,2,14,73,0,1
57251,-54.054054054054,4,2,13,73,0,1
57439,-54.054054054054,4,2,14,73,0,1
57532,-54.054054054054,4,2,13,73,0,1
57720,-54.054054054054,4,2,14,73,0,1
57814,-54.054054054054,4,2,20,73,0,1
58189,-54.054054054054,4,2,13,73,0,1
58564,-44.4444444444445,4,2,30,73,0,1
58657,-44.4444444444445,4,2,14,73,0,1
58939,-51.2820512820513,4,2,23,73,0,1
59314,-52.6315789473684,4,2,22,73,0,1
59689,-52.6315789473684,4,2,21,85,0,1
59782,-52.6315789473684,4,2,3,85,0,1
60064,-1000,4,2,3,85,0,0

[Colours]
Combo1 : 239,63,67
Combo2 : 232,170,244
Combo3 : 56,118,118
Combo4 : 190,142,249

[HitObjects]
33,246,64,6,0,B|67:242|96:236|96:236|135:257|135:257|165:251|200:247,1,170,14|10,0:0|0:1,0:0:0:0:
315,284,626,2,0,B|271:300|260:343|260:343|254:295|212:270,1,170,10|8,0:0|0:1,0:0:0:0:
273,208,1189,1,10,0:0:0:0:
90,341,1564,6,0,B|76:260|76:260|82:252|82:252|70:171,1,170,10|8,0:0|0:1,0:0:0:0:
58,99,2126,1,10,0:0:0:0:
0,241,2314,1,2,0:0:0:0:
0,241,2407,1,2,0:0:0:0:
0,241,2501,1,10,0:1:0:0:
143,157,2689,2,0,B|221:141|204:207|286:192,1,152.999995330811,10|0,0:0|0:0,0:0:0:0:
350,150,3064,6,0,P|316:225|315:314,1,170,10|10,0:0|0:1,0:0:0:0:
470,242,3626,2,0,P|424:215|427:296,1,170,10|8,0:0|0:1,0:0:0:0:
511,320,4189,1,10,0:0:0:0:
511,320,4376,1,2,1:2:0:0:
428,170,4564,6,0,B|346:163|346:163|336:168|336:168|255:160,1,170,10|8,0:0|0:1,0:0:0:0:
164,152,5126,1,10,0:0:0:0:
253,265,5314,1,2,0:0:0:0:
253,265,5407,1,2,0:0:0:0:
253,265,5501,1,10,0:1:0:0:
87,257,5689,2,0,P|126:240|167:233,1,85,10|2,0:0|0:0,0:0:0:0:
56,345,6064,6,0,B|33:311|3:304|3:304|14:190,1,178.499994552612,14|10,1:2|1:1,0:0:0:0:
1,108,6626,2,0,B|74:92|55:153|134:136,1,140.25000428009,10|0,1:2|1:0,0:0:0:0:
174,120,7001,1,8,1:1:0:0:
217,221,7189,2,0,P|189:224|161:233,3,53.125,10|0|0|0,1:2|1:0|1:0|1:0,0:0:0:0:
260,236,7564,6,0,B|292:213|328:223|328:223|351:257|393:258,1,140.25000428009,10|0,1:2|1:0,0:0:0:0:
427,247,7939,1,8,1:1:0:0:
337,330,8126,1,10,1:2:0:0:
394,175,8314,1,2,1:2:0:0:
394,175,8407,1,2,1:2:0:0:
394,175,8501,2,0,L|386:114,1,53.125,10|0,1:1|1:0,0:0:0:0:
413,84,8689,2,0,B|370:79|370:79|362:85|362:85|313:79,1,93.5000028533936,10|0,1:2|1:0,0:0:0:0:
176,154,9064,6,0,B|211:78|151:18|151:18|138:58|106:71,1,220.999989883423,14|10,1:2|1:1,0:0:0:0:
23,49,9626,1,10,1:2:0:0:
38,236,9814,6,0,B|78:232|110:222|110:222|154:250|154:250|188:241|229:236,1,195.500003728867,4|10,3:2|1:2,0:0:0:0:
176,154,10376,1,0,3:2:0:0:
301,247,10564,6,0,B|327:275|312:305|312:305|303:285|275:274,1,93.5000028533936,14|0,1:2|1:0,0:0:0:0:
400,342,10939,1,14,1:2:0:0:
233,382,11126,1,10,1:2:0:0:
313,232,11314,6,0,B|359:235|359:235|366:243|366:243|411:247,1,101.999996887207,6|10,1:2|1:2,0:0:0:0:
512,303,11689,1,14,1:2:0:0:
497,263,11782,1,0,1:0:0:0:
494,220,11876,1,10,1:2:0:0:
499,178,11970,1,0,1:0:0:0:
512,134,12064,6,0,P|461:147|405:152,1,106.25,14|2,0:0|3:2,0:0:0:0:
294,110,12439,1,10,0:3:0:0:
406,255,12626,1,2,3:2:0:0:
212,198,12814,6,0,P|264:202|316:215,1,106.25,10|2,0:2|3:2,0:0:0:0:
247,301,13189,1,10,0:3:0:0:
385,166,13376,1,2,3:2:0:0:
201,63,13564,6,0,P|214:114|219:170,1,106.25,10|2,0:2|3:2,0:0:0:0:
94,120,13939,1,10,0:3:0:0:
302,171,14126,1,2,3:2:0:0:
121,250,14314,5,10,0:2:0:0:
211,86,14501,1,2,3:2:0:0:
264,291,14689,2,0,B|201:283|201:283|192:289|192:289|132:283,1,133.874995914459,10|0,0:3|0:0,0:0:0:0:
92,279,15064,5,10,0:2:0:0:
210,366,15251,1,2,3:2:0:0:
9,321,15439,2,0,L|17:213,1,106.25,10|2,0:3|3:2,0:0:0:0:
26,85,15814,5,10,0:2:0:0:
102,263,16001,1,2,3:2:0:0:
211,124,16189,2,0,L|103:132,1,106.25,10|2,0:3|3:2,0:0:0:0:
213,236,16564,6,0,L|320:244,1,106.25,10|2,0:2|3:2,0:0:0:0:
451,259,16939,1,10,0:3:0:0:
451,259,17126,1,2,3:2:0:0:
279,334,17314,1,10,0:2:0:0:
371,171,17501,1,2,3:2:0:0:
397,372,17689,5,10,0:3:0:0:
400,342,17782,1,2,0:3:0:0:
428,337,17876,1,2,3:3:0:0:
443,361,17970,1,2,0:3:0:0:
424,384,18064,6,0,B|416:336|416:336|421:329|421:329|414:277,1,106.25,10|2,0:2|3:2,0:0:0:0:
397,148,18439,1,10,0:3:0:0:
512,291,18626,1,2,3:2:0:0:
324,301,18814,6,0,P|273:284|221:276,1,106.25,10|2,0:2|3:2,0:0:0:0:
116,321,19189,1,10,0:3:0:0:
266,195,19376,1,2,3:2:0:0:
89,172,19564,6,0,P|141:163|191:147,1,106.25,10|2,0:2|3:2,0:0:0:0:
120,73,19939,1,10,0:3:0:0:
177,252,20126,1,2,3:2:0:0:
232,55,20314,5,10,0:2:0:0:
84,192,20501,1,2,3:2:0:0:
313,213,20689,2,0,B|277:219|262:254|262:254|261:218|234:193,1,133.874995914459,10|0,0:3|0:0,0:0:0:0:
179,294,21064,6,0,B|225:287|225:287|234:292|234:292|283:286,1,106.25,10|2,0:2|3:2,0:0:0:0:
392,280,21439,1,10,0:3:0:0:
392,280,21626,1,2,3:2:0:0:
286,208,21814,5,10,0:2:0:0:
360,372,22001,1,2,3:2:0:0:
502,243,22189,2,0,B|489:266|469:274|469:274|480:333,1,106.25,10|2,0:3|3:2,0:0:0:0:
377,266,22564,5,10,0:2:0:0:
500,148,22751,1,2,3:2:0:0:
392,280,22939,2,0,B|345:273|345:273|336:278|336:278|287:272,1,106.25,10|2,0:3|3:2,0:0:0:0:
192,223,23314,5,10,0:2:0:0:
192,223,23407,1,2,0:3:0:0:
192,223,23501,2,0,P|191:194|183:168,1,55.2499974708558,2|2,3:2|0:3,0:0:0:0:
126,104,23689,1,10,0:3:0:0:
169,127,23782,1,2,0:3:0:0:
217,138,23876,1,2,3:2:0:0:
266,131,23970,1,2,0:3:0:0:
308,104,24064,6,0,B|338:75|383:87|383:87|402:124|454:128,1,159.375,12|0,0:0|0:0,0:0:0:0:
501,78,24439,2,0,L|486:183,1,106.25,10|0,0:3|3:2,0:0:0:0:
476,285,24814,5,10,0:2:0:0:
374,145,25001,1,2,3:2:0:0:
406,340,25189,2,0,B|337:332|337:332|326:338|326:338|253:330,1,152.999995330811,10|0,0:3|0:0,0:0:0:0:
215,312,25564,6,0,L|109:302,1,106.25,8|0,0:2|3:2,0:0:0:0:
0,295,25939,1,8,0:3:0:0:
0,295,26126,1,0,3:2:0:0:
124,215,26314,5,10,0:2:0:0:
43,374,26501,1,2,3:2:0:0:
193,304,26689,2,0,B|143:258|161:195|161:195|181:219|218:221,1,178.499994552612,10|0,0:3|0:0,0:0:0:0:
215,145,27064,6,0,P|166:164|114:171,1,106.25,8|0,0:2|3:2,0:0:0:0:
13,30,27439,2,0,P|65:36|114:56,1,106.25,10|0,0:3|3:2,0:0:0:0:
12,147,27814,5,10,0:2:0:0:
201,62,28001,1,2,3:2:0:0:
89,195,28189,2,0,B|179:221|150:146|239:166,1,159.375,10|0,0:3|0:0,0:0:0:0:
275,188,28564,5,10,0:2:0:0:
129,108,28751,1,2,3:2:0:0:
221,267,28939,1,10,0:3:0:0:
284,77,29126,1,2,3:2:0:0:
394,223,29314,2,0,L|289:210,1,106.25,10|2,0:2|3:2,0:0:0:0:
474,180,29689,2,0,B|458:235|497:263|497:263|488:231|506:206,1,146.62500279665,10|0,0:3|0:0,0:0:0:0:
509,160,30064,6,0,B|497:87|497:87|505:79|505:79|494:2,1,159.375,12|0,1:2|1:0,0:0:0:0:
421,42,30439,1,10,1:3:0:0:
393,54,30532,1,0,1:0:0:0:
360,61,30626,1,0,3:2:0:0:
326,62,30720,1,0,1:0:0:0:
292,61,30814,5,10,1:2:0:0:
393,180,31001,1,2,3:2:0:0:
213,108,31189,1,10,1:3:0:0:
213,108,31282,1,0,1:0:0:0:
213,108,31376,2,0,P|226:137|231:168,1,55.2499974708558,0|0,3:2|1:0,0:0:0:0:
206,193,31564,6,0,B|125:219|143:136|53:163,1,165.749992412568,12|0,1:2|1:0,0:0:0:0:
5,222,31939,2,0,L|15:277,1,55.2499974708558,8|0,1:3|1:0,0:0:0:0:
24,234,32126,2,0,L|34:289,1,55.2499974708558,0|0,3:2|1:0,0:0:0:0:
187,211,32314,1,10,1:2:0:0:
36,141,32501,1,2,3:2:0:0:
155,292,32689,1,10,1:3:0:0:
155,292,32782,1,0,1:0:0:0:
155,292,32876,2,0,L|210:298,1,55.2499974708558,0|0,3:2|1:0,0:0:0:0:
272,248,33064,6,0,B|346:239|346:239|359:246|359:246|438:238,1,165.749992412568,12|0,1:2|1:0,0:0:0:0:
506,283,33439,1,8,1:3:0:0:
506,283,33532,1,0,1:0:0:0:
506,283,33626,2,0,P|508:245|516:220,1,55.2499974708558,0|0,3:2|1:0,0:0:0:0:
467,155,33814,6,0,L|349:141,1,110.499994941712,14|2,1:2|3:2,0:0:0:0:
292,99,34095,1,0,1:0:0:0:
292,99,34189,2,0,B|274:122|276:150|276:150|261:128|234:121,1,106.25,10|0,1:3|3:2,0:0:0:0:
57,20,34564,6,0,B|40:48|17:61|17:61|30:145,1,136,14|2,1:2|3:2,0:0:0:0:
0,211,34845,1,0,1:0:0:0:
0,211,34939,2,0,B|43:157|108:174|108:174|85:189|81:224,1,174.250002658844,14|2,1:3|3:2,0:0:0:0:
165,229,35220,1,0,1:0:0:0:
165,229,35314,2,0,B|194:226|219:220|219:220|261:245|261:245|289:239|324:235,1,161.499995687485,14|2,1:2|3:2,0:0:0:0:
472,276,35689,5,14,0:3:0:0:
448,228,35782,1,2,0:3:0:0:
446,174,35876,1,2,3:3:0:0:
458,121,35970,1,2,0:2:0:0:
485,74,36064,6,0,B|452:47|413:59|413:59|392:95|349:95,1,152.999995330811,14|2,1:2|3:2,0:0:0:0:
273,70,36345,1,0,1:0:0:0:
273,70,36439,2,0,P|265:31|246:0,1,76.4999976654053,10|0,0:3|1:0,0:0:0:0:
239,157,36626,2,0,B|277:148|309:166|309:166|324:131|355:113,1,144.500002756119,2|10,3:2|0:2,0:0:0:0:
162,69,37001,1,2,3:2:0:0:
265,234,37189,6,0,B|256:303|256:303|262:314|262:314|252:390,1,152.999995330811,10|2,1:3|3:2,0:0:0:0:
354,261,37564,1,10,1:2:0:0:
161,338,37751,1,2,3:2:0:0:
219,144,37939,1,10,1:3:0:0:
270,359,38126,1,2,3:2:0:0:
108,208,38314,6,0,B|76:180|75:142|75:142|62:176|17:192,1,144.500002756119,10|2,1:2|3:2,0:0:0:0:
77,314,38689,2,0,B|180:339|162:241|265:272,1,204,10|0,1:3|0:0,0:0:0:0:
337,317,39064,6,0,L|417:307,1,74.3750007092953,10|0,1:2|0:0,0:0:0:0:
487,354,39251,1,2,3:2:0:0:
487,354,39345,2,0,L|497:274,1,74.3750007092953,0|10,1:0|0:3,0:0:0:0:
443,214,39532,1,0,1:0:0:0:
443,214,39626,2,0,B|435:146|435:146|441:137|441:137|432:66,1,144.500002756119,2|10,3:2|0:2,0:0:0:0:
496,280,40001,1,2,3:2:0:0:
353,184,40189,6,0,B|363:128|314:103|314:103|321:134|307:158,1,144.500002756119,10|2,1:3|3:2,0:0:0:0:
461,124,40564,1,10,1:2:0:0:
250,46,40751,1,2,3:2:0:0:
311,248,40939,1,10,1:3:0:0:
415,47,41126,1,2,3:2:0:0:
234,125,41314,6,0,B|197:118|162:139|162:139|143:107|102:95,1,144.500002756119,10|2,1:2|3:2,0:0:0:0:
3,18,41689,1,10,0:3:0:0:
27,65,41782,1,2,0:3:0:0:
34,118,41876,1,2,3:3:0:0:
23,170,41970,1,2,0:3:0:0:
0,219,42064,6,0,B|44:282|44:282|23:362,1,152.999995330811,10|2,1:2|3:2,0:0:0:0:
113,327,42345,1,0,1:0:0:0:
113,327,42439,2,0,B|146:321|146:321|153:325|153:325|191:318,1,76.4999976654053,10|0,0:3|1:0,0:0:0:0:
258,381,42626,2,0,B|243:355|215:342|215:342|232:252,1,144.500002756119,2|10,3:2|0:2,0:0:0:0:
257,109,43001,1,2,3:2:0:0:
339,307,43189,6,0,P|414:287|491:282,1,152.999995330811,10|2,1:3|3:2,0:0:0:0:
387,146,43564,1,10,1:2:0:0:
429,380,43751,1,2,3:2:0:0:
512,198,43939,1,10,1:3:0:0:
324,319,44126,1,2,3:2:0:0:
243,105,44314,2,0,B|287:113|304:148|304:148|302:113|329:88,1,144.500002756119,10|2,1:2|3:2,0:0:0:0:
395,188,44689,2,0,B|357:187|313:178|313:178|265:207|265:207|225:197|182:194,1,216.750004134178,10|0,1:3|0:0,0:0:0:0:
107,235,45064,6,0,P|108:197|90:155,1,76.4999976654053,10|0,1:2|0:0,0:0:0:0:
63,306,45251,1,2,3:2:0:0:
63,306,45345,2,0,P|29:324|3:360,1,76.4999976654053,0|10,1:0|0:3,0:0:0:0:
148,317,45532,1,0,1:0:0:0:
148,317,45626,2,0,B|228:334|206:267|285:282,1,148.750001418591,2|10,3:2|0:2,0:0:0:0:
453,339,46001,1,2,3:2:0:0:
333,227,46189,5,10,1:3:0:0:
306,195,46282,1,0,1:0:0:0:
289,143,46376,1,2,3:2:0:0:
298,90,46470,1,0,1:0:0:0:
326,34,46564,2,0,B|258:26|258:26|246:32|246:32|174:23,1,152.999995330811,10|2,1:2|3:2,0:0:0:0:
0,102,46939,2,0,B|35:73|38:28|38:28|50:70|101:86,1,170,10|2,1:3|3:2,0:0:0:0:
62,236,47314,6,0,L|54:178,1,59.4999981842042,10|2,0:2|0:3,0:0:0:0:
73,215,47501,2,0,L|65:157,1,59.4999981842042,2|2,3:2|0:3,0:0:0:0:
91,309,47689,5,10,0:3:0:0:
129,273,47782,1,2,0:3:0:0:
193,252,47876,1,2,3:2:0:0:
270,256,47970,1,2,0:3:0:0:
343,293,48064,6,0,B|299:242|317:176|317:176|335:204|368:209,1,187.000005706787,12|0,1:2|3:2,0:0:0:0:
437,168,48345,1,0,1:0:0:0:
437,168,48439,2,0,P|474:176|515:179,1,76.4999976654053,10|0,0:3|1:0,0:0:0:0:
362,112,48626,2,0,P|358:73|350:36,1,76.4999976654053,0|0,3:2|0:0,0:0:0:0:
347,204,48814,1,10,0:2:0:0:
475,42,49001,1,2,3:2:0:0:
280,142,49189,6,0,B|247:115|205:123|205:123|182:159|141:158,1,152.999995330811,10|0,1:3|3:2,0:0:0:0:
23,267,49564,2,0,B|37:238|61:225|61:225|41:141,1,144.500002756119,8|0,1:2|3:2,0:0:0:0:
11,8,49939,1,8,1:3:0:0:
144,158,50126,1,0,3:2:0:0:
225,23,50314,1,10,1:2:0:0:
41,141,50501,1,2,3:2:0:0:
229,119,50689,2,0,B|295:112|295:112|306:119|306:119|373:112,1,144.500002756119,10|0,1:3|3:2,0:0:0:0:
499,70,51064,6,0,L|492:146,1,76.4999976654053,8|0,1:2|0:0,0:0:0:0:
423,7,51251,1,0,3:2:0:0:
423,7,51345,2,0,L|354:40,1,76.4999976654053,0|10,1:0|0:3,0:0:0:0:
409,176,51532,1,0,1:0:0:0:
409,176,51626,2,0,L|346:131,1,76.4999976654053,0|0,3:2|0:0,0:0:0:0:
424,92,51814,1,10,0:2:0:0:
512,284,52001,1,2,3:2:0:0:
328,156,52189,6,0,B|301:154|269:148|269:148|234:170|234:170|208:166|171:163,1,152.999995330811,10|0,1:3|3:2,0:0:0:0:
31,150,52564,1,10,1:2:0:0:
135,335,52751,1,2,3:2:0:0:
194,118,52939,1,10,1:3:0:0:
0,219,53126,1,2,3:2:0:0:
221,270,53314,2,0,B|212:324|250:356|250:356|245:320|267:296,1,144.500002756119,10|2,1:2|3:2,0:0:0:0:
114,196,53689,2,0,B|110:225|74:240|74:240|180:257|153:176|244:197,1,242.249993531227,10|0,1:3|0:0,0:0:0:0:
312,236,54064,6,0,B|413:223|413:223|428:246|458:254,1,152.999995330811,12|0,1:2|3:2,0:0:0:0:
479,178,54345,1,0,1:0:0:0:
479,178,54439,2,0,P|467:140|464:103,1,76.4999976654053,8|0,1:3|1:0,0:0:0:0:
387,17,54626,2,0,P|383:55|372:91,1,76.4999976654053,0|0,3:2|1:0,0:0:0:0:
488,0,54814,1,10,1:2:0:0:
273,109,55001,1,2,3:2:0:0:
467,212,55189,6,0,B|396:203|396:203|389:194|389:194|318:186,1,152.999995330811,10|0,1:3|3:2,0:0:0:0:
251,223,55470,1,0,1:0:0:0:
251,223,55564,2,0,B|284:292|284:292|252:360,1,152.999995330811,12|0,1:2|3:2,0:0:0:0:
40,317,55939,2,0,P|119:313|195:290,1,152.999995330811,8|0,1:3|3:2,0:0:0:0:
94,204,56314,1,10,1:2:0:0:
242,357,56501,1,2,3:2:0:0:
242,357,56595,1,0,1:0:0:0:
242,357,56689,2,0,B|270:325|270:291|270:291|282:324|325:340,1,144.500002756119,10|0,1:3|3:2,0:0:0:0:
198,251,57064,6,0,B|211:221|241:209|241:209|224:109,1,157.249999400139,12|0,1:2|3:2,0:0:0:0:
195,25,57345,1,0,1:0:0:0:
195,25,57439,2,0,P|238:37|279:38,1,78.6249997000694,8|0,1:3|1:0,0:0:0:0:
134,91,57626,2,0,P|91:79|50:78,1,78.6249997000694,0|0,3:2|1:0,0:0:0:0:
111,0,57814,1,14,1:2:0:0:
0,210,58001,1,2,3:2:0:0:
219,131,58189,5,10,1:3:0:0:
264,155,58282,1,0,1:0:0:0:
332,165,58376,1,0,3:2:0:0:
409,147,58470,1,0,1:0:0:0:
470,101,58564,6,0,B|415:156|438:225|438:225|455:192|484:185,1,191.250007295609,14|2,1:2|3:2,0:0:0:0:
512,285,58845,5,0,1:0:0:0:
512,285,58939,2,0,B|478:252|432:262|432:262|408:305|355:304,1,165.750000632286,14|2,1:3|3:2,0:0:0:0:
273,278,59220,5,0,1:0:0:0:
273,278,59314,2,0,B|296:312|296:312|285:352,1,80.7499978437424,14|0,1:2|1:0,0:0:0:0:
358,220,59501,2,0,B|335:186|335:186|346:146,1,80.7499978437424,2|0,3:2|1:0,0:0:0:0:
387,37,59689,5,14,0:3:0:0:
330,66,59782,1,2,0:3:0:0:
267,78,59876,1,2,3:3:0:0:
201,72,59970,1,2,0:2:0:0:
