osu file format v14

[General]
AudioFilename: audio.ogg
AudioLeadIn: 0
PreviewTime: 35970
Countdown: 0
SampleSet: Soft
StackLeniency: 0.7
Mode: 0
LetterboxInBreaks: 0
WidescreenStoryboard: 1

[Editor]
Bookmarks: 6064,9064,12064,24064,30064,33064,36064,48064,54064,57064
DistanceSpacing: 0.9
BeatDivisor: 4
GridSize: 4
TimelineZoom: 1.5

[Metadata]
Title:INTERNET ANGEL
TitleUnicode:INTERNET ANGEL
Artist:Aiobahn
ArtistUnicode:Aiobahn
Creator:bnmc
Version:GOROU'S (MENTALLY) INSANE
Source:NEEDY GIRL OVERDOSE
Tags:japanese instrumental novelty electronic video game vgm NEEDY STREAMER OVERLOAD ニーディーガールオーバードーズ OST Why so serious? WSS playground 超絶最かわてんしちゃん OMGkawaiiAngel 超てんちゃん KAngel あめちゃん ame-chan Xemono peposoft にゃるら nyalra nyarura Gorou Wanpachi Cycopton CClemon Yua -Yua
BeatmapID:4211070
BeatmapSetID:2009205

[Difficulty]
HPDrainRate:5
CircleSize:4.1
OverallDifficulty:7
ApproachRate:8.5
SliderMultiplier:1.85
SliderTickRate:1

[Events]
//Background and Video events
0,0,"i can fix her.jpg",0,0
//Break Periods
//Storyboard Layer 0 (Background)
//Storyboard Layer 1 (Fail)
//Storyboard Layer 2 (Pass)
//Storyboard Layer 3 (Foreground)
//Storyboard Layer 4 (Overlay)
//Storyboard Sound Samples

[TimingPoints]
64,375,4,2,1,55,1,0
64,-100,4,2,1,55,0,0
2501,-100,4,2,2,55,0,0
2689,-100,4,2,1,55,0,0
2970,-100,4,2,1,5,0,0
3064,-100,4,2,1,55,0,0
5501,-100,4,2,2,55,0,0
5689,-100,4,2,1,55,0,0
6064,-100,4,2,1,55,0,0
6814,-100,4,2,2,60,0,0
6907,-100,4,2,1,60,0,0
7564,-100,4,2,1,63,0,0
8501,-100,4,2,2,63,0,0
8689,-100,4,2,1,63,0,0
9064,-133.333333333333,4,2,20,65,0,0
9157,-133.333333333333,4,2,1,65,0,0
9814,-100,4,2,20,65,0,0
10001,-100,4,2,2,65,0,0
10189,-100,4,2,1,65,0,0
10376,-100,4,2,2,65,0,0
10564,-100,4,2,20,65,0,0
10939,-100,4,2,21,65,0,0
11032,-100,4,2,1,65,0,0
11314,-100,4,2,22,65,0,0
11407,-100,4,2,1,65,0,0
11689,-100,4,2,21,67,0,0
11782,-100,4,2,1,67,0,0
11970,-100,4,2,1,67,0,0
12064,-100,4,2,1,70,0,0
12439,-100,4,2,3,70,0,0
12626,-100,4,2,1,70,0,0
15439,-100,4,2,3,70,0,0
15626,-100,4,2,1,70,0,0
17689,-100,4,2,3,70,0,0
18064,-100,4,2,1,70,0,0
18439,-100,4,2,3,70,0,0
18626,-100,4,2,1,70,0,0
21439,-100,4,2,3,70,0,0
21626,-100,4,2,1,70,0,0
23314,-100,4,2,3,70,0,0
23689,-100,4,2,3,80,0,0
24064,-100,4,2,1,70,0,0
24439,-100,4,2,3,70,0,0
24626,-100,4,2,1,70,0,0
27439,-100,4,2,3,70,0,0
27626,-100,4,2,1,70,0,0
30064,-100,4,2,2,63,0,0
30439,-100,4,2,3,63,0,0
30532,-100,4,2,2,63,0,0
31564,-100,4,2,2,65,0,0
33064,-100,4,2,20,67,0,0
33157,-100,4,2,2,67,0,0
33814,-100,4,2,20,67,0,0
33907,-100,4,2,2,67,0,0
34564,-100,4,2,20,67,0,0
34657,-100,4,2,2,67,0,0
34939,-100,4,2,23,67,0,0
35032,-100,4,2,2,67,0,0
35314,-100,4,2,22,67,0,0
35407,-100,4,2,2,67,0,0
35689,-100,4,2,21,70,0,0
35782,-100,4,2,3,70,0,0
35970,-100,4,2,3,70,0,0
36064,-86.9565217391304,4,2,11,75,0,0
36814,-86.9565217391304,4,2,12,75,0,0
37189,-68.9655172413793,4,2,12,75,0,0
39064,-86.9565217391304,4,2,11,75,0,0
39814,-86.9565217391304,4,2,12,75,0,0
40189,-68.9655172413793,4,2,12,75,0,0
41689,-68.9655172413793,4,2,3,75,0,0
42064,-86.9565217391304,4,2,11,75,0,0
42814,-86.9565217391304,4,2,12,75,0,0
43189,-68.9655172413793,4,2,12,75,0,0
45064,-86.9565217391304,4,2,11,75,0,0
45814,-86.9565217391304,4,2,12,75,0,0
46189,-68.9655172413793,4,2,11,75,0,0
46751,-68.9655172413793,4,2,12,75,0,0
47314,-68.9655172413793,4,2,3,75,0,0
47689,-68.9655172413793,4,2,3,85,0,0
48064,-86.9565217391304,4,2,11,75,0,0
48814,-86.9565217391304,4,2,12,75,0,0
49189,-68.9655172413793,4,2,12,75,0,0
51064,-86.9565217391304,4,2,11,75,0,0
51814,-86.9565217391304,4,2,12,75,0,0
52189,-68.9655172413793,4,2,12,75,0,0
54064,-86.9565217391304,4,2,13,70,0,0
54157,-86.9565217391304,4,2,14,70,0,0
54251,-86.9565217391304,4,2,13,70,0,0
54439,-86.9565217391304,4,2,14,70,0,0
54532,-86.9565217391304,4,2,13,70,0,0
54720,-86.9565217391304,4,2,14,70,0,0
55189,-68.9655172413793,4,2,13,70,0,0
55282,-68.9655172413793,4,2,14,70,0,0
55564,-68.9655172413793,4,2,13,73,0,0
55657,-68.9655172413793,4,2,14,73,0,0
55939,-68.9655172413793,4,2,13,73,0,0
56032,-68.9655172413793,4,2,14,73,0,0
56314,-68.9655172413793,4,2,13,73,0,0
56407,-68.9655172413793,4,2,14,73,0,0
56689,-68.9655172413793,4,2,13,73,0,0
56782,-68.9655172413793,4,2,14,73,0,0
57064,-86.9565217391304,4,2,30,73,0,0
57157,-86.9565217391304,4,2,14,73,0,0
57251,-86.9565217391304,4,2,13,73,0,0
57439,-86.9565217391304,4,2,14,73,0,0
57532,-86.9565217391304,4,2,13,73,0,0
57720,-86.9565217391304,4,2,14,73,0,0
57814,-86.9565217391304,4,2,20,73,0,0
58189,-68.9655172413793,4,2,13,73,0,0
58564,-68.9655172413793,4,2,30,73,0,0
58657,-68.9655172413793,4,2,14,73,0,0
58939,-68.9655172413793,4,2,23,73,0,0
59314,-68.9655172413793,4,2,22,73,0,0
59689,-68.9655172413793,4,2,21,85,0,0
59782,-68.9655172413793,4,2,3,85,0,0

[Colours]
Combo1 : 239,63,67
Combo2 : 232,170,244
Combo3 : 56,118,118
Combo4 : 190,142,249

[HitObjects]
41,61,64,6,0,B|55:68|55:68|98:34|98:34|161:41|231:-6,1,185,14|10,0:0|0:1,0:0:0:0:
73,145,626,2,0,B|87:152|87:152|130:118|130:118|200:123|196:196,1,185,10|8,0:0|0:1,0:0:0:0:
73,145,1189,1,10,0:0:0:0:
285,9,1564,6,0,B|292:30|292:30|254:71|254:71|251:127|285:170,1,185,10|8,0:0|0:1,0:0:0:0:
373,33,2126,2,0,B|380:54|380:54|342:95|342:95|358:149,1,92.5,10|2,0:0|0:0,0:0:0:0:
349,118,2407,1,2,0:0:0:0:
352,128,2501,2,0,B|368:182,1,46.25,10|0,0:1|0:0,0:0:0:0:
274,374,2689,2,0,B|289:290|309:329|324:245,1,138.75,10|0,0:0|0:0,0:0:0:0:
324,246,3064,6,0,B|302:261|302:261|242:249|242:249|218:296|160:308,1,185,10|10,0:0|0:1,0:0:0:0:
314,168,3626,2,0,B|292:183|292:183|232:171|232:171|202:118|249:77,1,185,10|8,0:0|0:1,0:0:0:0:
314,168,4189,1,10,0:0:0:0:
314,168,4376,1,2,1:2:0:0:
161,218,4564,6,0,B|135:225|135:225|86:276|86:276|28:282|11:225,1,185,10|8,0:0|0:1,0:0:0:0:
210,286,5126,2,0,B|184:293|184:293|135:344,1,92.5,10|2,0:0|0:0,0:0:0:0:
132,348,5407,1,2,0:0:0:0:
126,356,5501,2,0,B|110:373|88:381,1,46.25,10|0,0:1|0:0,0:0:0:0:
232,360,5689,2,0,B|249:375|272:380,1,46.25,10|0,0:0|0:0,0:0:0:0:
101,261,5876,2,0,B|88:216,1,46.25,2|0,0:0|0:0,0:0:0:0:
151,136,6064,6,0,B|175:117|175:117|249:127|249:127|276:83|331:66,1,185,14|10,1:2|1:1,0:0:0:0:
175,220,6626,2,0,B|199:201|199:201|273:211|273:211|287:251|341:264,1,185,10|8,1:2|1:1,0:0:0:0:
175,220,7189,1,10,1:2:0:0:
477,99,7564,6,0,B|457:111|457:111|410:96|410:96|336:113|357:182,1,185,10|8,1:2|1:1,0:0:0:0:
468,14,8126,2,0,B|450:24|450:24|403:9|403:9|346:20,1,92.5,10|2,1:2|1:2,0:0:0:0:
374,21,8407,1,2,1:2:0:0:
367,28,8501,2,0,B|310:17,1,46.25,10|0,1:1|1:0,0:0:0:0:
165,116,8689,2,0,B|194:129|231:130|231:130|265:115|288:90,1,138.75,10|0,1:2|1:0,0:0:0:0:
217,54,9064,6,0,B|206:-3,3,34.6875013232232,14|0|0|0,1:2|1:0|1:0|1:0,0:0:0:0:
372,110,9439,1,10,1:1:0:0:
372,110,9532,1,0,1:0:0:0:
372,110,9626,2,0,B|365:144,1,34.6875013232232,10|0,1:2|1:0,0:0:0:0:
256,206,9814,6,0,B|301:196,3,46.25,4|0|10|0,3:2|1:0|1:1|1:0,0:0:0:0:
424,243,10189,2,0,P|404:236|371:216,1,46.25,10|0,1:2|1:0,0:0:0:0:
296,321,10376,2,0,P|303:301|323:268,1,46.25,0|0,3:2|1:0,0:0:0:0:
256,192,10564,12,0,11970,1:0:0:0:
139,307,12064,5,14,0:0:0:0:
213,274,12251,1,2,3:2:0:0:
70,180,12439,2,0,P|62:242|69:299,1,92.5,10|2,0:3|3:2,0:0:0:0:
223,103,12814,2,0,P|231:41|224:-16,2,92.5,10|2|10,0:2|3:2|0:3,0:0:0:0:
169,184,13376,1,2,3:2:0:0:
293,240,13564,2,0,B|338:226|338:226|382:233,1,92.5,10|2,0:2|3:2,0:0:0:0:
512,70,13939,2,0,B|467:84|467:84|422:76,1,92.5,10|2,0:3|3:2,0:0:0:0:
250,137,14314,5,10,0:2:0:0:
336,38,14501,1,2,3:2:0:0:
244,45,14689,1,10,0:3:0:0:
343,130,14876,1,0,3:2:0:0:
189,207,15064,6,0,L|66:194,1,92.5,10|2,0:2|3:2,0:0:0:0:
255,333,15439,2,0,P|205:329|142:339,1,92.5,10|2,0:3|3:2,0:0:0:0:
408,180,15814,1,10,0:2:0:0:
329,210,16001,1,2,3:2:0:0:
472,323,16189,2,0,L|485:200,1,92.5,10|2,0:3|3:2,0:0:0:0:
342,129,16564,2,0,P|337:84|342:38,2,92.5,10|2|10,0:2|3:2|0:3,0:0:0:0:
393,264,17126,1,2,3:2:0:0:
264,157,17314,5,10,0:2:0:0:
264,157,17501,1,2,3:2:0:0:
102,260,17689,1,10,0:3:0:0:
143,253,17782,1,2,0:3:0:0:
143,253,17876,1,2,3:3:0:0:
143,253,17970,1,2,0:3:0:0:
179,271,18064,6,0,P|184:225|179:179,1,92.5,10|2,0:2|3:2,0:0:0:0:
191,11,18439,1,10,0:3:0:0:
111,24,18626,1,2,3:2:0:0:
240,118,18814,2,0,L|354:98,1,92.5,10|2,0:2|3:2,0:0:0:0:
457,162,19189,2,0,B|450:115|450:115|469:62,1,92.5,10|2,0:3|3:2,0:0:0:0:
301,193,19564,1,10,0:2:0:0:
301,193,19751,1,2,3:2:0:0:
352,340,19939,2,0,L|367:248,1,92.5,10|2,0:3|3:2,0:0:0:0:
123,171,20314,5,10,0:2:0:0:
229,246,20501,1,2,3:2:0:0:
138,262,20689,1,10,0:3:0:0:
213,155,20876,1,0,3:2:0:0:
66,6,21064,6,0,P|54:61|60:109,1,92.5,10|2,0:2|3:2,0:0:0:0:
246,67,21439,2,0,L|154:82,1,92.5,10|2,0:3|3:2,0:0:0:0:
301,193,21814,2,0,L|392:208,2,92.5,10|2|10,0:2|3:2|0:3,0:0:0:0:
434,23,22376,1,2,3:2:0:0:
360,123,22564,2,0,B|348:78|348:78|363:13,1,92.5,10|2,0:2|3:2,0:0:0:0:
510,12,22939,2,0,B|522:57|522:57|507:122,1,92.5,10|2,0:3|3:2,0:0:0:0:
443,233,23314,5,10,0:2:0:0:
434,267,23407,1,2,0:3:0:0:
434,267,23501,1,2,3:2:0:0:
434,267,23595,1,2,0:3:0:0:
463,282,23689,2,0,L|527:293,1,46.25,10|2,0:3|0:3,0:0:0:0:
369,326,23876,2,0,L|305:337,1,46.25,2|2,3:2|0:3,0:0:0:0:
232,372,24064,6,0,P|238:319|222:246,1,92.5,12|0,0:0|3:2,0:0:0:0:
42,140,24439,2,0,P|36:193|52:266,1,92.5,10|0,0:3|3:2,0:0:0:0:
201,201,24814,5,10,0:2:0:0:
119,188,25001,1,2,3:2:0:0:
146,268,25189,1,10,0:3:0:0:
146,268,25376,1,0,3:2:0:0:
257,134,25564,6,0,L|242:29,1,92.5,8|0,0:2|3:2,0:0:0:0:
435,162,25939,2,0,B|440:116|440:116|422:74,1,92.5,8|0,0:3|3:2,0:0:0:0:
295,218,26314,5,10,0:2:0:0:
373,324,26501,1,2,3:2:0:0:
281,309,26689,1,10,0:3:0:0:
387,232,26876,1,0,3:2:0:0:
472,384,27064,6,0,P|477:338|468:286,1,92.5,8|0,0:2|3:2,0:0:0:0:
495,126,27439,2,0,L|390:141,1,92.5,10|0,0:3|3:2,0:0:0:0:
213,171,27814,5,10,0:2:0:0:
335,188,28001,1,2,3:2:0:0:
325,111,28189,1,10,0:3:0:0:
325,111,28376,1,0,3:2:0:0:
264,228,28564,6,0,B|258:273|258:273|271:326,1,92.5,10|2,0:2|3:2,0:0:0:0:
124,128,28939,2,0,B|135:173|135:173|129:218,1,92.5,10|2,0:3|3:2,0:0:0:0:
331,19,29314,5,10,0:2:0:0:
231,104,29501,1,2,3:2:0:0:
325,111,29689,1,10,0:3:0:0:
237,11,29876,1,0,3:2:0:0:
124,128,30064,6,0,B|-8:173|-66:56|33:-20|87:63,1,277.5,12|0,1:2|3:2,0:0:0:0:
191,181,30814,5,10,1:2:0:0:
42,216,31001,1,2,3:2:0:0:
139,306,31189,1,10,1:3:0:0:
65,289,31376,1,0,3:2:0:0:
265,198,31564,6,0,B|284:188|305:172|305:172|382:199|382:199|384:258|432:293|504:275,1,277.5,12|0,1:2|3:2,0:0:0:0:
315,263,32314,5,10,1:2:0:0:
340,374,32501,1,2,3:2:0:0:
465,196,32689,5,10,1:3:0:0:
448,122,32876,1,0,3:2:0:0:
265,198,33064,6,0,L|190:181,3,46.25,12|0|0|0,1:2|1:0|3:2|1:0,0:0:0:0:
165,132,33439,2,0,L|90:149,1,46.25,8|0,1:3|1:0,0:0:0:0:
41,240,33626,5,0,3:2:0:0:
41,240,33720,1,0,1:0:0:0:
41,240,33814,2,0,P|66:211|79:173,3,46.25,14|0|2|0,1:2|1:0|3:2|1:0,0:0:0:0:
28,84,34189,2,0,P|40:120|67:150,1,46.25,10|0,1:3|1:0,0:0:0:0:
189,54,34376,2,0,L|206:-21,1,46.25,0|0,3:2|1:0,0:0:0:0:
256,192,34564,12,2,35970,0:2:0:0:
288,280,36064,6,0,L|353:290,1,53.1875010144711,14|0,1:2|0:0,0:0:0:0:
256,192,36251,1,2,3:2:0:0:
249,202,36345,2,0,P|283:197|341:162,1,53.1875010144711,0|10,1:0|0:3,0:0:0:0:
143,314,36532,1,0,1:0:0:0:
155,302,36626,2,0,P|189:307|247:342,1,53.1875010144711,2|0,3:2|0:0,0:0:0:0:
63,237,36814,2,0,L|193:217,1,106.375002028942,10|2,0:2|3:2,0:0:0:0:
271,0,37189,6,0,B|249:22|233:55|233:55|240:91|255:118,1,134.12500409317,10|2,1:3|3:2,0:0:0:0:
373,133,37564,2,0,B|394:110|410:77|410:77|403:41|388:14,1,134.12500409317,10|2,1:2|3:2,0:0:0:0:
255,118,37939,2,0,B|277:139|310:155|310:155|346:148|373:133,1,134.12500409317,10|2,1:3|3:2,0:0:0:0:
458,251,38314,2,0,B|435:229|402:213|402:213|366:220|339:235,1,134.12500409317,10|2,1:2|3:2,0:0:0:0:
325,353,38689,2,0,B|347:374|380:390|380:390|416:383|443:368,1,134.12500409317,10|0,1:3|3:2,0:0:0:0:
271,285,39064,6,0,L|206:295,1,53.1875010144711,10|0,1:2|0:0,0:0:0:0:
105,219,39251,1,2,3:2:0:0:
115,213,39345,2,0,P|151:222|192:256,1,53.1875010144711,0|10,1:0|0:3,0:0:0:0:
151,334,39532,1,0,1:0:0:0:
141,345,39626,2,0,P|117:356|91:361,1,53.1875010144711,2|0,3:2|0:0,0:0:0:0:
36,287,39814,2,0,L|19:181,1,106.375002028942,10|2,0:2|3:2,0:0:0:0:
226,23,40189,6,0,B|209:104|195:63|176:146,1,134.12500409317,10|2,1:3|3:2,0:0:0:0:
349,247,40564,2,0,B|287:191|329:200|267:142,1,134.12500409317,10|2,1:2|3:2,0:0:0:0:
93,241,40939,2,0,B|171:215|143:247|224:222,1,134.12500409317,10|2,1:3|3:2,0:0:0:0:
394,176,41314,5,10,1:2:0:0:
394,176,41501,1,2,3:2:0:0:
272,285,41689,1,10,0:3:0:0:
260,326,41782,1,2,0:3:0:0:
260,326,41876,1,2,3:3:0:0:
260,326,41970,1,2,0:3:0:0:
282,356,42064,6,0,P|313:360|351:378,1,53.1875010144711,10|0,1:2|0:0,0:0:0:0:
417,261,42251,1,2,3:2:0:0:
408,270,42345,2,0,P|382:278|356:281,1,53.1875010144711,0|10,1:0|0:3,0:0:0:0:
447,384,42532,1,0,1:0:0:0:
456,374,42626,2,0,L|469:315,1,53.1875010144711,2|0,3:2|0:0,0:0:0:0:
501,247,42814,2,0,L|475:129,1,106.375002028942,10|2,0:2|3:2,0:0:0:0:
333,41,43189,6,0,B|341:75|364:99|364:99|355:128|360:165,1,134.12500409317,10|2,1:3|3:2,0:0:0:0:
208,68,43564,2,0,B|242:59|266:36|266:36|295:45|332:40,1,134.12500409317,10|2,1:2|3:2,0:0:0:0:
235,192,43939,2,0,B|226:157|203:133|203:133|212:104|207:67,1,134.12500409317,10|2,1:3|3:2,0:0:0:0:
316,252,44314,2,0,B|281:260|257:283|257:283|228:274|191:279,1,134.12500409317,10|2,1:2|3:2,0:0:0:0:
28,176,44689,2,0,B|62:184|86:207|86:207|115:198|152:203,1,134.12500409317,10|0,1:3|3:2,0:0:0:0:
32,307,45064,6,0,P|23:291|12:236,1,53.1875010144711,10|0,1:2|0:0,0:0:0:0:
146,346,45251,1,2,3:2:0:0:
134,358,45345,2,0,L|82:368,1,53.1875010144711,0|10,1:0|0:3,0:0:0:0:
199,219,45532,1,0,1:0:0:0:
209,229,45626,2,0,P|202:254|190:278,1,53.1875010144711,2|0,3:2|0:0,0:0:0:0:
104,124,45814,2,0,L|83:20,2,106.375002028942,10|2|10,0:2|3:2|1:3,0:0:0:0:
173,149,46282,1,0,1:0:0:0:
193,122,46375,1,2,3:2:0:0:
223,107,46469,1,0,1:0:0:0:
256,108,46563,5,10,1:2:0:0:
413,25,46751,1,2,3:2:0:0:
479,118,46939,5,10,1:3:0:0:
301,11,47126,1,2,3:2:0:0:
374,202,47314,5,10,0:2:0:0:
374,202,47407,1,2,0:3:0:0:
374,202,47501,1,2,3:2:0:0:
374,202,47595,1,2,0:3:0:0:
421,223,47689,5,10,0:3:0:0:
380,253,47782,1,2,0:3:0:0:
358,298,47876,1,2,3:2:0:0:
359,347,47970,1,2,0:3:0:0:
316,323,48064,6,0,P|255:305|173:295,1,106.375002028942,12|0,1:2|3:2,0:0:0:0:
112,376,48345,2,0,L|173:367,1,53.1875010144711,0|10,1:0|0:3,0:0:0:0:
143,249,48532,1,0,1:0:0:0:
129,240,48626,2,0,L|68:231,1,53.1875010144711,0|0,3:2|0:0,0:0:0:0:
17,283,48814,5,10,0:2:0:0:
116,161,49001,1,2,3:2:0:0:
73,50,49189,2,0,P|62:35|11:5,1,67.0625020465852,10|0,1:3|0:0,0:0:0:0:
42,125,49376,1,0,3:2:0:0:
273,63,49564,6,0,B|258:57|236:57|236:57|185:88|185:88|169:90|148:83,1,134.12500409317,8|0,1:2|3:2,0:0:0:0:
457,180,49939,2,0,B|442:185|420:185|420:185|369:154|369:154|353:152|332:159,1,134.12500409317,8|0,1:3|3:2,0:0:0:0:
273,268,50314,2,0,B|278:253|278:231|278:231|247:180|247:180|245:164|252:143,2,134.12500409317,10|2|10,1:2|3:2|1:3,0:0:0:0:
273,268,50876,1,0,3:2:0:0:
93,325,51064,6,0,P|117:322|161:301,1,53.1875010144711,8|0,1:2|0:0,0:0:0:0:
198,247,51251,1,0,3:2:0:0:
186,237,51345,2,0,L|115:226,1,53.1875010144711,0|10,1:0|0:3,0:0:0:0:
223,340,51532,1,0,1:0:0:0:
237,349,51626,2,0,L|308:360,1,53.1875010144711,0|0,3:2|0:0,0:0:0:0:
487,252,51814,5,10,0:2:0:0:
359,301,52001,1,2,3:2:0:0:
288,182,52189,2,0,P|283:164|282:89,1,67.0625020465852,10|0,1:3|0:0,0:0:0:0:
368,215,52376,1,0,3:2:0:0:
166,313,52564,6,0,B|217:324|217:324|241:347|241:347|289:357,1,134.12500409317,10|2,1:2|3:2,0:0:0:0:
45,269,52939,2,0,B|96:258|96:258|120:235|120:235|168:224,1,134.12500409317,10|2,1:3|3:2,0:0:0:0:
293,125,53314,2,0,B|282:176|282:176|259:200|259:200|248:248,2,134.12500409317,10|2|10,1:2|3:2|1:3,0:0:0:0:
111,51,53876,1,0,3:2:0:0:
212,131,54064,6,0,P|190:125|149:97,1,53.1875010144711,12|0,1:2|1:0,0:0:0:0:
43,97,54251,1,0,3:2:0:0:
32,84,54345,2,0,L|18:32,1,53.1875010144711,0|8,1:0|1:3,0:0:0:0:
96,156,54532,1,0,1:0:0:0:
81,166,54627,2,0,L|67:217,1,53.1875010144711,0|0,3:2|1:0,0:0:0:0:
8,268,54814,5,10,1:2:0:0:
136,354,55001,1,2,3:2:0:0:
230,288,55189,2,0,P|247:246|251:200,1,67.0625020465852,10|0,1:3|1:0,0:0:0:0:
153,278,55376,1,0,3:2:0:0:
456,289,55564,6,0,B|411:310|356:303|356:303|317:356|317:356|268:351|219:374,2,268.250008186341,12|8|10,1:2|1:3|1:2,0:0:0:0:
390,144,56501,1,2,3:2:0:0:
507,223,56689,1,10,1:3:0:0:
507,223,56782,1,0,1:0:0:0:
507,223,56876,1,0,3:2:0:0:
320,196,57064,6,0,P|309:171|303:145,2,53.1875010144711,12|0|0,1:2|1:0|3:2,0:0:0:0:
222,140,57345,2,0,L|244:10,1,106.375002028942,0|0,1:0|1:0,0:0:0:0:
151,71,57626,5,0,3:2:0:0:
145,76,57720,1,0,1:0:0:0:
139,81,57814,2,0,P|114:92|88:98,1,53.1875010144711,14|0,1:2|1:0,0:0:0:0:
76,184,58001,2,0,P|50:177|25:167,1,53.1875010144711,2|0,3:2|1:0,0:0:0:0:
54,279,58189,2,0,B|152:222|150:330|250:225,1,201.187506139755,10|0,1:3|1:0,0:0:0:0:
407,306,58564,6,0,B|423:303|423:303|448:319,5,44.7083346977234,14|0|0|2|0|0,1:2|0:0|0:0|3:2|0:0|0:0,0:0:0:0:
327,224,58939,2,0,B|312:217|312:217|301:188,5,44.7083346977234,14|0|0|2|0|0,1:3|0:0|0:0|3:2|0:0|0:0,0:0:0:0:
341,343,59314,2,0,B|348:357|348:357|341:386,5,44.7083346977234,14|0|0|2|0|0,1:2|0:0|0:0|3:2|0:0|0:0,0:0:0:0:
401,234,59689,6,0,B|403:217|403:217|426:198,2,44.7083346977234,14|0|0,0:3|0:0|0:0,0:0:0:0:
288,288,59876,2,0,B|276:299|276:299|246:301,2,44.7083346977234,2|0|0,3:3|0:0|0:0,0:0:0:0:
