osu file format v14

[General]
AudioFilename: audio.mp3
AudioLeadIn: 0
PreviewTime: 27123
Countdown: 0
SampleSet: Normal
StackLeniency: 0.7
Mode: 1
LetterboxInBreaks: 0
WidescreenStoryboard: 0

[Editor]
Bookmarks: 57232,72480,87709,120089,135328,165804,200089
DistanceSpacing: 1
BeatDivisor: 4
GridSize: 32
TimelineZoom: 1

[Metadata]
Title:I'm Here (feat. rionos)
TitleUnicode:ここにいる (feat. rionos)
Artist:Aiobahn
ArtistUnicode:Aiobahn
Creator:Faputa
Version:Muzukashii
Source:osu!
Tags:Featured Artist FA Mappers' Guild MG Koko ni Iru min-seung kim maltine records fated monstercat 岡野里音 Rio Okano J-Pop JPop Japanese Electronic Progressive House
BeatmapID:2413227
BeatmapSetID:1154051

[Difficulty]
HPDrainRate:6.5
CircleSize:2
OverallDifficulty:4.5
ApproachRate:10
SliderMultiplier:1.4
SliderTickRate:1

[Events]
//Background and Video events
0,0,"BG.jpg",0,30
//Break Periods
2,15538,18697
2,72680,79173
2,181052,183935
2,185061,191554
//Storyboard Layer 0 (Background)
//Storyboard Layer 1 (Fail)
//Storyboard Layer 2 (Pass)
//Storyboard Layer 3 (Foreground)
//Storyboard Layer 4 (Overlay)
//Storyboard Sound Samples

[TimingPoints]
100,476.190476190476,4,1,0,100,1,0
18909,-100,4,1,0,90,0,0
27004,-100,4,1,0,80,0,0
34147,-100,4,1,0,85,0,0
72719,-100,4,1,0,80,0,0
80099,-100,4,1,0,90,0,0
88195,-100,4,1,0,100,0,1
102957,-100,4,1,0,100,0,0
103433,-100,4,1,0,100,0,1
117957,-100,4,1,0,40,0,1
118195,-100,4,1,0,40,0,0
119980,-100,4,1,0,80,0,0
132957,-100,4,1,0,50,0,0
134742,-100,4,1,0,80,0,0
135099,-100,4,1,0,85,0,0
165576,-100,4,1,0,90,0,0
185099,-100,4,1,0,80,0,0
192480,-100,4,1,0,90,0,0
200576,-100,4,1,0,100,0,1
215338,-100,4,1,0,100,0,0
215814,-100,4,1,0,100,0,1
230338,-100,4,1,0,40,0,1
230576,-100,4,1,0,40,0,0
232480,-100,4,1,0,80,0,0
247480,-100,4,1,0,40,0,0
248671,-100,4,1,0,50,0,0
248909,-100,4,1,0,60,0,0
249147,-100,4,1,0,70,0,0
249385,-100,4,1,0,80,0,0

[HitObjects]
256,192,15338,5,4,0:0:0:0:
256,192,19147,5,0,0:0:0:0:
256,192,19861,1,0,0:0:0:0:
256,192,20099,1,8,0:0:0:0:
256,192,20814,1,8,0:0:0:0:
256,192,21052,1,8,0:0:0:0:
256,192,21528,1,8,0:0:0:0:
256,192,22004,1,0,0:0:0:0:
256,192,22480,1,0,0:0:0:0:
256,192,22957,1,8,0:0:0:0:
256,192,23671,1,0,0:0:0:0:
256,192,23909,1,8,0:0:0:0:
256,192,24623,1,8,0:0:0:0:
256,192,24861,1,8,0:0:0:0:
256,192,25814,1,8,0:0:0:0:
256,192,26052,1,0,0:0:0:0:
256,192,26290,1,8,0:0:0:0:
256,192,26766,1,4,0:0:0:0:
256,192,27242,1,8,0:0:0:0:
256,192,27719,1,8,0:0:0:0:
256,192,27957,1,8,0:0:0:0:
256,192,28195,1,0,0:0:0:0:
256,192,28671,1,8,0:0:0:0:
256,192,28909,1,8,0:0:0:0:
256,192,29385,1,0,0:0:0:0:
256,192,29861,1,0,0:0:0:0:
256,192,30099,1,8,0:0:0:0:
256,192,30576,1,8,0:0:0:0:
256,192,30814,1,8,0:0:0:0:
256,192,31290,1,0,0:0:0:0:
256,192,31766,1,0,0:0:0:0:
256,192,32004,1,8,0:0:0:0:
256,192,32480,1,8,0:0:0:0:
256,192,32719,1,8,0:0:0:0:
256,192,33195,1,0,0:0:0:0:
256,192,33909,1,8,0:0:0:0:
256,192,34385,1,4,0:0:0:0:
256,192,34861,1,8,0:0:0:0:
256,192,35338,1,8,0:0:0:0:
256,192,35814,1,0,0:0:0:0:
256,192,36052,1,8,0:0:0:0:
256,192,36290,1,8,0:0:0:0:
256,192,36766,1,0,0:0:0:0:
256,192,37004,1,8,0:0:0:0:
256,192,37480,1,0,0:0:0:0:
256,192,37719,1,0,0:0:0:0:
256,192,38195,1,8,0:0:0:0:
256,192,38433,1,8,0:0:0:0:
256,192,38909,1,0,0:0:0:0:
256,192,39385,1,8,0:0:0:0:
256,192,39861,1,8,0:0:0:0:
256,192,40338,1,8,0:0:0:0:
256,192,40814,1,0,0:0:0:0:
256,192,41528,1,8,0:0:0:0:
256,192,42004,1,4,0:0:0:0:
256,192,42480,1,8,0:0:0:0:
256,192,42957,1,8,0:0:0:0:
256,192,43433,1,0,0:0:0:0:
256,192,43671,1,8,0:0:0:0:
256,192,44147,1,8,0:0:0:0:
256,192,45099,1,0,0:0:0:0:
256,192,45338,1,8,0:0:0:0:
256,192,45576,1,0,0:0:0:0:
256,192,46052,1,0,0:0:0:0:
256,192,46290,1,0,0:0:0:0:
256,192,46528,1,8,0:0:0:0:
256,192,46766,1,8,0:0:0:0:
256,192,47242,1,8,0:0:0:0:
256,192,47480,1,0,0:0:0:0:
256,192,47957,1,8,0:0:0:0:
256,192,48433,1,8,0:0:0:0:
256,192,48909,1,0,0:0:0:0:
256,192,49147,1,0,0:0:0:0:
256,192,49861,1,0,0:0:0:0:
256,192,50099,1,8,0:0:0:0:
256,192,50338,1,0,0:0:0:0:
256,192,50576,1,8,0:0:0:0:
256,192,51052,1,0,0:0:0:0:
256,192,51290,1,8,0:0:0:0:
256,192,51766,1,8,0:0:0:0:
256,192,52719,1,8,0:0:0:0:
256,192,52957,1,0,0:0:0:0:
256,192,53195,1,0,0:0:0:0:
256,192,53433,1,8,0:0:0:0:
256,192,53909,1,0,0:0:0:0:
256,192,54147,1,8,0:0:0:0:
256,192,54623,1,0,0:0:0:0:
256,192,55099,1,8,0:0:0:0:
256,192,55576,1,8,0:0:0:0:
256,192,56052,1,0,0:0:0:0:
256,192,56528,1,8,0:0:0:0:
256,192,56766,1,8,0:0:0:0:
256,192,57242,1,4,0:0:0:0:
256,192,58195,1,8,0:0:0:0:
256,192,58671,1,0,0:0:0:0:
256,192,58909,1,8,0:0:0:0:
256,192,59385,1,0,0:0:0:0:
256,192,59623,1,8,0:0:0:0:
256,192,60099,1,0,0:0:0:0:
256,192,61528,1,8,0:0:0:0:
256,192,62004,1,8,0:0:0:0:
256,192,62480,1,0,0:0:0:0:
256,192,62719,1,8,0:0:0:0:
256,192,63195,1,0,0:0:0:0:
256,192,63433,1,0,0:0:0:0:
256,192,63671,1,8,0:0:0:0:
256,192,64147,1,8,0:0:0:0:
256,192,64385,1,8,0:0:0:0:
256,192,65338,1,8,0:0:0:0:
256,192,65576,1,8,0:0:0:0:
256,192,65814,1,8,0:0:0:0:
256,192,66290,1,0,0:0:0:0:
256,192,66528,1,8,0:0:0:0:
256,192,67004,1,0,0:0:0:0:
256,192,67242,1,8,0:0:0:0:
256,192,67719,1,0,0:0:0:0:
256,192,68195,1,8,0:0:0:0:
256,192,68671,1,8,0:0:0:0:
256,192,69385,1,8,0:0:0:0:
256,192,69861,1,8,0:0:0:0:
256,192,70338,1,0,0:0:0:0:
256,192,70814,1,0,0:0:0:0:
256,192,71052,1,8,0:0:0:0:
256,192,71528,1,0,0:0:0:0:
256,192,71766,1,8,0:0:0:0:
256,192,72004,1,0,0:0:0:0:
256,192,72480,1,12,0:0:0:0:
256,192,79623,5,0,0:0:0:0:
256,192,80099,1,8,0:0:0:0:
256,192,80576,1,8,0:0:0:0:
256,192,81052,1,0,0:0:0:0:
256,192,81528,1,0,0:0:0:0:
256,192,81766,1,8,0:0:0:0:
256,192,82242,1,8,0:0:0:0:
256,192,82719,1,0,0:0:0:0:
256,192,83195,1,8,0:0:0:0:
256,192,83433,1,0,0:0:0:0:
256,192,83909,1,0,0:0:0:0:
256,192,84147,1,0,0:0:0:0:
256,192,84623,1,8,0:0:0:0:
256,192,85099,1,8,0:0:0:0:
256,192,85814,1,0,0:0:0:0:
256,192,86766,1,0,0:0:0:0:
256,192,87242,1,8,0:0:0:0:
256,192,87719,1,0,0:0:0:0:
256,192,88195,1,12,0:0:0:0:
256,192,88671,1,8,0:0:0:0:
256,192,88909,1,0,0:0:0:0:
256,192,89147,1,8,0:0:0:0:
256,192,89623,1,0,0:0:0:0:
256,192,89861,1,8,0:0:0:0:
256,192,90099,1,8,0:0:0:0:
256,192,90338,1,0,0:0:0:0:
256,192,90576,1,8,0:0:0:0:
256,192,91052,1,0,0:0:0:0:
256,192,91528,1,0,0:0:0:0:
256,192,92004,1,12,0:0:0:0:
256,192,92480,1,8,0:0:0:0:
256,192,92719,1,0,0:0:0:0:
256,192,92957,1,8,0:0:0:0:
256,192,93433,1,0,0:0:0:0:
256,192,93671,1,0,0:0:0:0:
256,192,93909,1,8,0:0:0:0:
256,192,94147,1,8,0:0:0:0:
256,192,94385,1,0,0:0:0:0:
256,192,95099,1,8,0:0:0:0:
256,192,95338,1,0,0:0:0:0:
256,192,95814,1,12,0:0:0:0:
256,192,96290,1,8,0:0:0:0:
256,192,96528,1,0,0:0:0:0:
256,192,96766,1,8,0:0:0:0:
256,192,97242,1,0,0:0:0:0:
256,192,97480,1,0,0:0:0:0:
256,192,97719,1,8,0:0:0:0:
256,192,97957,1,0,0:0:0:0:
256,192,98195,1,8,0:0:0:0:
256,192,98671,1,0,0:0:0:0:
256,192,98909,1,8,0:0:0:0:
256,192,99147,1,0,0:0:0:0:
256,192,99623,1,8,0:0:0:0:
256,192,100099,1,8,0:0:0:0:
256,192,100338,1,0,0:0:0:0:
256,192,100576,1,8,0:0:0:0:
256,192,101052,1,0,0:0:0:0:
256,192,101290,1,0,0:0:0:0:
256,192,101528,1,8,0:0:0:0:
256,192,101766,1,8,0:0:0:0:
256,192,102004,1,0,0:0:0:0:
256,192,102480,1,8,0:0:0:0:
256,192,102719,1,8,0:0:0:0:
256,192,103433,1,12,0:0:0:0:
256,192,103909,1,8,0:0:0:0:
256,192,104147,1,0,0:0:0:0:
256,192,104385,1,8,0:0:0:0:
256,192,104504,1,8,0:0:0:0:
256,192,104861,1,0,0:0:0:0:
256,192,105099,1,8,0:0:0:0:
256,192,105338,1,8,0:0:0:0:
256,192,105576,1,0,0:0:0:0:
256,192,105814,1,8,0:0:0:0:
256,192,106290,1,0,0:0:0:0:
256,192,106528,1,8,0:0:0:0:
256,192,106766,1,0,0:0:0:0:
256,192,107242,1,12,0:0:0:0:
256,192,107719,1,8,0:0:0:0:
256,192,107957,1,0,0:0:0:0:
256,192,108195,1,8,0:0:0:0:
256,192,108314,1,8,0:0:0:0:
256,192,108671,1,0,0:0:0:0:
256,192,108909,1,8,0:0:0:0:
256,192,109147,1,0,0:0:0:0:
256,192,109385,1,8,0:0:0:0:
256,192,109623,1,8,0:0:0:0:
256,192,110338,1,0,0:0:0:0:
256,192,110576,1,8,0:0:0:0:
256,192,111052,1,12,0:0:0:0:
256,192,111528,1,8,0:0:0:0:
256,192,111766,1,0,0:0:0:0:
256,192,112004,1,8,0:0:0:0:
256,192,112123,1,8,0:0:0:0:
256,192,112480,1,0,0:0:0:0:
256,192,112719,1,8,0:0:0:0:
256,192,112957,1,8,0:0:0:0:
256,192,113195,1,0,0:0:0:0:
256,192,113433,1,8,0:0:0:0:
256,192,113909,1,8,0:0:0:0:
256,192,114147,1,0,0:0:0:0:
256,192,114385,1,8,0:0:0:0:
256,192,114742,1,8,0:0:0:0:
256,192,115099,1,8,0:0:0:0:
256,192,115338,1,0,0:0:0:0:
256,192,115695,1,0,0:0:0:0:
256,192,116052,1,0,0:0:0:0:
256,192,116290,1,8,0:0:0:0:
256,192,116766,1,8,0:0:0:0:
256,192,117242,1,8,0:0:0:0:
256,192,117480,1,0,0:0:0:0:
256,192,117719,1,12,0:0:0:0:
256,192,118195,8,0,119861,0:0:0:0:
256,192,120099,5,4,0:0:0:0:
256,192,122004,1,0,0:0:0:0:
256,192,122719,1,8,0:0:0:0:
256,192,123909,1,8,0:0:0:0:
256,192,125814,1,8,0:0:0:0:
256,192,126528,1,8,0:0:0:0:
256,192,127719,1,8,0:0:0:0:
256,192,129623,1,0,0:0:0:0:
256,192,130338,1,8,0:0:0:0:
256,192,131528,1,8,0:0:0:0:
256,192,133195,2,0,L|314:192,10,35
256,192,134861,1,8,0:0:0:0:
256,192,135338,1,4,0:0:0:0:
256,192,135814,1,8,0:0:0:0:
256,192,136290,1,0,0:0:0:0:
256,192,136766,1,8,0:0:0:0:
256,192,137004,1,8,0:0:0:0:
256,192,137242,1,0,0:0:0:0:
256,192,137719,1,0,0:0:0:0:
256,192,138195,1,8,0:0:0:0:
256,192,138671,1,0,0:0:0:0:
256,192,138909,1,0,0:0:0:0:
256,192,139147,1,8,0:0:0:0:
256,192,139385,1,8,0:0:0:0:
256,192,139861,1,8,0:0:0:0:
256,192,140814,1,0,0:0:0:0:
256,192,141052,1,8,0:0:0:0:
256,192,141290,1,8,0:0:0:0:
256,192,141766,1,8,0:0:0:0:
256,192,142957,1,0,0:0:0:0:
256,192,143433,1,0,0:0:0:0:
256,192,143909,1,8,0:0:0:0:
256,192,144385,1,8,0:0:0:0:
256,192,144623,1,8,0:0:0:0:
256,192,144861,1,0,0:0:0:0:
256,192,145338,1,0,0:0:0:0:
256,192,145814,1,8,0:0:0:0:
256,192,146290,1,8,0:0:0:0:
256,192,146528,1,8,0:0:0:0:
256,192,146766,1,0,0:0:0:0:
256,192,147004,1,0,0:0:0:0:
256,192,147480,1,8,0:0:0:0:
256,192,147957,1,0,0:0:0:0:
256,192,148433,1,8,0:0:0:0:
256,192,148909,1,8,0:0:0:0:
256,192,149385,1,0,0:0:0:0:
256,192,150099,1,8,0:0:0:0:
256,192,150576,1,8,0:0:0:0:
256,192,151052,1,4,0:0:0:0:
256,192,151528,1,8,0:0:0:0:
256,192,152004,1,0,0:0:0:0:
256,192,152242,1,8,0:0:0:0:
256,192,152480,1,0,0:0:0:0:
256,192,152957,1,8,0:0:0:0:
256,192,153433,1,8,0:0:0:0:
256,192,153671,1,8,0:0:0:0:
256,192,153909,1,0,0:0:0:0:
256,192,154147,1,0,0:0:0:0:
256,192,154385,1,8,0:0:0:0:
256,192,154861,1,4,0:0:0:0:
256,192,155576,1,0,0:0:0:0:
256,192,155814,1,8,0:0:0:0:
256,192,156290,1,0,0:0:0:0:
256,192,156766,1,8,0:0:0:0:
256,192,157004,1,8,0:0:0:0:
256,192,157480,1,0,0:0:0:0:
256,192,157719,1,8,0:0:0:0:
256,192,158195,1,8,0:0:0:0:
256,192,158671,1,4,0:0:0:0:
256,192,159147,1,8,0:0:0:0:
256,192,159385,1,0,0:0:0:0:
256,192,159623,1,8,0:0:0:0:
256,192,160099,1,0,0:0:0:0:
256,192,160576,1,8,0:0:0:0:
256,192,160814,1,8,0:0:0:0:
256,192,161052,1,0,0:0:0:0:
256,192,161290,1,0,0:0:0:0:
256,192,161528,1,8,0:0:0:0:
256,192,162004,1,8,0:0:0:0:
256,192,162480,1,4,0:0:0:0:
256,192,163195,1,0,0:0:0:0:
256,192,163433,1,8,0:0:0:0:
256,192,163671,1,0,0:0:0:0:
256,192,164147,1,8,0:0:0:0:
256,192,164385,1,0,0:0:0:0:
256,192,164623,1,8,0:0:0:0:
256,192,165099,1,8,0:0:0:0:
256,192,165338,1,8,0:0:0:0:
256,192,165814,1,12,0:0:0:0:
256,192,166766,1,8,0:0:0:0:
256,192,167719,1,0,0:0:0:0:
256,192,169623,1,0,0:0:0:0:
256,192,170576,1,0,0:0:0:0:
256,192,171528,1,8,0:0:0:0:
256,192,173433,1,8,0:0:0:0:
256,192,174385,1,8,0:0:0:0:
256,192,175338,1,8,0:0:0:0:
256,192,176290,1,8,0:0:0:0:
256,192,177242,1,0,0:0:0:0:
256,192,178195,1,0,0:0:0:0:
256,192,179147,1,8,0:0:0:0:
256,192,180099,1,8,0:0:0:0:
256,192,184385,5,8,0:0:0:0:
256,192,184861,1,4,0:0:0:0:
256,192,192004,5,0,0:0:0:0:
256,192,192480,1,8,0:0:0:0:
256,192,192957,1,8,0:0:0:0:
256,192,193433,1,0,0:0:0:0:
256,192,193909,1,0,0:0:0:0:
256,192,194147,1,8,0:0:0:0:
256,192,194623,1,8,0:0:0:0:
256,192,195099,1,0,0:0:0:0:
256,192,195576,1,0,0:0:0:0:
256,192,195814,1,8,0:0:0:0:
256,192,196290,1,0,0:0:0:0:
256,192,196647,1,0,0:0:0:0:
256,192,197004,1,8,0:0:0:0:
256,192,197480,1,8,0:0:0:0:
256,192,198195,1,0,0:0:0:0:
256,192,198671,1,0,0:0:0:0:
256,192,199147,1,0,0:0:0:0:
256,192,199623,1,8,0:0:0:0:
256,192,200099,1,0,0:0:0:0:
256,192,200576,1,12,0:0:0:0:
256,192,201052,1,8,0:0:0:0:
256,192,201290,1,0,0:0:0:0:
256,192,201528,1,8,0:0:0:0:
256,192,201647,1,8,0:0:0:0:
256,192,202004,1,0,0:0:0:0:
256,192,202242,1,0,0:0:0:0:
256,192,202480,1,8,0:0:0:0:
256,192,202719,1,8,0:0:0:0:
256,192,202957,1,0,0:0:0:0:
256,192,203433,1,8,0:0:0:0:
256,192,203671,1,8,0:0:0:0:
256,192,203909,1,0,0:0:0:0:
256,192,204385,1,12,0:0:0:0:
256,192,204861,1,8,0:0:0:0:
256,192,205099,1,0,0:0:0:0:
256,192,205338,1,8,0:0:0:0:
256,192,205457,1,8,0:0:0:0:
256,192,205814,1,0,0:0:0:0:
256,192,206052,1,8,0:0:0:0:
256,192,206290,1,0,0:0:0:0:
256,192,206528,1,8,0:0:0:0:
256,192,206766,1,0,0:0:0:0:
256,192,207480,1,8,0:0:0:0:
256,192,207719,1,0,0:0:0:0:
256,192,208195,1,12,0:0:0:0:
256,192,208671,1,8,0:0:0:0:
256,192,208909,1,0,0:0:0:0:
256,192,209147,1,8,0:0:0:0:
256,192,209266,1,8,0:0:0:0:
256,192,209623,1,0,0:0:0:0:
256,192,209861,1,0,0:0:0:0:
256,192,210099,1,8,0:0:0:0:
256,192,210338,1,0,0:0:0:0:
256,192,210576,1,8,0:0:0:0:
256,192,211052,1,0,0:0:0:0:
256,192,211290,1,8,0:0:0:0:
256,192,211528,1,0,0:0:0:0:
256,192,212004,1,8,0:0:0:0:
256,192,212480,1,8,0:0:0:0:
256,192,212719,1,0,0:0:0:0:
256,192,212957,1,8,0:0:0:0:
256,192,213076,1,8,0:0:0:0:
256,192,213433,1,0,0:0:0:0:
256,192,213671,1,0,0:0:0:0:
256,192,213909,1,8,0:0:0:0:
256,192,214147,1,0,0:0:0:0:
256,192,214385,1,8,0:0:0:0:
256,192,214623,1,8,0:0:0:0:
256,192,214742,1,8,0:0:0:0:
256,192,214861,1,8,0:0:0:0:
256,192,215099,1,8,0:0:0:0:
256,192,215814,1,12,0:0:0:0:
256,192,216290,1,8,0:0:0:0:
256,192,216528,1,0,0:0:0:0:
256,192,216766,1,8,0:0:0:0:
256,192,216885,1,8,0:0:0:0:
256,192,217123,1,0,0:0:0:0:
256,192,217242,1,0,0:0:0:0:
256,192,217480,1,0,0:0:0:0:
256,192,217719,1,8,0:0:0:0:
256,192,217957,1,0,0:0:0:0:
256,192,218195,1,8,0:0:0:0:
256,192,218671,1,0,0:0:0:0:
256,192,218909,1,8,0:0:0:0:
256,192,219147,1,0,0:0:0:0:
256,192,219623,1,12,0:0:0:0:
256,192,220100,1,8,0:0:0:0:
256,192,220338,1,8,0:0:0:0:
256,192,220576,1,0,0:0:0:0:
256,192,220695,1,0,0:0:0:0:
256,192,220933,1,8,0:0:0:0:
256,192,221052,1,8,0:0:0:0:
256,192,221290,1,0,0:0:0:0:
256,192,221528,1,0,0:0:0:0:
256,192,221766,1,8,0:0:0:0:
256,192,222004,1,0,0:0:0:0:
256,192,222719,1,0,0:0:0:0:
256,192,222957,1,8,0:0:0:0:
256,192,223433,1,12,0:0:0:0:
256,192,223909,1,8,0:0:0:0:
256,192,224147,1,0,0:0:0:0:
256,192,224385,1,8,0:0:0:0:
256,192,224504,1,8,0:0:0:0:
256,192,224742,1,0,0:0:0:0:
256,192,224861,1,0,0:0:0:0:
256,192,225100,1,8,0:0:0:0:
256,192,225338,1,8,0:0:0:0:
256,192,225576,1,0,0:0:0:0:
256,192,225814,1,8,0:0:0:0:
256,192,226290,1,0,0:0:0:0:
256,192,226528,1,8,0:0:0:0:
256,192,226766,1,0,0:0:0:0:
256,192,227123,1,8,0:0:0:0:
256,192,227480,1,8,0:0:0:0:
256,192,227719,1,0,0:0:0:0:
256,192,228076,1,0,0:0:0:0:
256,192,228433,1,8,0:0:0:0:
256,192,228671,1,8,0:0:0:0:
256,192,229147,1,8,0:0:0:0:
256,192,229623,1,8,0:0:0:0:
256,192,229861,1,0,0:0:0:0:
256,192,230100,1,12,0:0:0:0:
256,192,230576,8,0,232004,0:0:0:0:
256,192,232480,5,0,0:0:0:0:
256,192,233433,1,0,0:0:0:0:
256,192,234385,1,8,0:0:0:0:
256,192,236290,1,0,0:0:0:0:
256,192,237242,1,0,0:0:0:0:
256,192,238195,1,8,0:0:0:0:
256,192,240099,1,0,0:0:0:0:
256,192,241052,1,0,0:0:0:0:
256,192,242004,1,0,0:0:0:0:
256,192,242957,1,8,0:0:0:0:
256,192,243909,1,0,0:0:0:0:
256,192,244861,1,0,0:0:0:0:
256,192,245814,1,0,0:0:0:0:
256,192,246766,1,8,0:0:0:0:
256,192,247719,12,0,249622,0:0:0:0:
