osu file format v14

[General]
AudioFilename: audio.mp3
AudioLeadIn: 0
PreviewTime: 46
Countdown: 0
SampleSet: Soft
StackLeniency: 0.7
Mode: 3
LetterboxInBreaks: 0
SpecialStyle: 0
WidescreenStoryboard: 1

[Editor]
DistanceSpacing: 1.5
BeatDivisor: 16
GridSize: 4
TimelineZoom: 4.559997

[Metadata]
Title:Angel Breaking
TitleUnicode:Angel Breaking
Artist:Aiobahn
ArtistUnicode:Aiobahn
Creator:Ainer
Version:Avel's Insane
Source:NEEDY GIRL OVERDOSE
Tags:Reihynn Revv- sv slider velocity cj chordjack chord jack chiptune 8-bit electronic instrumental hardcore techno hardstyle rawstyle video game needy streamer overload ost why so serious? wss playground peposoft angel yamu
BeatmapID:4396908
BeatmapSetID:2096660

[Difficulty]
HPDrainRate:8.5
CircleSize:4
OverallDifficulty:8.5
ApproachRate:5
SliderMultiplier:1.4
SliderTickRate:1

[Events]
//Background and Video events
0,0,"kawaiiangel.jpg",0,0
//Break Periods
//Storyboard Layer 0 (Background)
//Storyboard Layer 1 (Fail)
//Storyboard Layer 2 (Pass)
//Storyboard Layer 3 (Foreground)
//Storyboard Layer 4 (Overlay)
//Storyboard Sound Samples

[TimingPoints]
46,324.324310302734,4,2,1,40,1,0
47,-35.7142857142857,4,2,1,40,0,0
86,-250,4,2,1,40,0,0
208,-200,4,2,1,40,0,0
248,-125,4,2,1,40,0,0
289,-83.3333333333333,4,2,1,40,0,0
329,-66.6666666666667,4,2,1,40,0,0
370,-35.7142857142857,4,2,1,40,0,0
409,-250,4,2,1,40,0,0
531,-200,4,2,1,40,0,0
571,-125,4,2,1,40,0,0
612,-83.3333333333333,4,2,1,40,0,0
652,-66.6666666666667,4,2,1,40,0,0
694,-35.7142857142857,4,2,1,40,0,0
714,-250,4,2,1,40,0,0
775,-24.6913580246914,4,2,1,40,0,0
795,-250,4,2,1,40,0,0
897,-100,4,2,1,40,0,0
937,-35.7142857142857,4,2,1,40,0,0
958,-250,4,2,1,40,0,0
1059,-166.666666666667,4,2,1,40,0,0
1100,-90.9090909090909,4,2,1,40,0,0
1140,-52.6315789473684,4,2,1,40,0,0
1181,-35.7142857142857,4,2,1,40,0,0
1221,-250,4,2,1,40,0,0
1343,-200,4,2,1,40,0,0
1383,-125,4,2,1,40,0,0
1424,-83.3333333333333,4,2,1,40,0,0
1464,-66.6666666666667,4,2,1,40,0,0
1505,-24.6913580246914,4,2,1,40,0,0
1525,-250,4,2,1,40,0,0
1627,-100,4,2,1,40,0,0
1667,-24.6913580246914,4,2,1,40,0,0
1687,-250,4,2,1,40,0,0
1789,-100,4,2,1,40,0,0
1829,-24.6913580246914,4,2,1,40,0,0
1849,-250,4,2,1,40,0,0
1951,-100,4,2,1,40,0,0
1991,-24.6913580246914,4,2,1,40,0,0
2011,-250,4,2,1,40,0,0
2113,-100,4,2,1,40,0,0
2154,-24.6913580246914,4,2,1,40,0,0
2174,-250,4,2,1,40,0,0
2276,-100,4,2,1,40,0,0
2316,-24.6913580246914,4,2,1,40,0,0
2336,-250,4,2,1,40,0,0
2438,-100,4,2,1,40,0,0
2478,-24.6913580246914,4,2,1,40,0,0
2498,-250,4,2,1,40,0,0
2600,-100,4,2,1,40,0,0
2640,-24.2130750605327,4,2,1,40,0,0
2660,-125,4,2,1,40,0,0
2721,-200,4,2,1,40,0,0
2762,-333.333333333333,4,2,1,40,0,0
2802,-250,4,2,1,40,0,0
2883,-166.666666666667,4,2,1,40,0,0
2924,-125,4,2,1,40,0,0
2944,-22.7272727272727,4,2,1,40,0,0
2964,-24.2130750605327,4,2,1,40,0,0
2984,-125,4,2,1,40,0,0
3045,-200,4,2,1,40,0,0
3086,-333.333333333333,4,2,1,40,0,0
3126,-250,4,2,1,40,0,0
3207,-166.666666666667,4,2,1,40,0,0
3248,-125,4,2,1,40,0,0
3268,-22.7272727272727,4,2,1,40,0,0
3289,-24.2130750605327,4,2,1,40,0,0
3309,-125,4,2,1,40,0,0
3370,-200,4,2,1,40,0,0
3411,-333.333333333333,4,2,1,40,0,0
3451,-250,4,2,1,40,0,0
3532,-166.666666666667,4,2,1,40,0,0
3573,-125,4,2,1,40,0,0
3593,-22.7272727272727,4,2,1,40,0,0
3613,-24.2130750605327,4,2,1,40,0,0
3633,-125,4,2,1,40,0,0
3694,-200,4,2,1,40,0,0
3735,-333.333333333333,4,2,1,40,0,0
3775,-250,4,2,1,40,0,0
3856,-166.666666666667,4,2,1,40,0,0
3897,-125,4,2,1,40,0,0
3917,-22.7272727272727,4,2,1,40,0,0
3937,-24.2130750605327,4,2,1,40,0,0
3957,-125,4,2,1,40,0,0
4018,-200,4,2,1,40,0,0
4059,-333.333333333333,4,2,1,40,0,0
4099,-250,4,2,1,40,0,0
4180,-166.666666666667,4,2,1,40,0,0
4221,-125,4,2,1,40,0,0
4241,-22.7272727272727,4,2,1,40,0,0
4262,-24.2130750605327,4,2,1,40,0,0
4282,-125,4,2,1,40,0,0
4343,-200,4,2,1,40,0,0
4384,-333.333333333333,4,2,1,40,0,0
4424,-250,4,2,1,40,0,0
4505,-166.666666666667,4,2,1,40,0,0
4546,-125,4,2,1,40,0,0
4566,-22.7272727272727,4,2,1,40,0,0
4586,-24.2130750605327,4,2,1,40,0,0
4606,-125,4,2,1,40,0,0
4667,-200,4,2,1,40,0,0
4708,-333.333333333333,4,2,1,40,0,0
4748,-250,4,2,1,40,0,0
4829,-166.666666666667,4,2,1,40,0,0
4870,-125,4,2,1,40,0,0
4890,-22.7272727272727,4,2,1,40,0,0
4910,-24.2130750605327,4,2,1,40,0,0
4930,-125,4,2,1,40,0,0
4991,-200,4,2,1,40,0,0
5032,-333.333333333333,4,2,1,40,0,0
5072,-250,4,2,1,40,0,0
5153,-166.666666666667,4,2,1,40,0,0
5194,-125,4,2,1,40,0,0
5214,-22.7272727272727,4,2,1,40,0,0
5235,-24.2130750605327,4,2,1,40,0,0
5255,-125,4,2,1,40,0,0
5316,-200,4,2,1,40,0,0
5357,-333.333333333333,4,2,1,40,0,0
5397,-250,4,2,1,40,0,0
5478,-166.666666666667,4,2,1,40,0,0
5519,-125,4,2,1,40,0,0
5539,-22.7272727272727,4,2,1,40,0,0
5559,-24.2130750605327,4,2,1,40,0,0
5579,-125,4,2,1,40,0,0
5640,-200,4,2,1,40,0,0
5681,-333.333333333333,4,2,1,40,0,0
5721,-250,4,2,1,40,0,0
5802,-166.666666666667,4,2,1,40,0,0
5843,-125,4,2,1,40,0,0
5863,-22.7272727272727,4,2,1,40,0,0
5883,-24.2130750605327,4,2,1,40,0,0
5903,-125,4,2,1,40,0,0
5964,-200,4,2,1,40,0,0
6005,-333.333333333333,4,2,1,40,0,0
6045,-250,4,2,1,40,0,0
6126,-166.666666666667,4,2,1,40,0,0
6167,-125,4,2,1,40,0,0
6187,-22.7272727272727,4,2,1,40,0,0
6208,-24.2130750605327,4,2,1,40,0,0
6228,-125,4,2,1,40,0,0
6289,-200,4,2,1,40,0,0
6330,-333.333333333333,4,2,1,40,0,0
6370,-250,4,2,1,40,0,0
6451,-166.666666666667,4,2,1,40,0,0
6492,-125,4,2,1,40,0,0
6512,-22.7272727272727,4,2,1,40,0,0
6532,-24.2130750605327,4,2,1,40,0,0
6552,-125,4,2,1,40,0,0
6613,-200,4,2,1,40,0,0
6654,-333.333333333333,4,2,1,40,0,0
6694,-250,4,2,1,40,0,0
6775,-166.666666666667,4,2,1,40,0,0
6816,-125,4,2,1,40,0,0
6836,-22.7272727272727,4,2,1,40,0,0
6856,-24.2130750605327,4,2,1,40,0,0
6876,-125,4,2,1,40,0,0
6937,-200,4,2,1,40,0,0
6978,-333.333333333333,4,2,1,40,0,0
7018,-250,4,2,1,40,0,0
7099,-166.666666666667,4,2,1,40,0,0
7140,-125,4,2,1,40,0,0
7160,-22.7272727272727,4,2,1,40,0,0
7181,-24.2130750605327,4,2,1,40,0,0
7201,-125,4,2,1,40,0,0
7262,-200,4,2,1,40,0,0
7303,-333.333333333333,4,2,1,40,0,0
7343,-250,4,2,1,40,0,0
7424,-166.666666666667,4,2,1,40,0,0
7465,-125,4,2,1,40,0,0
7485,-22.7272727272727,4,2,1,40,0,0
7505,-24.2130750605327,4,2,1,40,0,0
7525,-125,4,2,1,40,0,0
7586,-200,4,2,1,40,0,0
7627,-333.333333333333,4,2,1,40,0,0
7667,-250,4,2,1,40,0,0
7748,-166.666666666667,4,2,1,40,0,0
7789,-125,4,2,1,40,0,0
7809,-22.7272727272727,4,2,1,40,0,0
7829,-24.2130750605327,4,2,1,40,0,0
7849,-125,4,2,1,40,0,0
7910,-200,4,2,1,40,0,0
7951,-333.333333333333,4,2,1,40,0,0
7991,-250,4,2,1,40,0,0
8072,-166.666666666667,4,2,1,40,0,0
8113,-125,4,2,1,40,0,0
8133,-22.7272727272727,4,2,1,40,0,0
8154,-24.2130750605327,4,2,1,40,0,0
8174,-125,4,2,1,40,0,0
8235,-200,4,2,1,40,0,0
8276,-333.333333333333,4,2,1,40,0,0
8316,-250,4,2,1,40,0,0
8397,-166.666666666667,4,2,1,40,0,0
8438,-125,4,2,1,40,0,0
8458,-22.7272727272727,4,2,1,40,0,0
8478,-24.2130750605327,4,2,1,40,0,0
8498,-125,4,2,1,40,0,0
8559,-200,4,2,1,40,0,0
8600,-333.333333333333,4,2,1,40,0,0
8640,-250,4,2,1,40,0,0
8721,-166.666666666667,4,2,1,40,0,0
8762,-125,4,2,1,40,0,0
8782,-22.7272727272727,4,2,1,40,0,0
8802,-24.2130750605327,4,2,1,40,0,0
8822,-125,4,2,1,40,0,0
8883,-200,4,2,1,40,0,0
8924,-333.333333333333,4,2,1,40,0,0
8964,-250,4,2,1,40,0,0
9045,-166.666666666667,4,2,1,40,0,0
9086,-125,4,2,1,40,0,0
9106,-22.7272727272727,4,2,1,40,0,0
9127,-24.2130750605327,4,2,1,40,0,0
9147,-125,4,2,1,40,0,0
9208,-200,4,2,1,40,0,0
9249,-333.333333333333,4,2,1,40,0,0
9289,-250,4,2,1,40,0,0
9370,-166.666666666667,4,2,1,40,0,0
9411,-125,4,2,1,40,0,0
9431,-22.7272727272727,4,2,1,40,0,0
9451,-24.2130750605327,4,2,1,40,0,0
9471,-125,4,2,1,40,0,0
9532,-200,4,2,1,40,0,0
9573,-333.333333333333,4,2,1,40,0,0
9613,-250,4,2,1,40,0,0
9694,-166.666666666667,4,2,1,40,0,0
9735,-125,4,2,1,40,0,0
9755,-22.7272727272727,4,2,1,40,0,0
9775,-24.2130750605327,4,2,1,40,0,0
9795,-125,4,2,1,40,0,0
9856,-200,4,2,1,40,0,0
9897,-333.333333333333,4,2,1,40,0,0
9937,-250,4,2,1,40,0,0
10018,-166.666666666667,4,2,1,40,0,0
10059,-125,4,2,1,40,0,0
10079,-22.7272727272727,4,2,1,40,0,0
10100,-24.2130750605327,4,2,1,40,0,0
10120,-125,4,2,1,40,0,0
10181,-200,4,2,1,40,0,0
10222,-333.333333333333,4,2,1,40,0,0
10262,-250,4,2,1,40,0,0
10343,-166.666666666667,4,2,1,40,0,0
10384,-125,4,2,1,40,0,0
10404,-22.7272727272727,4,2,1,40,0,0
10424,-24.2130750605327,4,2,1,40,0,0
10444,-125,4,2,1,40,0,0
10505,-200,4,2,1,40,0,0
10546,-333.333333333333,4,2,1,40,0,0
10586,-250,4,2,1,40,0,0
10667,-166.666666666667,4,2,1,40,0,0
10708,-125,4,2,1,40,0,0
10728,-22.7272727272727,4,2,1,40,0,0
10748,-24.2130750605327,4,2,1,40,0,0
10768,-125,4,2,1,40,0,0
10829,-200,4,2,1,40,0,0
10870,-333.333333333333,4,2,1,40,0,0
10910,-250,4,2,1,40,0,0
10991,-166.666666666667,4,2,1,40,0,0
11032,-125,4,2,1,40,0,0
11052,-22.7272727272727,4,2,1,40,0,0
11073,-24.2130750605327,4,2,1,40,0,0
11093,-125,4,2,1,40,0,0
11154,-200,4,2,1,40,0,0
11195,-333.333333333333,4,2,1,40,0,0
11235,-250,4,2,1,40,0,0
11316,-166.666666666667,4,2,1,40,0,0
11357,-125,4,2,1,40,0,0
11377,-22.7272727272727,4,2,1,40,0,0
11397,-24.2130750605327,4,2,1,40,0,0
11417,-125,4,2,1,40,0,0
11478,-200,4,2,1,40,0,0
11519,-333.333333333333,4,2,1,40,0,0
11559,-250,4,2,1,40,0,0
11640,-166.666666666667,4,2,1,40,0,0
11681,-125,4,2,1,40,0,0
11701,-22.7272727272727,4,2,1,40,0,0
11721,-24.2130750605327,4,2,1,40,0,0
11741,-125,4,2,1,40,0,0
11802,-200,4,2,1,40,0,0
11843,-333.333333333333,4,2,1,40,0,0
11883,-250,4,2,1,40,0,0
11964,-166.666666666667,4,2,1,40,0,0
12005,-125,4,2,1,40,0,0
12025,-22.7272727272727,4,2,1,40,0,0
12045,-24.2130750605327,4,2,1,40,0,0
12065,-125,4,2,1,40,0,0
12126,-200,4,2,1,40,0,0
12167,-333.333333333333,4,2,1,40,0,0
12207,-250,4,2,1,40,0,0
12288,-166.666666666667,4,2,1,40,0,0
12329,-125,4,2,1,40,0,0
12349,-22.7272727272727,4,2,1,40,0,0
12370,-24.2130750605327,4,2,1,40,0,0
12390,-125,4,2,1,40,0,0
12451,-200,4,2,1,40,0,0
12492,-333.333333333333,4,2,1,40,0,0
12532,-250,4,2,1,40,0,0
12613,-166.666666666667,4,2,1,40,0,0
12654,-125,4,2,1,40,0,0
12674,-22.7272727272727,4,2,1,40,0,0
12694,-24.2130750605327,4,2,1,40,0,0
12714,-125,4,2,1,40,0,0
12775,-200,4,2,1,40,0,0
12816,-333.333333333333,4,2,1,40,0,0
12856,-250,4,2,1,40,0,0
12937,-166.666666666667,4,2,1,40,0,0
12978,-125,4,2,1,40,0,0
12998,-22.7272727272727,4,2,1,40,0,0
13018,-24.2130750605327,4,2,1,40,0,0
13038,-125,4,2,1,40,0,0
13099,-200,4,2,1,40,0,0
13140,-333.333333333333,4,2,1,40,0,0
13180,-250,4,2,1,40,0,0
13261,-166.666666666667,4,2,1,40,0,0
13302,-125,4,2,1,40,0,0
13322,-22.7272727272727,4,2,1,40,0,0
13343,-24.2130750605327,4,2,1,40,0,0
13363,-125,4,2,1,40,0,0
13424,-200,4,2,1,40,0,0
13465,-333.333333333333,4,2,1,40,0,0
13505,-250,4,2,1,40,0,0
13586,-166.666666666667,4,2,1,40,0,0
13627,-125,4,2,1,40,0,0
13647,-22.7272727272727,4,2,1,40,0,0
13667,-24.2130750605327,4,2,1,40,0,0
13687,-125,4,2,1,40,0,0
13748,-200,4,2,1,40,0,0
13789,-333.333333333333,4,2,1,40,0,0
13829,-250,4,2,1,40,0,0
13910,-166.666666666667,4,2,1,40,0,0
13951,-125,4,2,1,40,0,0
13971,-22.7272727272727,4,2,1,40,0,0
13991,-24.2130750605327,4,2,1,40,0,0
14011,-125,4,2,1,40,0,0
14072,-200,4,2,1,40,0,0
14113,-333.333333333333,4,2,1,40,0,0
14153,-250,4,2,1,40,0,0
14234,-166.666666666667,4,2,1,40,0,0
14275,-125,4,2,1,40,0,0
14295,-22.7272727272727,4,2,1,40,0,0
14316,-24.2130750605327,4,2,1,40,0,0
14336,-125,4,2,1,40,0,0
14397,-200,4,2,1,40,0,0
14438,-333.333333333333,4,2,1,40,0,0
14478,-250,4,2,1,40,0,0
14559,-166.666666666667,4,2,1,40,0,0
14600,-125,4,2,1,40,0,0
14620,-22.7272727272727,4,2,1,40,0,0
14640,-24.2130750605327,4,2,1,40,0,0
14660,-125,4,2,1,40,0,0
14721,-200,4,2,1,40,0,0
14762,-333.333333333333,4,2,1,40,0,0
14802,-250,4,2,1,40,0,0
14883,-166.666666666667,4,2,1,40,0,0
14924,-125,4,2,1,40,0,0
14944,-22.7272727272727,4,2,1,40,0,0
14964,-24.2130750605327,4,2,1,40,0,0
14984,-125,4,2,1,40,0,0
15045,-200,4,2,1,40,0,0
15086,-333.333333333333,4,2,1,40,0,0
15126,-250,4,2,1,40,0,0
15207,-166.666666666667,4,2,1,40,0,0
15248,-125,4,2,1,40,0,0
15268,-22.7272727272727,4,2,1,40,0,0
15289,-24.2130750605327,4,2,1,40,0,0
15309,-125,4,2,1,40,0,0
15370,-200,4,2,1,40,0,0
15411,-333.333333333333,4,2,1,40,0,0
15451,-250,4,2,1,40,0,0
15532,-166.666666666667,4,2,1,40,0,0
15573,-125,4,2,1,40,0,0
15593,-22.7272727272727,4,2,1,40,0,0
15613,-19.2307692307692,4,2,1,40,0,0
15633,-250,4,2,1,40,0,0
15816,-166.666666666667,4,2,1,40,0,0
15856,-90.9090909090909,4,2,1,40,0,0
15897,-52.6315789473684,4,2,1,40,0,0
15937,-19.2307692307692,4,2,1,40,0,0
15958,-250,4,2,1,40,0,0
16140,-166.666666666667,4,2,1,40,0,0
16180,-90.9090909090909,4,2,1,40,0,0
16221,-52.6315789473684,4,2,1,40,0,0
16262,-19.2307692307692,4,2,1,40,0,0
16282,-250,4,2,1,40,0,0
16465,-166.666666666667,4,2,1,40,0,0
16505,-90.9090909090909,4,2,1,40,0,0
16546,-52.6315789473684,4,2,1,40,0,0
16586,-19.2307692307692,4,2,1,40,0,0
16606,-250,4,2,1,40,0,0
16789,-166.666666666667,4,2,1,40,0,0
16829,-90.9090909090909,4,2,1,40,0,0
16870,-52.6315789473684,4,2,1,40,0,0
16910,-35.7142857142857,4,2,1,40,0,0
16931,-250,4,2,1,40,0,0
16991,-35.7142857142857,4,2,1,40,0,0
17012,-250,4,2,1,40,0,0
17073,-35.7142857142857,4,2,1,40,0,0
17094,-250,4,2,1,40,0,0
17154,-35.7142857142857,4,2,1,40,0,0
17175,-250,4,2,1,40,0,0
17235,-24.6913580246914,4,2,1,40,0,0
17255,-250,4,2,1,40,0,0
17357,-100,4,2,1,40,0,0
17397,-24.6913580246914,4,2,1,40,0,0
17417,-250,4,2,1,40,0,0
17519,-100,4,2,1,40,0,0
17559,-19.2307692307692,4,2,1,40,0,0
17580,-250,4,2,1,40,0,0
17762,-166.666666666667,4,2,1,40,0,0
17802,-90.9090909090909,4,2,1,40,0,0
17843,-52.6315789473684,4,2,1,40,0,0
17883,-10,4,2,1,40,0,0
17924,-1000,4,2,1,40,0,0
18045,-250,4,2,1,40,0,0
18086,-166.666666666667,4,2,1,40,0,0
18126,-90.9090909090909,4,2,1,40,0,0
18167,-52.6315789473684,4,2,1,40,0,0
18208,-24.2130750605327,4,2,1,40,0,0
18228,-125,4,2,1,40,0,0
18289,-200,4,2,1,40,0,0
18330,-333.333333333333,4,2,1,40,0,0
18370,-250,4,2,1,40,0,0
18451,-166.666666666667,4,2,1,40,0,0
18492,-125,4,2,1,40,0,0
18512,-22.7272727272727,4,2,1,40,0,0
18532,-24.2130750605327,4,2,1,40,0,0
18552,-125,4,2,1,40,0,0
18613,-200,4,2,1,40,0,0
18654,-333.333333333333,4,2,1,40,0,0
18694,-250,4,2,1,40,0,0
18775,-166.666666666667,4,2,1,40,0,0
18816,-125,4,2,1,40,0,0
18836,-22.7272727272727,4,2,1,40,0,0
18857,-24.2130750605327,4,2,1,40,0,0
18877,-125,4,2,1,40,0,0
18938,-200,4,2,1,40,0,0
18979,-333.333333333333,4,2,1,40,0,0
19019,-250,4,2,1,40,0,0
19100,-166.666666666667,4,2,1,40,0,0
19141,-125,4,2,1,40,0,0
19161,-22.7272727272727,4,2,1,40,0,0
19181,-24.2130750605327,4,2,1,40,0,0
19201,-125,4,2,1,40,0,0
19262,-200,4,2,1,40,0,0
19303,-333.333333333333,4,2,1,40,0,0
19343,-250,4,2,1,40,0,0
19424,-166.666666666667,4,2,1,40,0,0
19465,-125,4,2,1,40,0,0
19485,-22.7272727272727,4,2,1,40,0,0
19505,-24.2130750605327,4,2,1,40,0,0
19525,-125,4,2,1,40,0,0
19586,-200,4,2,1,40,0,0
19627,-333.333333333333,4,2,1,40,0,0
19667,-250,4,2,1,40,0,0
19748,-166.666666666667,4,2,1,40,0,0
19789,-125,4,2,1,40,0,0
19809,-22.7272727272727,4,2,1,40,0,0
19830,-24.2130750605327,4,2,1,40,0,0
19850,-125,4,2,1,40,0,0
19911,-200,4,2,1,40,0,0
19952,-333.333333333333,4,2,1,40,0,0
19992,-250,4,2,1,40,0,0
20073,-166.666666666667,4,2,1,40,0,0
20114,-125,4,2,1,40,0,0
20134,-22.7272727272727,4,2,1,40,0,0
20154,-24.2130750605327,4,2,1,40,0,0
20174,-125,4,2,1,40,0,0
20235,-200,4,2,1,40,0,0
20276,-333.333333333333,4,2,1,40,0,0
20316,-250,4,2,1,40,0,0
20397,-166.666666666667,4,2,1,40,0,0
20438,-125,4,2,1,40,0,0
20458,-22.7272727272727,4,2,1,40,0,0
20478,-24.2130750605327,4,2,1,40,0,0
20498,-125,4,2,1,40,0,0
20559,-200,4,2,1,40,0,0
20600,-333.333333333333,4,2,1,40,0,0
20640,-250,4,2,1,40,0,0
20721,-166.666666666667,4,2,1,40,0,0
20762,-125,4,2,1,40,0,0
20782,-22.7272727272727,4,2,1,40,0,0
20803,-24.2130750605327,4,2,1,40,0,0
20823,-125,4,2,1,40,0,0
20884,-200,4,2,1,40,0,0
20925,-333.333333333333,4,2,1,40,0,0
20965,-250,4,2,1,40,0,0
21046,-166.666666666667,4,2,1,40,0,0
21087,-125,4,2,1,40,0,0
21107,-22.7272727272727,4,2,1,40,0,0
21127,-24.2130750605327,4,2,1,40,0,0
21147,-125,4,2,1,40,0,0
21208,-200,4,2,1,40,0,0
21249,-333.333333333333,4,2,1,40,0,0
21289,-250,4,2,1,40,0,0
21370,-166.666666666667,4,2,1,40,0,0
21411,-125,4,2,1,40,0,0
21431,-22.7272727272727,4,2,1,40,0,0
21451,-24.2130750605327,4,2,1,40,0,0
21471,-125,4,2,1,40,0,0
21532,-200,4,2,1,40,0,0
21573,-333.333333333333,4,2,1,40,0,0
21613,-250,4,2,1,40,0,0
21694,-166.666666666667,4,2,1,40,0,0
21735,-125,4,2,1,40,0,0
21755,-22.7272727272727,4,2,1,40,0,0
21776,-24.2130750605327,4,2,1,40,0,0
21796,-125,4,2,1,40,0,0
21857,-200,4,2,1,40,0,0
21898,-333.333333333333,4,2,1,40,0,0
21938,-250,4,2,1,40,0,0
22019,-166.666666666667,4,2,1,40,0,0
22060,-125,4,2,1,40,0,0
22080,-22.7272727272727,4,2,1,40,0,0
22100,-24.2130750605327,4,2,1,40,0,0
22120,-125,4,2,1,40,0,0
22181,-200,4,2,1,40,0,0
22222,-333.333333333333,4,2,1,40,0,0
22262,-250,4,2,1,40,0,0
22343,-166.666666666667,4,2,1,40,0,0
22384,-125,4,2,1,40,0,0
22404,-22.7272727272727,4,2,1,40,0,0
22424,-24.2130750605327,4,2,1,40,0,0
22444,-125,4,2,1,40,0,0
22505,-200,4,2,1,40,0,0
22546,-333.333333333333,4,2,1,40,0,0
22586,-250,4,2,1,40,0,0
22667,-166.666666666667,4,2,1,40,0,0
22708,-125,4,2,1,40,0,0
22728,-22.7272727272727,4,2,1,40,0,0
22749,-24.2130750605327,4,2,1,40,0,0
22769,-125,4,2,1,40,0,0
22830,-200,4,2,1,40,0,0
22871,-333.333333333333,4,2,1,40,0,0
22911,-250,4,2,1,40,0,0
22992,-166.666666666667,4,2,1,40,0,0
23033,-125,4,2,1,40,0,0
23053,-22.7272727272727,4,2,1,40,0,0
23073,-24.2130750605327,4,2,1,40,0,0
23093,-125,4,2,1,40,0,0
23154,-200,4,2,1,40,0,0
23195,-333.333333333333,4,2,1,40,0,0
23235,-250,4,2,1,40,0,0
23316,-166.666666666667,4,2,1,40,0,0
23357,-125,4,2,1,40,0,0
23377,-22.7272727272727,4,2,1,40,0,0
23397,-24.2130750605327,4,2,1,40,0,0
23417,-125,4,2,1,40,0,0
23478,-200,4,2,1,40,0,0
23519,-333.333333333333,4,2,1,40,0,0
23559,-250,4,2,1,40,0,0
23640,-166.666666666667,4,2,1,40,0,0
23681,-125,4,2,1,40,0,0
23701,-22.7272727272727,4,2,1,40,0,0
23722,-24.2130750605327,4,2,1,40,0,0
23742,-125,4,2,1,40,0,0
23803,-200,4,2,1,40,0,0
23844,-333.333333333333,4,2,1,40,0,0
23884,-250,4,2,1,40,0,0
23965,-166.666666666667,4,2,1,40,0,0
24006,-125,4,2,1,40,0,0
24026,-22.7272727272727,4,2,1,40,0,0
24046,-24.2130750605327,4,2,1,40,0,0
24066,-125,4,2,1,40,0,0
24127,-200,4,2,1,40,0,0
24168,-333.333333333333,4,2,1,40,0,0
24208,-250,4,2,1,40,0,0
24289,-166.666666666667,4,2,1,40,0,0
24330,-125,4,2,1,40,0,0
24350,-22.7272727272727,4,2,1,40,0,0
24370,-24.2130750605327,4,2,1,40,0,0
24390,-125,4,2,1,40,0,0
24451,-200,4,2,1,40,0,0
24492,-333.333333333333,4,2,1,40,0,0
24532,-250,4,2,1,40,0,0
24613,-166.666666666667,4,2,1,40,0,0
24654,-125,4,2,1,40,0,0
24674,-22.7272727272727,4,2,1,40,0,0
24695,-24.2130750605327,4,2,1,40,0,0
24715,-125,4,2,1,40,0,0
24776,-200,4,2,1,40,0,0
24817,-333.333333333333,4,2,1,40,0,0
24857,-250,4,2,1,40,0,0
24938,-166.666666666667,4,2,1,40,0,0
24979,-125,4,2,1,40,0,0
24999,-22.7272727272727,4,2,1,40,0,0
25019,-24.2130750605327,4,2,1,40,0,0
25039,-125,4,2,1,40,0,0
25100,-200,4,2,1,40,0,0
25141,-333.333333333333,4,2,1,40,0,0
25181,-250,4,2,1,40,0,0
25262,-166.666666666667,4,2,1,40,0,0
25303,-125,4,2,1,40,0,0
25323,-22.7272727272727,4,2,1,40,0,0
25343,-24.2130750605327,4,2,1,40,0,0
25363,-125,4,2,1,40,0,0
25424,-200,4,2,1,40,0,0
25465,-333.333333333333,4,2,1,40,0,0
25505,-250,4,2,1,40,0,0
25586,-166.666666666667,4,2,1,40,0,0
25627,-125,4,2,1,40,0,0
25647,-22.7272727272727,4,2,1,40,0,0
25668,-24.2130750605327,4,2,1,40,0,0
25688,-125,4,2,1,40,0,0
25749,-200,4,2,1,40,0,0
25790,-333.333333333333,4,2,1,40,0,0
25830,-250,4,2,1,40,0,0
25911,-166.666666666667,4,2,1,40,0,0
25952,-125,4,2,1,40,0,0
25972,-22.7272727272727,4,2,1,40,0,0
25992,-24.2130750605327,4,2,1,40,0,0
26012,-125,4,2,1,40,0,0
26073,-200,4,2,1,40,0,0
26114,-333.333333333333,4,2,1,40,0,0
26154,-250,4,2,1,40,0,0
26235,-166.666666666667,4,2,1,40,0,0
26276,-125,4,2,1,40,0,0
26296,-22.7272727272727,4,2,1,40,0,0
26316,-24.2130750605327,4,2,1,40,0,0
26336,-125,4,2,1,40,0,0
26397,-200,4,2,1,40,0,0
26438,-333.333333333333,4,2,1,40,0,0
26478,-250,4,2,1,40,0,0
26559,-166.666666666667,4,2,1,40,0,0
26600,-125,4,2,1,40,0,0
26620,-22.7272727272727,4,2,1,40,0,0
26641,-24.2130750605327,4,2,1,40,0,0
26661,-125,4,2,1,40,0,0
26722,-200,4,2,1,40,0,0
26763,-333.333333333333,4,2,1,40,0,0
26803,-250,4,2,1,40,0,0
26884,-166.666666666667,4,2,1,40,0,0
26925,-125,4,2,1,40,0,0
26945,-22.7272727272727,4,2,1,40,0,0
26965,-24.2130750605327,4,2,1,40,0,0
26985,-125,4,2,1,40,0,0
27046,-200,4,2,1,40,0,0
27087,-333.333333333333,4,2,1,40,0,0
27127,-250,4,2,1,40,0,0
27208,-166.666666666667,4,2,1,40,0,0
27249,-125,4,2,1,40,0,0
27269,-22.7272727272727,4,2,1,40,0,0
27289,-24.2130750605327,4,2,1,40,0,0
27309,-125,4,2,1,40,0,0
27370,-200,4,2,1,40,0,0
27411,-333.333333333333,4,2,1,40,0,0
27451,-250,4,2,1,40,0,0
27532,-166.666666666667,4,2,1,40,0,0
27573,-125,4,2,1,40,0,0
27593,-22.7272727272727,4,2,1,40,0,0
27613,-24.2130750605327,4,2,1,40,0,0
27633,-125,4,2,1,40,0,0
27694,-200,4,2,1,40,0,0
27735,-333.333333333333,4,2,1,40,0,0
27775,-250,4,2,1,40,0,0
27856,-166.666666666667,4,2,1,40,0,0
27897,-125,4,2,1,40,0,0
27917,-22.7272727272727,4,2,1,40,0,0
27938,-24.2130750605327,4,2,1,40,0,0
27958,-125,4,2,1,40,0,0
28019,-200,4,2,1,40,0,0
28060,-333.333333333333,4,2,1,40,0,0
28100,-250,4,2,1,40,0,0
28181,-166.666666666667,4,2,1,40,0,0
28222,-125,4,2,1,40,0,0
28242,-22.7272727272727,4,2,1,40,0,0
28262,-24.2130750605327,4,2,1,40,0,0
28282,-125,4,2,1,40,0,0
28343,-200,4,2,1,40,0,0
28384,-333.333333333333,4,2,1,40,0,0
28424,-250,4,2,1,40,0,0
28505,-166.666666666667,4,2,1,40,0,0
28546,-125,4,2,1,40,0,0
28566,-22.7272727272727,4,2,1,40,0,0
28586,-24.2130750605327,4,2,1,40,0,0
28606,-125,4,2,1,40,0,0
28667,-200,4,2,1,40,0,0
28708,-333.333333333333,4,2,1,40,0,0
28748,-250,4,2,1,40,0,0
28829,-166.666666666667,4,2,1,40,0,0
28870,-125,4,2,1,40,0,0
28890,-22.7272727272727,4,2,1,40,0,0
28911,-24.2130750605327,4,2,1,40,0,0
28931,-125,4,2,1,40,0,0
28992,-200,4,2,1,40,0,0
29033,-333.333333333333,4,2,1,40,0,0
29073,-250,4,2,1,40,0,0
29154,-166.666666666667,4,2,1,40,0,0
29195,-125,4,2,1,40,0,0
29215,-22.7272727272727,4,2,1,40,0,0
29235,-24.2130750605327,4,2,1,40,0,0
29255,-125,4,2,1,40,0,0
29316,-200,4,2,1,40,0,0
29357,-333.333333333333,4,2,1,40,0,0
29397,-250,4,2,1,40,0,0
29478,-166.666666666667,4,2,1,40,0,0
29519,-125,4,2,1,40,0,0
29539,-22.7272727272727,4,2,1,40,0,0
29559,-24.2130750605327,4,2,1,40,0,0
29579,-125,4,2,1,40,0,0
29640,-200,4,2,1,40,0,0
29681,-333.333333333333,4,2,1,40,0,0
29721,-250,4,2,1,40,0,0
29802,-166.666666666667,4,2,1,40,0,0
29843,-125,4,2,1,40,0,0
29863,-22.7272727272727,4,2,1,40,0,0
29884,-24.2130750605327,4,2,1,40,0,0
29904,-125,4,2,1,40,0,0
29965,-200,4,2,1,40,0,0
30006,-333.333333333333,4,2,1,40,0,0
30046,-250,4,2,1,40,0,0
30127,-166.666666666667,4,2,1,40,0,0
30168,-125,4,2,1,40,0,0
30188,-22.7272727272727,4,2,1,40,0,0
30208,-24.2130750605327,4,2,1,40,0,0
30228,-125,4,2,1,40,0,0
30289,-200,4,2,1,40,0,0
30330,-333.333333333333,4,2,1,40,0,0
30370,-250,4,2,1,40,0,0
30451,-166.666666666667,4,2,1,40,0,0
30492,-125,4,2,1,40,0,0
30512,-22.7272727272727,4,2,1,40,0,0
30532,-24.2130750605327,4,2,1,40,0,0
30552,-125,4,2,1,40,0,0
30613,-200,4,2,1,40,0,0
30654,-333.333333333333,4,2,1,40,0,0
30694,-250,4,2,1,40,0,0
30775,-166.666666666667,4,2,1,40,0,0
30816,-125,4,2,1,40,0,0
30836,-22.7272727272727,4,2,1,40,0,0
30857,-24.2130750605327,4,2,1,40,0,0
30877,-125,4,2,1,40,0,0
30938,-200,4,2,1,40,0,0
30979,-333.333333333333,4,2,1,40,0,0
31019,-250,4,2,1,40,0,0
31100,-166.666666666667,4,2,1,40,0,0
31141,-125,4,2,1,40,0,0
31161,-22.7272727272727,4,2,1,40,0,0
31181,-10.04016064,4,2,1,40,0,0
31188.79,-10657.89474,4,2,1,40,0,0
31222,-17.39130435,4,2,1,40,0,0
31229.6,-10800,4,2,1,40,0,0
31262,-32.05128205,4,2,1,40,0,0
31269.79,-11250,4,2,1,40,0,0
31303,-48.54368932,4,2,1,40,0,0
31310.6,-9418.604651,4,2,1,40,0,0
31343,-250,4,2,1,40,0,0
31424,-166.666666666667,4,2,1,40,0,0
31465,-125,4,2,1,40,0,0
31485,-23.8095238095238,4,2,1,40,0,0
31505,-10.04016064,4,2,1,40,0,0
31512.79,-10657.89474,4,2,1,40,0,0
31546,-17.39130435,4,2,1,40,0,0
31553.6,-10800,4,2,1,40,0,0
31586,-32.05128205,4,2,1,40,0,0
31593.79,-11250,4,2,1,40,0,0
31627,-48.54368932,4,2,1,40,0,0
31634.6,-9418.604651,4,2,1,40,0,0
31667,-250,4,2,1,40,0,0
31748,-166.666666666667,4,2,1,40,0,0
31789,-125,4,2,1,40,0,0
31809,-23.8095238095238,4,2,1,40,0,0
31829,-10.04016064,4,2,1,40,0,0
31836.79,-10657.89474,4,2,1,40,0,0
31870,-17.39130435,4,2,1,40,0,0
31877.6,-10800,4,2,1,40,0,0
31910,-32.05128205,4,2,1,40,0,0
31917.79,-11250,4,2,1,40,0,0
31951,-48.54368932,4,2,1,40,0,0
31958.6,-9418.604651,4,2,1,40,0,0
31991,-250,4,2,1,40,0,0
32072,-166.666666666667,4,2,1,40,0,0
32113,-125,4,2,1,40,0,0
32133,-23.8095238095238,4,2,1,40,0,0
32154,-10.04016064,4,2,1,40,0,0
32161.79,-10657.89474,4,2,1,40,0,0
32195,-17.39130435,4,2,1,40,0,0
32202.6,-10800,4,2,1,40,0,0
32235,-32.05128205,4,2,1,40,0,0
32242.79,-11250,4,2,1,40,0,0
32276,-48.54368932,4,2,1,40,0,0
32283.6,-9418.604651,4,2,1,40,0,0
32316,-250,4,2,1,40,0,0
32397,-166.666666666667,4,2,1,40,0,0
32438,-125,4,2,1,40,0,0
32458,-23.8095238095238,4,2,1,40,0,0
32478,-35.7142857142857,4,2,1,40,0,0
32518,-250,4,2,1,40,0,0
32640,-35.7142857142857,4,2,1,40,0,0
32680,-250,4,2,1,40,0,0
32802,-35.7142857142857,4,2,1,40,0,0
32842,-250,4,2,1,40,0,0
32964,-10,4,2,1,40,0,0
33005,-1000,4,2,1,40,0,0
33248.5,-35.71428571,4,2,1,40,0,0
33289,-250,4,2,1,40,0,0
33410.5,-35.71428571,4,2,1,40,0,0
33451,-24.2130750605327,4,2,1,40,0,0
33471,-125,4,2,1,40,0,0
33532,-200,4,2,1,40,0,0
33573,-333.333333333333,4,2,1,40,0,0
33613,-250,4,2,1,40,0,0
33694,-166.666666666667,4,2,1,40,0,0
33735,-125,4,2,1,40,0,0
33755,-22.7272727272727,4,2,1,40,0,0
33775,-24.2130750605327,4,2,1,40,0,0
33795,-125,4,2,1,40,0,0
33856,-200,4,2,1,40,0,0
33897,-333.333333333333,4,2,1,40,0,0
33937,-250,4,2,1,40,0,0
34018,-166.666666666667,4,2,1,40,0,0
34059,-125,4,2,1,40,0,0
34079,-22.7272727272727,4,2,1,40,0,0
34099,-24.2130750605327,4,2,1,40,0,0
34119,-125,4,2,1,40,0,0
34180,-200,4,2,1,40,0,0
34221,-333.333333333333,4,2,1,40,0,0
34261,-250,4,2,1,40,0,0
34342,-166.666666666667,4,2,1,40,0,0
34383,-125,4,2,1,40,0,0
34403,-22.7272727272727,4,2,1,40,0,0
34424,-24.2130750605327,4,2,1,40,0,0
34444,-125,4,2,1,40,0,0
34505,-200,4,2,1,40,0,0
34546,-333.333333333333,4,2,1,40,0,0
34586,-250,4,2,1,40,0,0
34667,-166.666666666667,4,2,1,40,0,0
34708,-125,4,2,1,40,0,0
34728,-22.7272727272727,4,2,1,40,0,0
34748,-24.2130750605327,4,2,1,40,0,0
34768,-125,4,2,1,40,0,0
34829,-200,4,2,1,40,0,0
34870,-333.333333333333,4,2,1,40,0,0
34910,-250,4,2,1,40,0,0
34991,-166.666666666667,4,2,1,40,0,0
35032,-125,4,2,1,40,0,0
35052,-22.7272727272727,4,2,1,40,0,0
35072,-24.2130750605327,4,2,1,40,0,0
35092,-125,4,2,1,40,0,0
35153,-200,4,2,1,40,0,0
35194,-333.333333333333,4,2,1,40,0,0
35234,-250,4,2,1,40,0,0
35315,-166.666666666667,4,2,1,40,0,0
35356,-125,4,2,1,40,0,0
35376,-22.7272727272727,4,2,1,40,0,0
35397,-24.2130750605327,4,2,1,40,0,0
35417,-125,4,2,1,40,0,0
35478,-200,4,2,1,40,0,0
35519,-333.333333333333,4,2,1,40,0,0
35559,-250,4,2,1,40,0,0
35640,-166.666666666667,4,2,1,40,0,0
35681,-125,4,2,1,40,0,0
35701,-22.7272727272727,4,2,1,40,0,0
35721,-24.2130750605327,4,2,1,40,0,0
35741,-125,4,2,1,40,0,0
35802,-200,4,2,1,40,0,0
35843,-333.333333333333,4,2,1,40,0,0
35883,-250,4,2,1,40,0,0
35964,-166.666666666667,4,2,1,40,0,0
36005,-125,4,2,1,40,0,0
36025,-22.7272727272727,4,2,1,40,0,0
36045,-24.2130750605327,4,2,1,40,0,0
36065,-125,4,2,1,40,0,0
36126,-200,4,2,1,40,0,0
36167,-333.333333333333,4,2,1,40,0,0
36207,-250,4,2,1,40,0,0
36288,-166.666666666667,4,2,1,40,0,0
36329,-125,4,2,1,40,0,0
36349,-22.7272727272727,4,2,1,40,0,0
36370,-24.2130750605327,4,2,1,40,0,0
36390,-125,4,2,1,40,0,0
36451,-200,4,2,1,40,0,0
36492,-333.333333333333,4,2,1,40,0,0
36532,-250,4,2,1,40,0,0
36613,-166.666666666667,4,2,1,40,0,0
36654,-125,4,2,1,40,0,0
36674,-22.7272727272727,4,2,1,40,0,0
36694,-24.2130750605327,4,2,1,40,0,0
36714,-125,4,2,1,40,0,0
36775,-200,4,2,1,40,0,0
36816,-333.333333333333,4,2,1,40,0,0
36856,-250,4,2,1,40,0,0
36937,-166.666666666667,4,2,1,40,0,0
36978,-125,4,2,1,40,0,0
36998,-22.7272727272727,4,2,1,40,0,0
37018,-24.2130750605327,4,2,1,40,0,0
37038,-125,4,2,1,40,0,0
37099,-200,4,2,1,40,0,0
37140,-333.333333333333,4,2,1,40,0,0
37180,-250,4,2,1,40,0,0
37261,-166.666666666667,4,2,1,40,0,0
37302,-125,4,2,1,40,0,0
37322,-22.7272727272727,4,2,1,40,0,0
37343,-24.2130750605327,4,2,1,40,0,0
37363,-125,4,2,1,40,0,0
37424,-200,4,2,1,40,0,0
37465,-333.333333333333,4,2,1,40,0,0
37505,-250,4,2,1,40,0,0
37586,-166.666666666667,4,2,1,40,0,0
37627,-125,4,2,1,40,0,0
37647,-22.7272727272727,4,2,1,40,0,0
37667,-24.2130750605327,4,2,1,40,0,0
37687,-125,4,2,1,40,0,0
37748,-200,4,2,1,40,0,0
37789,-333.333333333333,4,2,1,40,0,0
37829,-250,4,2,1,40,0,0
37910,-166.666666666667,4,2,1,40,0,0
37951,-125,4,2,1,40,0,0
37971,-22.7272727272727,4,2,1,40,0,0
37991,-24.2130750605327,4,2,1,40,0,0
38011,-125,4,2,1,40,0,0
38072,-200,4,2,1,40,0,0
38113,-333.333333333333,4,2,1,40,0,0
38153,-250,4,2,1,40,0,0
38234,-166.666666666667,4,2,1,40,0,0
38275,-125,4,2,1,40,0,0
38295,-22.7272727272727,4,2,1,40,0,0
38316,-24.2130750605327,4,2,1,40,0,0
38336,-125,4,2,1,40,0,0
38397,-200,4,2,1,40,0,0
38438,-333.333333333333,4,2,1,40,0,0
38478,-250,4,2,1,40,0,0
38559,-166.666666666667,4,2,1,40,0,0
38600,-125,4,2,1,40,0,0
38620,-22.7272727272727,4,2,1,40,0,0
38640,-24.2130750605327,4,2,1,40,0,0
38660,-125,4,2,1,40,0,0
38721,-200,4,2,1,40,0,0
38762,-333.333333333333,4,2,1,40,0,0
38802,-250,4,2,1,40,0,0
38883,-166.666666666667,4,2,1,40,0,0
38924,-125,4,2,1,40,0,0
38944,-22.7272727272727,4,2,1,40,0,0
38964,-24.2130750605327,4,2,1,40,0,0
38984,-125,4,2,1,40,0,0
39045,-200,4,2,1,40,0,0
39086,-333.333333333333,4,2,1,40,0,0
39126,-250,4,2,1,40,0,0
39207,-166.666666666667,4,2,1,40,0,0
39248,-125,4,2,1,40,0,0
39268,-22.7272727272727,4,2,1,40,0,0
39289,-24.2130750605327,4,2,1,40,0,0
39309,-125,4,2,1,40,0,0
39370,-200,4,2,1,40,0,0
39411,-333.333333333333,4,2,1,40,0,0
39451,-250,4,2,1,40,0,0
39532,-166.666666666667,4,2,1,40,0,0
39573,-125,4,2,1,40,0,0
39593,-22.7272727272727,4,2,1,40,0,0
39613,-24.2130750605327,4,2,1,40,0,0
39633,-125,4,2,1,40,0,0
39694,-200,4,2,1,40,0,0
39735,-333.333333333333,4,2,1,40,0,0
39775,-250,4,2,1,40,0,0
39856,-166.666666666667,4,2,1,40,0,0
39897,-125,4,2,1,40,0,0
39917,-22.7272727272727,4,2,1,40,0,0
39937,-24.2130750605327,4,2,1,40,0,0
39957,-125,4,2,1,40,0,0
40018,-200,4,2,1,40,0,0
40059,-333.333333333333,4,2,1,40,0,0
40099,-250,4,2,1,40,0,0
40180,-166.666666666667,4,2,1,40,0,0
40221,-125,4,2,1,40,0,0
40241,-22.7272727272727,4,2,1,40,0,0
40262,-24.2130750605327,4,2,1,40,0,0
40282,-125,4,2,1,40,0,0
40343,-200,4,2,1,40,0,0
40384,-333.333333333333,4,2,1,40,0,0
40424,-250,4,2,1,40,0,0
40505,-166.666666666667,4,2,1,40,0,0
40546,-125,4,2,1,40,0,0
40566,-22.7272727272727,4,2,1,40,0,0
40586,-24.2130750605327,4,2,1,40,0,0
40606,-125,4,2,1,40,0,0
40667,-200,4,2,1,40,0,0
40708,-333.333333333333,4,2,1,40,0,0
40748,-250,4,2,1,40,0,0
40829,-166.666666666667,4,2,1,40,0,0
40870,-125,4,2,1,40,0,0
40890,-22.7272727272727,4,2,1,40,0,0
40910,-24.2130750605327,4,2,1,40,0,0
40930,-125,4,2,1,40,0,0
40991,-200,4,2,1,40,0,0
41032,-333.333333333333,4,2,1,40,0,0
41072,-250,4,2,1,40,0,0
41153,-166.666666666667,4,2,1,40,0,0
41194,-125,4,2,1,40,0,0
41214,-22.7272727272727,4,2,1,40,0,0
41235,-24.2130750605327,4,2,1,40,0,0
41255,-125,4,2,1,40,0,0
41316,-200,4,2,1,40,0,0
41357,-333.333333333333,4,2,1,40,0,0
41397,-250,4,2,1,40,0,0
41478,-166.666666666667,4,2,1,40,0,0
41519,-125,4,2,1,40,0,0
41539,-22.7272727272727,4,2,1,40,0,0
41559,-24.2130750605327,4,2,1,40,0,0
41579,-125,4,2,1,40,0,0
41640,-200,4,2,1,40,0,0
41681,-333.333333333333,4,2,1,40,0,0
41721,-250,4,2,1,40,0,0
41802,-166.666666666667,4,2,1,40,0,0
41843,-125,4,2,1,40,0,0
41863,-22.7272727272727,4,2,1,40,0,0
41883,-24.2130750605327,4,2,1,40,0,0
41903,-125,4,2,1,40,0,0
41964,-200,4,2,1,40,0,0
42005,-333.333333333333,4,2,1,40,0,0
42045,-250,4,2,1,40,0,0
42126,-166.666666666667,4,2,1,40,0,0
42167,-125,4,2,1,40,0,0
42187,-22.7272727272727,4,2,1,40,0,0
42208,-24.2130750605327,4,2,1,40,0,0
42228,-125,4,2,1,40,0,0
42289,-200,4,2,1,40,0,0
42330,-333.333333333333,4,2,1,40,0,0
42370,-250,4,2,1,40,0,0
42451,-166.666666666667,4,2,1,40,0,0
42492,-125,4,2,1,40,0,0
42512,-22.7272727272727,4,2,1,40,0,0
42532,-24.2130750605327,4,2,1,40,0,0
42552,-125,4,2,1,40,0,0
42613,-200,4,2,1,40,0,0
42654,-333.333333333333,4,2,1,40,0,0
42694,-250,4,2,1,40,0,0
42775,-166.666666666667,4,2,1,40,0,0
42816,-125,4,2,1,40,0,0
42836,-22.7272727272727,4,2,1,40,0,0
42856,-24.2130750605327,4,2,1,40,0,0
42876,-125,4,2,1,40,0,0
42937,-200,4,2,1,40,0,0
42978,-333.333333333333,4,2,1,40,0,0
43018,-250,4,2,1,40,0,0
43099,-166.666666666667,4,2,1,40,0,0
43140,-125,4,2,1,40,0,0
43160,-22.7272727272727,4,2,1,40,0,0
43180,-24.2130750605327,4,2,1,40,0,0
43200,-125,4,2,1,40,0,0
43261,-200,4,2,1,40,0,0
43302,-333.333333333333,4,2,1,40,0,0
43342,-250,4,2,1,40,0,0
43423,-166.666666666667,4,2,1,40,0,0
43464,-125,4,2,1,40,0,0
43484,-22.7272727272727,4,2,1,40,0,0
43505,-24.2130750605327,4,2,1,40,0,0
43525,-125,4,2,1,40,0,0
43586,-200,4,2,1,40,0,0
43627,-333.333333333333,4,2,1,40,0,0
43667,-250,4,2,1,40,0,0
43748,-166.666666666667,4,2,1,40,0,0
43789,-125,4,2,1,40,0,0
43809,-22.7272727272727,4,2,1,40,0,0
43829,-24.2130750605327,4,2,1,40,0,0
43849,-125,4,2,1,40,0,0
43910,-200,4,2,1,40,0,0
43951,-333.333333333333,4,2,1,40,0,0
43991,-250,4,2,1,40,0,0
44072,-166.666666666667,4,2,1,40,0,0
44113,-125,4,2,1,40,0,0
44133,-22.7272727272727,4,2,1,40,0,0
44153,-24.2130750605327,4,2,1,40,0,0
44173,-125,4,2,1,40,0,0
44234,-200,4,2,1,40,0,0
44275,-333.333333333333,4,2,1,40,0,0
44315,-250,4,2,1,40,0,0
44396,-166.666666666667,4,2,1,40,0,0
44437,-125,4,2,1,40,0,0
44457,-22.7272727272727,4,2,1,40,0,0
44478,-24.2130750605327,4,2,1,40,0,0
44498,-125,4,2,1,40,0,0
44559,-200,4,2,1,40,0,0
44600,-333.333333333333,4,2,1,40,0,0
44640,-250,4,2,1,40,0,0
44721,-166.666666666667,4,2,1,40,0,0
44762,-125,4,2,1,40,0,0
44782,-22.7272727272727,4,2,1,40,0,0
44802,-24.2130750605327,4,2,1,40,0,0
44822,-125,4,2,1,40,0,0
44883,-200,4,2,1,40,0,0
44924,-333.333333333333,4,2,1,40,0,0
44964,-250,4,2,1,40,0,0
45045,-166.666666666667,4,2,1,40,0,0
45086,-125,4,2,1,40,0,0
45106,-22.7272727272727,4,2,1,40,0,0
45126,-24.2130750605327,4,2,1,40,0,0
45146,-125,4,2,1,40,0,0
45207,-200,4,2,1,40,0,0
45248,-333.333333333333,4,2,1,40,0,0
45288,-250,4,2,1,40,0,0
45369,-166.666666666667,4,2,1,40,0,0
45410,-125,4,2,1,40,0,0
45430,-22.7272727272727,4,2,1,40,0,0
45451,-24.2130750605327,4,2,1,40,0,0
45471,-125,4,2,1,40,0,0
45532,-200,4,2,1,40,0,0
45573,-333.333333333333,4,2,1,40,0,0
45613,-250,4,2,1,40,0,0
45694,-166.666666666667,4,2,1,40,0,0
45735,-125,4,2,1,40,0,0
45755,-22.7272727272727,4,2,1,40,0,0
45775,-24.2130750605327,4,2,1,40,0,0
45795,-125,4,2,1,40,0,0
45856,-200,4,2,1,40,0,0
45897,-333.333333333333,4,2,1,40,0,0
45937,-250,4,2,1,40,0,0
46018,-166.666666666667,4,2,1,40,0,0
46059,-125,4,2,1,40,0,0
46079,-22.7272727272727,4,2,1,40,0,0
46099,-24.2130750605327,4,2,1,40,0,0
46119,-125,4,2,1,40,0,0
46180,-200,4,2,1,40,0,0
46221,-333.333333333333,4,2,1,40,0,0
46261,-250,4,2,1,40,0,0
46342,-166.666666666667,4,2,1,40,0,0
46383,-125,4,2,1,40,0,0
46403,-22.7272727272727,4,2,1,40,0,0
46424,-24.2130750605327,4,2,1,40,0,0
46444,-125,4,2,1,40,0,0
46505,-200,4,2,1,40,0,0
46546,-333.333333333333,4,2,1,40,0,0
46586,-250,4,2,1,40,0,0
46667,-166.666666666667,4,2,1,40,0,0
46708,-125,4,2,1,40,0,0
46728,-22.7272727272727,4,2,1,40,0,0
46748,-19.2307692307692,4,2,1,40,0,0
46768,-250,4,2,1,40,0,0
46951,-166.666666666667,4,2,1,40,0,0
46991,-90.9090909090909,4,2,1,40,0,0
47032,-52.6315789473684,4,2,1,40,0,0
47072,-19.2307692307692,4,2,1,40,0,0
47093,-250,4,2,1,40,0,0
47275,-166.666666666667,4,2,1,40,0,0
47315,-90.9090909090909,4,2,1,40,0,0
47356,-52.6315789473684,4,2,1,40,0,0
47397,-19.2307692307692,4,2,1,40,0,0
47417,-250,4,2,1,40,0,0
47600,-166.666666666667,4,2,1,40,0,0
47640,-90.9090909090909,4,2,1,40,0,0
47681,-52.6315789473684,4,2,1,40,0,0
47721,-19.2307692307692,4,2,1,40,0,0
47741,-250,4,2,1,40,0,0
47924,-166.666666666667,4,2,1,40,0,0
47964,-90.9090909090909,4,2,1,40,0,0
48005,-52.6315789473684,4,2,1,40,0,0
48045,-35.7142857142857,4,2,1,40,0,0
48066,-250,4,2,1,40,0,0
48126,-35.7142857142857,4,2,1,40,0,0
48147,-250,4,2,1,40,0,0
48208,-35.7142857142857,4,2,1,40,0,0
48229,-250,4,2,1,40,0,0
48289,-35.7142857142857,4,2,1,40,0,0
48310,-250,4,2,1,40,0,0
48370,-24.6913580246914,4,2,1,40,0,0
48390,-250,4,2,1,40,0,0
48492,-100,4,2,1,40,0,0
48532,-24.6913580246914,4,2,1,40,0,0
48552,-250,4,2,1,40,0,0
48654,-100,4,2,1,40,0,0
48694,-19.2307692307692,4,2,1,40,0,0
48715,-250,4,2,1,40,0,0
48897,-166.666666666667,4,2,1,40,0,0
48937,-90.9090909090909,4,2,1,40,0,0
48978,-52.6315789473684,4,2,1,40,0,0
49018,-10,4,2,1,40,0,0
49059,-1000,4,2,1,40,0,0
49180,-250,4,2,1,40,0,0
49221,-166.666666666667,4,2,1,40,0,0
49261,-90.9090909090909,4,2,1,40,0,0
49302,-52.6315789473684,4,2,1,40,0,0
49343,-24.2130750605327,4,2,1,40,0,0
49363,-125,4,2,1,40,0,0
49424,-200,4,2,1,40,0,0
49465,-333.333333333333,4,2,1,40,0,0
49505,-250,4,2,1,40,0,0
49586,-166.666666666667,4,2,1,40,0,0
49627,-125,4,2,1,40,0,0
49647,-22.7272727272727,4,2,1,40,0,0
49667,-24.2130750605327,4,2,1,40,0,0
49687,-125,4,2,1,40,0,0
49748,-200,4,2,1,40,0,0
49789,-333.333333333333,4,2,1,40,0,0
49829,-250,4,2,1,40,0,0
49910,-166.666666666667,4,2,1,40,0,0
49951,-125,4,2,1,40,0,0
49971,-22.7272727272727,4,2,1,40,0,0
49992,-24.2130750605327,4,2,1,40,0,0
50012,-125,4,2,1,40,0,0
50073,-200,4,2,1,40,0,0
50114,-333.333333333333,4,2,1,40,0,0
50154,-250,4,2,1,40,0,0
50235,-166.666666666667,4,2,1,40,0,0
50276,-125,4,2,1,40,0,0
50296,-22.7272727272727,4,2,1,40,0,0
50316,-24.2130750605327,4,2,1,40,0,0
50336,-125,4,2,1,40,0,0
50397,-200,4,2,1,40,0,0
50438,-333.333333333333,4,2,1,40,0,0
50478,-250,4,2,1,40,0,0
50559,-166.666666666667,4,2,1,40,0,0
50600,-125,4,2,1,40,0,0
50620,-22.7272727272727,4,2,1,40,0,0
50640,-24.2130750605327,4,2,1,40,0,0
50660,-125,4,2,1,40,0,0
50721,-200,4,2,1,40,0,0
50762,-333.333333333333,4,2,1,40,0,0
50802,-250,4,2,1,40,0,0
50883,-166.666666666667,4,2,1,40,0,0
50924,-125,4,2,1,40,0,0
50944,-22.7272727272727,4,2,1,40,0,0
50965,-24.2130750605327,4,2,1,40,0,0
50985,-125,4,2,1,40,0,0
51046,-200,4,2,1,40,0,0
51087,-333.333333333333,4,2,1,40,0,0
51127,-250,4,2,1,40,0,0
51208,-166.666666666667,4,2,1,40,0,0
51249,-125,4,2,1,40,0,0
51269,-22.7272727272727,4,2,1,40,0,0
51289,-24.2130750605327,4,2,1,40,0,0
51309,-125,4,2,1,40,0,0
51370,-200,4,2,1,40,0,0
51411,-333.333333333333,4,2,1,40,0,0
51451,-250,4,2,1,40,0,0
51532,-166.666666666667,4,2,1,40,0,0
51573,-125,4,2,1,40,0,0
51593,-22.7272727272727,4,2,1,40,0,0
51613,-24.2130750605327,4,2,1,40,0,0
51633,-125,4,2,1,40,0,0
51694,-200,4,2,1,40,0,0
51735,-333.333333333333,4,2,1,40,0,0
51775,-250,4,2,1,40,0,0
51856,-166.666666666667,4,2,1,40,0,0
51897,-125,4,2,1,40,0,0
51917,-22.7272727272727,4,2,1,40,0,0
51938,-24.2130750605327,4,2,1,40,0,0
51958,-125,4,2,1,40,0,0
52019,-200,4,2,1,40,0,0
52060,-333.333333333333,4,2,1,40,0,0
52100,-250,4,2,1,40,0,0
52181,-166.666666666667,4,2,1,40,0,0
52222,-125,4,2,1,40,0,0
52242,-22.7272727272727,4,2,1,40,0,0
52262,-24.2130750605327,4,2,1,40,0,0
52282,-125,4,2,1,40,0,0
52343,-200,4,2,1,40,0,0
52384,-333.333333333333,4,2,1,40,0,0
52424,-250,4,2,1,40,0,0
52505,-166.666666666667,4,2,1,40,0,0
52546,-125,4,2,1,40,0,0
52566,-22.7272727272727,4,2,1,40,0,0
52586,-24.2130750605327,4,2,1,40,0,0
52606,-125,4,2,1,40,0,0
52667,-200,4,2,1,40,0,0
52708,-333.333333333333,4,2,1,40,0,0
52748,-250,4,2,1,40,0,0
52829,-166.666666666667,4,2,1,40,0,0
52870,-125,4,2,1,40,0,0
52890,-22.7272727272727,4,2,1,40,0,0
52911,-24.2130750605327,4,2,1,40,0,0
52931,-125,4,2,1,40,0,0
52992,-200,4,2,1,40,0,0
53033,-333.333333333333,4,2,1,40,0,0
53073,-250,4,2,1,40,0,0
53154,-166.666666666667,4,2,1,40,0,0
53195,-125,4,2,1,40,0,0
53215,-22.7272727272727,4,2,1,40,0,0
53235,-24.2130750605327,4,2,1,40,0,0
53255,-125,4,2,1,40,0,0
53316,-200,4,2,1,40,0,0
53357,-333.333333333333,4,2,1,40,0,0
53397,-250,4,2,1,40,0,0
53478,-166.666666666667,4,2,1,40,0,0
53519,-125,4,2,1,40,0,0
53539,-22.7272727272727,4,2,1,40,0,0
53559,-24.2130750605327,4,2,1,40,0,0
53579,-125,4,2,1,40,0,0
53640,-200,4,2,1,40,0,0
53681,-333.333333333333,4,2,1,40,0,0
53721,-250,4,2,1,40,0,0
53802,-166.666666666667,4,2,1,40,0,0
53843,-125,4,2,1,40,0,0
53863,-22.7272727272727,4,2,1,40,0,0
53884,-24.2130750605327,4,2,1,40,0,0
53904,-125,4,2,1,40,0,0
53965,-200,4,2,1,40,0,0
54006,-333.333333333333,4,2,1,40,0,0
54046,-250,4,2,1,40,0,0
54127,-166.666666666667,4,2,1,40,0,0
54168,-125,4,2,1,40,0,0
54188,-22.7272727272727,4,2,1,40,0,0
54208,-24.2130750605327,4,2,1,40,0,0
54228,-125,4,2,1,40,0,0
54289,-200,4,2,1,40,0,0
54330,-333.333333333333,4,2,1,40,0,0
54370,-250,4,2,1,40,0,0
54451,-166.666666666667,4,2,1,40,0,0
54492,-125,4,2,1,40,0,0
54512,-22.7272727272727,4,2,1,40,0,0
54532,-24.2130750605327,4,2,1,40,0,0
54552,-125,4,2,1,40,0,0
54613,-200,4,2,1,40,0,0
54654,-333.333333333333,4,2,1,40,0,0
54694,-250,4,2,1,40,0,0
54775,-166.666666666667,4,2,1,40,0,0
54816,-125,4,2,1,40,0,0
54836,-22.7272727272727,4,2,1,40,0,0
54857,-24.2130750605327,4,2,1,40,0,0
54877,-125,4,2,1,40,0,0
54938,-200,4,2,1,40,0,0
54979,-333.333333333333,4,2,1,40,0,0
55019,-250,4,2,1,40,0,0
55100,-166.666666666667,4,2,1,40,0,0
55141,-125,4,2,1,40,0,0
55161,-22.7272727272727,4,2,1,40,0,0
55181,-24.2130750605327,4,2,1,40,0,0
55201,-125,4,2,1,40,0,0
55262,-200,4,2,1,40,0,0
55303,-333.333333333333,4,2,1,40,0,0
55343,-250,4,2,1,40,0,0
55424,-166.666666666667,4,2,1,40,0,0
55465,-125,4,2,1,40,0,0
55485,-22.7272727272727,4,2,1,40,0,0
55505,-24.2130750605327,4,2,1,40,0,0
55525,-125,4,2,1,40,0,0
55586,-200,4,2,1,40,0,0
55627,-333.333333333333,4,2,1,40,0,0
55667,-250,4,2,1,40,0,0
55748,-166.666666666667,4,2,1,40,0,0
55789,-125,4,2,1,40,0,0
55809,-22.7272727272727,4,2,1,40,0,0
55830,-24.2130750605327,4,2,1,40,0,0
55850,-125,4,2,1,40,0,0
55911,-200,4,2,1,40,0,0
55952,-333.333333333333,4,2,1,40,0,0
55992,-250,4,2,1,40,0,0
56073,-166.666666666667,4,2,1,40,0,0
56114,-125,4,2,1,40,0,0
56134,-22.7272727272727,4,2,1,40,0,0
56154,-24.2130750605327,4,2,1,40,0,0
56174,-125,4,2,1,40,0,0
56235,-200,4,2,1,40,0,0
56276,-333.333333333333,4,2,1,40,0,0
56316,-250,4,2,1,40,0,0
56397,-166.666666666667,4,2,1,40,0,0
56438,-125,4,2,1,40,0,0
56458,-22.7272727272727,4,2,1,40,0,0
56478,-24.2130750605327,4,2,1,40,0,0
56498,-125,4,2,1,40,0,0
56559,-200,4,2,1,40,0,0
56600,-333.333333333333,4,2,1,40,0,0
56640,-250,4,2,1,40,0,0
56721,-166.666666666667,4,2,1,40,0,0
56762,-125,4,2,1,40,0,0
56782,-22.7272727272727,4,2,1,40,0,0
56803,-24.2130750605327,4,2,1,40,0,0
56823,-125,4,2,1,40,0,0
56884,-200,4,2,1,40,0,0
56925,-333.333333333333,4,2,1,40,0,0
56965,-250,4,2,1,40,0,0
57046,-166.666666666667,4,2,1,40,0,0
57087,-125,4,2,1,40,0,0
57107,-22.7272727272727,4,2,1,40,0,0
57127,-24.2130750605327,4,2,1,40,0,0
57147,-125,4,2,1,40,0,0
57208,-200,4,2,1,40,0,0
57249,-333.333333333333,4,2,1,40,0,0
57289,-250,4,2,1,40,0,0
57370,-166.666666666667,4,2,1,40,0,0
57411,-125,4,2,1,40,0,0
57431,-22.7272727272727,4,2,1,40,0,0
57451,-24.2130750605327,4,2,1,40,0,0
57471,-125,4,2,1,40,0,0
57532,-200,4,2,1,40,0,0
57573,-333.333333333333,4,2,1,40,0,0
57613,-250,4,2,1,40,0,0
57694,-166.666666666667,4,2,1,40,0,0
57735,-125,4,2,1,40,0,0
57755,-22.7272727272727,4,2,1,40,0,0
57776,-24.2130750605327,4,2,1,40,0,0
57796,-125,4,2,1,40,0,0
57857,-200,4,2,1,40,0,0
57898,-333.333333333333,4,2,1,40,0,0
57938,-250,4,2,1,40,0,0
58019,-166.666666666667,4,2,1,40,0,0
58060,-125,4,2,1,40,0,0
58080,-22.7272727272727,4,2,1,40,0,0
58100,-24.2130750605327,4,2,1,40,0,0
58120,-125,4,2,1,40,0,0
58181,-200,4,2,1,40,0,0
58222,-333.333333333333,4,2,1,40,0,0
58262,-250,4,2,1,40,0,0
58343,-166.666666666667,4,2,1,40,0,0
58384,-125,4,2,1,40,0,0
58404,-22.7272727272727,4,2,1,40,0,0
58424,-24.2130750605327,4,2,1,40,0,0
58444,-125,4,2,1,40,0,0
58505,-200,4,2,1,40,0,0
58546,-333.333333333333,4,2,1,40,0,0
58586,-250,4,2,1,40,0,0
58667,-166.666666666667,4,2,1,40,0,0
58708,-125,4,2,1,40,0,0
58728,-22.7272727272727,4,2,1,40,0,0
58748,-24.2130750605327,4,2,1,40,0,0
58768,-125,4,2,1,40,0,0
58829,-200,4,2,1,40,0,0
58870,-333.333333333333,4,2,1,40,0,0
58910,-250,4,2,1,40,0,0
58991,-166.666666666667,4,2,1,40,0,0
59032,-125,4,2,1,40,0,0
59052,-22.7272727272727,4,2,1,40,0,0
59073,-24.2130750605327,4,2,1,40,0,0
59093,-125,4,2,1,40,0,0
59154,-200,4,2,1,40,0,0
59195,-333.333333333333,4,2,1,40,0,0
59235,-250,4,2,1,40,0,0
59316,-166.666666666667,4,2,1,40,0,0
59357,-125,4,2,1,40,0,0
59377,-22.7272727272727,4,2,1,40,0,0
59397,-24.2130750605327,4,2,1,40,0,0
59417,-125,4,2,1,40,0,0
59478,-200,4,2,1,40,0,0
59519,-333.333333333333,4,2,1,40,0,0
59559,-250,4,2,1,40,0,0
59640,-166.666666666667,4,2,1,40,0,0
59681,-125,4,2,1,40,0,0
59701,-22.7272727272727,4,2,1,40,0,0
59721,-24.2130750605327,4,2,1,40,0,0
59741,-125,4,2,1,40,0,0
59802,-200,4,2,1,40,0,0
59843,-333.333333333333,4,2,1,40,0,0
59883,-250,4,2,1,40,0,0
59964,-166.666666666667,4,2,1,40,0,0
60005,-125,4,2,1,40,0,0
60025,-22.7272727272727,4,2,1,40,0,0
60046,-24.2130750605327,4,2,1,40,0,0
60066,-125,4,2,1,40,0,0
60127,-200,4,2,1,40,0,0
60168,-333.333333333333,4,2,1,40,0,0
60208,-250,4,2,1,40,0,0
60289,-166.666666666667,4,2,1,40,0,0
60330,-125,4,2,1,40,0,0
60350,-22.7272727272727,4,2,1,40,0,0
60370,-24.2130750605327,4,2,1,40,0,0
60390,-125,4,2,1,40,0,0
60451,-200,4,2,1,40,0,0
60492,-333.333333333333,4,2,1,40,0,0
60532,-250,4,2,1,40,0,0
60613,-166.666666666667,4,2,1,40,0,0
60654,-125,4,2,1,40,0,0
60674,-22.7272727272727,4,2,1,40,0,0
60694,-24.2130750605327,4,2,1,40,0,0
60714,-125,4,2,1,40,0,0
60775,-200,4,2,1,40,0,0
60816,-333.333333333333,4,2,1,40,0,0
60856,-250,4,2,1,40,0,0
60937,-166.666666666667,4,2,1,40,0,0
60978,-125,4,2,1,40,0,0
60998,-22.7272727272727,4,2,1,40,0,0
61019,-24.2130750605327,4,2,1,40,0,0
61039,-125,4,2,1,40,0,0
61100,-200,4,2,1,40,0,0
61141,-333.333333333333,4,2,1,40,0,0
61181,-250,4,2,1,40,0,0
61262,-166.666666666667,4,2,1,40,0,0
61303,-125,4,2,1,40,0,0
61323,-22.7272727272727,4,2,1,40,0,0
61343,-24.2130750605327,4,2,1,40,0,0
61363,-125,4,2,1,40,0,0
61424,-200,4,2,1,40,0,0
61465,-333.333333333333,4,2,1,40,0,0
61505,-250,4,2,1,40,0,0
61586,-166.666666666667,4,2,1,40,0,0
61627,-125,4,2,1,40,0,0
61647,-22.7272727272727,4,2,1,40,0,0
61667,-24.2130750605327,4,2,1,40,0,0
61687,-125,4,2,1,40,0,0
61748,-200,4,2,1,40,0,0
61789,-333.333333333333,4,2,1,40,0,0
61829,-250,4,2,1,40,0,0
61910,-166.666666666667,4,2,1,40,0,0
61951,-125,4,2,1,40,0,0
61971,-22.7272727272727,4,2,1,40,0,0
61992,-24.2130750605327,4,2,1,40,0,0
62012,-125,4,2,1,40,0,0
62073,-200,4,2,1,40,0,0
62114,-333.333333333333,4,2,1,40,0,0
62154,-250,4,2,1,40,0,0
62235,-166.666666666667,4,2,1,40,0,0
62276,-125,4,2,1,40,0,0
62296,-22.7272727272727,4,2,1,40,0,0
62316,-10.04016064,4,2,1,40,0,0
62323.79,-10657.89474,4,2,1,40,0,0
62357,-17.39130435,4,2,1,40,0,0
62364.6,-10800,4,2,1,40,0,0
62397,-32.05128205,4,2,1,40,0,0
62404.79,-11250,4,2,1,40,0,0
62438,-48.54368932,4,2,1,40,0,0
62445.6,-9418.604651,4,2,1,40,0,0
62478,-250,4,2,1,40,0,0
62559,-166.666666666667,4,2,1,40,0,0
62600,-125,4,2,1,40,0,0
62620,-23.8095238095238,4,2,1,40,0,0
62640,-10.04016064,4,2,1,40,0,0
62647.79,-10657.89474,4,2,1,40,0,0
62681,-17.39130435,4,2,1,40,0,0
62688.6,-10800,4,2,1,40,0,0
62721,-32.05128205,4,2,1,40,0,0
62728.79,-11250,4,2,1,40,0,0
62762,-48.54368932,4,2,1,40,0,0
62769.6,-9418.604651,4,2,1,40,0,0
62802,-250,4,2,1,40,0,0
62883,-166.666666666667,4,2,1,40,0,0
62924,-125,4,2,1,40,0,0
62944,-23.8095238095238,4,2,1,40,0,0
62964,-10.04016064,4,2,1,40,0,0
62971.79,-10657.89474,4,2,1,40,0,0
63005,-17.39130435,4,2,1,40,0,0
63012.6,-10800,4,2,1,40,0,0
63045,-32.05128205,4,2,1,40,0,0
63052.79,-11250,4,2,1,40,0,0
63086,-48.54368932,4,2,1,40,0,0
63093.6,-9418.604651,4,2,1,40,0,0
63126,-250,4,2,1,40,0,0
63207,-166.666666666667,4,2,1,40,0,0
63248,-125,4,2,1,40,0,0
63268,-23.8095238095238,4,2,1,40,0,0
63289,-10.04016064,4,2,1,40,0,0
63296.79,-10657.89474,4,2,1,40,0,0
63330,-17.39130435,4,2,1,40,0,0
63337.6,-10800,4,2,1,40,0,0
63370,-32.05128205,4,2,1,40,0,0
63377.79,-11250,4,2,1,40,0,0
63411,-48.54368932,4,2,1,40,0,0
63418.6,-9418.604651,4,2,1,40,0,0
63451,-250,4,2,1,40,0,0
63532,-166.666666666667,4,2,1,40,0,0
63573,-125,4,2,1,40,0,0
63593,-23.8095238095238,4,2,1,40,0,0
63613,-35.7142857142857,4,2,1,40,0,0
63653,-250,4,2,1,40,0,0
63775,-35.7142857142857,4,2,1,40,0,0
63815,-250,4,2,1,40,0,0
63937,-35.7142857142857,4,2,1,40,0,0
63977,-250,4,2,1,40,0,0
64099,-10,4,2,1,40,0,0
64140,-1000,4,2,1,40,0,0
64383.5,-35.71428571,4,2,1,40,0,0
64424,-250,4,2,1,40,0,0
64545.5,-35.71428571,4,2,1,40,0,0
64586,-24.2130750605327,4,2,1,40,0,0
64606,-125,4,2,1,40,0,0
64667,-200,4,2,1,40,0,0
64708,-333.333333333333,4,2,1,40,0,0
64748,-250,4,2,1,40,0,0
64829,-166.666666666667,4,2,1,40,0,0
64870,-125,4,2,1,40,0,0
64890,-22.7272727272727,4,2,1,40,0,0
64910,-24.2130750605327,4,2,1,40,0,0
64930,-125,4,2,1,40,0,0
64991,-200,4,2,1,40,0,0
65032,-333.333333333333,4,2,1,40,0,0
65072,-250,4,2,1,40,0,0
65153,-166.666666666667,4,2,1,40,0,0
65194,-125,4,2,1,40,0,0
65214,-22.7272727272727,4,2,1,40,0,0
65234,-24.2130750605327,4,2,1,40,0,0
65254,-125,4,2,1,40,0,0
65315,-200,4,2,1,40,0,0
65356,-333.333333333333,4,2,1,40,0,0
65396,-250,4,2,1,40,0,0
65477,-166.666666666667,4,2,1,40,0,0
65518,-125,4,2,1,40,0,0
65538,-22.7272727272727,4,2,1,40,0,0
65559,-24.2130750605327,4,2,1,40,0,0
65579,-125,4,2,1,40,0,0
65640,-200,4,2,1,40,0,0
65681,-333.333333333333,4,2,1,40,0,0
65721,-250,4,2,1,40,0,0
65802,-166.666666666667,4,2,1,40,0,0
65843,-125,4,2,1,40,0,0
65863,-22.7272727272727,4,2,1,40,0,0
65883,-24.2130750605327,4,2,1,40,0,0
65903,-125,4,2,1,40,0,0
65964,-200,4,2,1,40,0,0
66005,-333.333333333333,4,2,1,40,0,0
66045,-250,4,2,1,40,0,0
66126,-166.666666666667,4,2,1,40,0,0
66167,-125,4,2,1,40,0,0
66187,-22.7272727272727,4,2,1,40,0,0
66207,-24.2130750605327,4,2,1,40,0,0
66227,-125,4,2,1,40,0,0
66288,-200,4,2,1,40,0,0
66329,-333.333333333333,4,2,1,40,0,0
66369,-250,4,2,1,40,0,0
66450,-166.666666666667,4,2,1,40,0,0
66491,-125,4,2,1,40,0,0
66511,-22.7272727272727,4,2,1,40,0,0
66532,-24.2130750605327,4,2,1,40,0,0
66552,-125,4,2,1,40,0,0
66613,-200,4,2,1,40,0,0
66654,-333.333333333333,4,2,1,40,0,0
66694,-250,4,2,1,40,0,0
66775,-166.666666666667,4,2,1,40,0,0
66816,-125,4,2,1,40,0,0
66836,-22.7272727272727,4,2,1,40,0,0
66856,-24.2130750605327,4,2,1,40,0,0
66876,-125,4,2,1,40,0,0
66937,-200,4,2,1,40,0,0
66978,-333.333333333333,4,2,1,40,0,0
67018,-250,4,2,1,40,0,0
67099,-166.666666666667,4,2,1,40,0,0
67140,-125,4,2,1,40,0,0
67160,-22.7272727272727,4,2,1,40,0,0
67180,-24.2130750605327,4,2,1,40,0,0
67200,-125,4,2,1,40,0,0
67261,-200,4,2,1,40,0,0
67302,-333.333333333333,4,2,1,40,0,0
67342,-250,4,2,1,40,0,0
67423,-166.666666666667,4,2,1,40,0,0
67464,-125,4,2,1,40,0,0
67484,-22.7272727272727,4,2,1,40,0,0
67505,-24.2130750605327,4,2,1,40,0,0
67525,-125,4,2,1,40,0,0
67586,-200,4,2,1,40,0,0
67627,-333.333333333333,4,2,1,40,0,0
67667,-250,4,2,1,40,0,0
67748,-166.666666666667,4,2,1,40,0,0
67789,-125,4,2,1,40,0,0
67809,-22.7272727272727,4,2,1,40,0,0
67829,-24.2130750605327,4,2,1,40,0,0
67849,-125,4,2,1,40,0,0
67910,-200,4,2,1,40,0,0
67951,-333.333333333333,4,2,1,40,0,0
67991,-250,4,2,1,40,0,0
68072,-166.666666666667,4,2,1,40,0,0
68113,-125,4,2,1,40,0,0
68133,-22.7272727272727,4,2,1,40,0,0
68153,-24.2130750605327,4,2,1,40,0,0
68173,-125,4,2,1,40,0,0
68234,-200,4,2,1,40,0,0
68275,-333.333333333333,4,2,1,40,0,0
68315,-250,4,2,1,40,0,0
68396,-166.666666666667,4,2,1,40,0,0
68437,-125,4,2,1,40,0,0
68457,-22.7272727272727,4,2,1,40,0,0
68478,-24.2130750605327,4,2,1,40,0,0
68498,-125,4,2,1,40,0,0
68559,-200,4,2,1,40,0,0
68600,-333.333333333333,4,2,1,40,0,0
68640,-250,4,2,1,40,0,0
68721,-166.666666666667,4,2,1,40,0,0
68762,-125,4,2,1,40,0,0
68782,-22.7272727272727,4,2,1,40,0,0
68802,-24.2130750605327,4,2,1,40,0,0
68822,-125,4,2,1,40,0,0
68883,-200,4,2,1,40,0,0
68924,-333.333333333333,4,2,1,40,0,0
68964,-250,4,2,1,40,0,0
69045,-166.666666666667,4,2,1,40,0,0
69086,-125,4,2,1,40,0,0
69106,-22.7272727272727,4,2,1,40,0,0
69126,-24.2130750605327,4,2,1,40,0,0
69146,-125,4,2,1,40,0,0
69207,-200,4,2,1,40,0,0
69248,-333.333333333333,4,2,1,40,0,0
69288,-250,4,2,1,40,0,0
69369,-166.666666666667,4,2,1,40,0,0
69410,-125,4,2,1,40,0,0
69430,-22.7272727272727,4,2,1,40,0,0
69451,-24.2130750605327,4,2,1,40,0,0
69471,-125,4,2,1,40,0,0
69532,-200,4,2,1,40,0,0
69573,-333.333333333333,4,2,1,40,0,0
69613,-250,4,2,1,40,0,0
69694,-166.666666666667,4,2,1,40,0,0
69735,-125,4,2,1,40,0,0
69755,-22.7272727272727,4,2,1,40,0,0
69775,-24.2130750605327,4,2,1,40,0,0
69795,-125,4,2,1,40,0,0
69856,-200,4,2,1,40,0,0
69897,-333.333333333333,4,2,1,40,0,0
69937,-250,4,2,1,40,0,0
70018,-166.666666666667,4,2,1,40,0,0
70059,-125,4,2,1,40,0,0
70079,-22.7272727272727,4,2,1,40,0,0
70099,-24.2130750605327,4,2,1,40,0,0
70119,-125,4,2,1,40,0,0
70180,-200,4,2,1,40,0,0
70221,-333.333333333333,4,2,1,40,0,0
70261,-250,4,2,1,40,0,0
70342,-166.666666666667,4,2,1,40,0,0
70383,-125,4,2,1,40,0,0
70403,-22.7272727272727,4,2,1,40,0,0
70424,-24.2130750605327,4,2,1,40,0,0
70444,-125,4,2,1,40,0,0
70505,-200,4,2,1,40,0,0
70546,-333.333333333333,4,2,1,40,0,0
70586,-250,4,2,1,40,0,0
70667,-166.666666666667,4,2,1,40,0,0
70708,-125,4,2,1,40,0,0
70728,-22.7272727272727,4,2,1,40,0,0
70748,-24.2130750605327,4,2,1,40,0,0
70768,-125,4,2,1,40,0,0
70829,-200,4,2,1,40,0,0
70870,-333.333333333333,4,2,1,40,0,0
70910,-250,4,2,1,40,0,0
70991,-166.666666666667,4,2,1,40,0,0
71032,-125,4,2,1,40,0,0
71052,-22.7272727272727,4,2,1,40,0,0
71072,-24.2130750605327,4,2,1,40,0,0
71092,-125,4,2,1,40,0,0
71153,-200,4,2,1,40,0,0
71194,-333.333333333333,4,2,1,40,0,0
71234,-250,4,2,1,40,0,0
71315,-166.666666666667,4,2,1,40,0,0
71356,-125,4,2,1,40,0,0
71376,-22.7272727272727,4,2,1,40,0,0
71397,-24.2130750605327,4,2,1,40,0,0
71417,-125,4,2,1,40,0,0
71478,-200,4,2,1,40,0,0
71519,-333.333333333333,4,2,1,40,0,0
71559,-250,4,2,1,40,0,0
71640,-166.666666666667,4,2,1,40,0,0
71681,-125,4,2,1,40,0,0
71701,-22.7272727272727,4,2,1,40,0,0
71721,-24.2130750605327,4,2,1,40,0,0
71741,-125,4,2,1,40,0,0
71802,-200,4,2,1,40,0,0
71843,-333.333333333333,4,2,1,40,0,0
71883,-250,4,2,1,40,0,0
71964,-166.666666666667,4,2,1,40,0,0
72005,-125,4,2,1,40,0,0
72025,-22.7272727272727,4,2,1,40,0,0
72045,-24.2130750605327,4,2,1,40,0,0
72065,-125,4,2,1,40,0,0
72126,-200,4,2,1,40,0,0
72167,-333.333333333333,4,2,1,40,0,0
72207,-250,4,2,1,40,0,0
72288,-166.666666666667,4,2,1,40,0,0
72329,-125,4,2,1,40,0,0
72349,-22.7272727272727,4,2,1,40,0,0
72370,-24.2130750605327,4,2,1,40,0,0
72390,-125,4,2,1,40,0,0
72451,-200,4,2,1,40,0,0
72492,-333.333333333333,4,2,1,40,0,0
72532,-250,4,2,1,40,0,0
72613,-166.666666666667,4,2,1,40,0,0
72654,-125,4,2,1,40,0,0
72674,-22.7272727272727,4,2,1,40,0,0
72694,-24.2130750605327,4,2,1,40,0,0
72714,-125,4,2,1,40,0,0
72775,-200,4,2,1,40,0,0
72816,-333.333333333333,4,2,1,40,0,0
72856,-250,4,2,1,40,0,0
72937,-166.666666666667,4,2,1,40,0,0
72978,-125,4,2,1,40,0,0
72998,-22.7272727272727,4,2,1,40,0,0
73018,-24.2130750605327,4,2,1,40,0,0
73038,-125,4,2,1,40,0,0
73099,-200,4,2,1,40,0,0
73140,-333.333333333333,4,2,1,40,0,0
73180,-250,4,2,1,40,0,0
73261,-166.666666666667,4,2,1,40,0,0
73302,-125,4,2,1,40,0,0
73322,-22.7272727272727,4,2,1,40,0,0
73343,-24.2130750605327,4,2,1,40,0,0
73363,-125,4,2,1,40,0,0
73424,-200,4,2,1,40,0,0
73465,-333.333333333333,4,2,1,40,0,0
73505,-250,4,2,1,40,0,0
73586,-166.666666666667,4,2,1,40,0,0
73627,-125,4,2,1,40,0,0
73647,-22.7272727272727,4,2,1,40,0,0
73667,-24.2130750605327,4,2,1,40,0,0
73687,-125,4,2,1,40,0,0
73748,-200,4,2,1,40,0,0
73789,-333.333333333333,4,2,1,40,0,0
73829,-250,4,2,1,40,0,0
73910,-166.666666666667,4,2,1,40,0,0
73951,-125,4,2,1,40,0,0
73971,-22.7272727272727,4,2,1,40,0,0
73991,-24.2130750605327,4,2,1,40,0,0
74011,-125,4,2,1,40,0,0
74072,-200,4,2,1,40,0,0
74113,-333.333333333333,4,2,1,40,0,0
74153,-250,4,2,1,40,0,0
74234,-166.666666666667,4,2,1,40,0,0
74275,-125,4,2,1,40,0,0
74295,-22.7272727272727,4,2,1,40,0,0
74315,-24.2130750605327,4,2,1,40,0,0
74335,-125,4,2,1,40,0,0
74396,-200,4,2,1,40,0,0
74437,-333.333333333333,4,2,1,40,0,0
74477,-250,4,2,1,40,0,0
74558,-166.666666666667,4,2,1,40,0,0
74599,-125,4,2,1,40,0,0
74619,-22.7272727272727,4,2,1,40,0,0
74640,-24.2130750605327,4,2,1,40,0,0
74660,-125,4,2,1,40,0,0
74721,-200,4,2,1,40,0,0
74762,-333.333333333333,4,2,1,40,0,0
74802,-250,4,2,1,40,0,0
74883,-166.666666666667,4,2,1,40,0,0
74924,-125,4,2,1,40,0,0
74944,-22.7272727272727,4,2,1,40,0,0
74964,-24.2130750605327,4,2,1,40,0,0
74984,-125,4,2,1,40,0,0
75045,-200,4,2,1,40,0,0
75086,-333.333333333333,4,2,1,40,0,0
75126,-250,4,2,1,40,0,0
75207,-166.666666666667,4,2,1,40,0,0
75248,-125,4,2,1,40,0,0
75268,-22.7272727272727,4,2,1,40,0,0
75288,-24.2130750605327,4,2,1,40,0,0
75308,-125,4,2,1,40,0,0
75369,-200,4,2,1,40,0,0
75410,-333.333333333333,4,2,1,40,0,0
75450,-250,4,2,1,40,0,0
75531,-166.666666666667,4,2,1,40,0,0
75572,-125,4,2,1,40,0,0
75592,-22.7272727272727,4,2,1,40,0,0
75613,-24.2130750605327,4,2,1,40,0,0
75633,-125,4,2,1,40,0,0
75694,-200,4,2,1,40,0,0
75735,-333.333333333333,4,2,1,40,0,0
75775,-250,4,2,1,40,0,0
75856,-166.666666666667,4,2,1,40,0,0
75897,-125,4,2,1,40,0,0
75917,-22.7272727272727,4,2,1,40,0,0
75937,-24.2130750605327,4,2,1,40,0,0
75957,-125,4,2,1,40,0,0
76018,-200,4,2,1,40,0,0
76059,-333.333333333333,4,2,1,40,0,0
76099,-250,4,2,1,40,0,0
76180,-166.666666666667,4,2,1,40,0,0
76221,-125,4,2,1,40,0,0
76241,-22.7272727272727,4,2,1,40,0,0
76261,-24.2130750605327,4,2,1,40,0,0
76281,-125,4,2,1,40,0,0
76342,-200,4,2,1,40,0,0
76383,-333.333333333333,4,2,1,40,0,0
76423,-250,4,2,1,40,0,0
76504,-166.666666666667,4,2,1,40,0,0
76545,-125,4,2,1,40,0,0
76565,-22.7272727272727,4,2,1,40,0,0
76586,-24.2130750605327,4,2,1,40,0,0
76606,-125,4,2,1,40,0,0
76667,-200,4,2,1,40,0,0
76708,-333.333333333333,4,2,1,40,0,0
76748,-250,4,2,1,40,0,0
76829,-166.666666666667,4,2,1,40,0,0
76870,-125,4,2,1,40,0,0
76890,-22.7272727272727,4,2,1,40,0,0
76910,-24.2130750605327,4,2,1,40,0,0
76930,-125,4,2,1,40,0,0
76991,-200,4,2,1,40,0,0
77032,-333.333333333333,4,2,1,40,0,0
77072,-250,4,2,1,40,0,0
77153,-166.666666666667,4,2,1,40,0,0
77194,-125,4,2,1,40,0,0
77214,-22.7272727272727,4,2,1,40,0,0
77234,-24.2130750605327,4,2,1,40,0,0
77254,-125,4,2,1,40,0,0
77315,-200,4,2,1,40,0,0
77356,-333.333333333333,4,2,1,40,0,0
77396,-250,4,2,1,40,0,0
77477,-166.666666666667,4,2,1,40,0,0
77518,-125,4,2,1,40,0,0
77538,-22.7272727272727,4,2,1,40,0,0
77559,-24.2130750605327,4,2,1,40,0,0
77579,-125,4,2,1,40,0,0
77640,-200,4,2,1,40,0,0
77681,-333.333333333333,4,2,1,40,0,0
77721,-250,4,2,1,40,0,0
77802,-166.666666666667,4,2,1,40,0,0
77843,-125,4,2,1,40,0,0
77863,-22.7272727272727,4,2,1,40,0,0
77883,-24.2130750605327,4,2,1,40,0,0
77903,-125,4,2,1,40,0,0
77964,-200,4,2,1,40,0,0
78005,-333.333333333333,4,2,1,40,0,0
78045,-250,4,2,1,40,0,0
78126,-166.666666666667,4,2,1,40,0,0
78167,-125,4,2,1,40,0,0
78187,-22.7272727272727,4,2,1,40,0,0
78207,-24.2130750605327,4,2,1,40,0,0
78227,-125,4,2,1,40,0,0
78288,-200,4,2,1,40,0,0
78329,-333.333333333333,4,2,1,40,0,0
78369,-250,4,2,1,40,0,0
78450,-166.666666666667,4,2,1,40,0,0
78491,-125,4,2,1,40,0,0
78511,-22.7272727272727,4,2,1,40,0,0
78532,-24.2130750605327,4,2,1,40,0,0
78552,-125,4,2,1,40,0,0
78613,-200,4,2,1,40,0,0
78654,-333.333333333333,4,2,1,40,0,0
78694,-250,4,2,1,40,0,0
78775,-166.666666666667,4,2,1,40,0,0
78816,-125,4,2,1,40,0,0
78836,-22.7272727272727,4,2,1,40,0,0
78856,-24.2130750605327,4,2,1,40,0,0
78876,-125,4,2,1,40,0,0
78937,-200,4,2,1,40,0,0
78978,-333.333333333333,4,2,1,40,0,0
79018,-250,4,2,1,40,0,0
79099,-166.666666666667,4,2,1,40,0,0
79140,-125,4,2,1,40,0,0
79160,-22.7272727272727,4,2,1,40,0,0
79180,-24.2130750605327,4,2,1,40,0,0
79200,-125,4,2,1,40,0,0
79261,-200,4,2,1,40,0,0
79302,-333.333333333333,4,2,1,40,0,0
79342,-250,4,2,1,40,0,0
79423,-166.666666666667,4,2,1,40,0,0
79464,-125,4,2,1,40,0,0
79484,-22.7272727272727,4,2,1,40,0,0
79505,-24.2130750605327,4,2,1,40,0,0
79525,-125,4,2,1,40,0,0
79586,-200,4,2,1,40,0,0
79627,-333.333333333333,4,2,1,40,0,0
79667,-250,4,2,1,40,0,0
79748,-166.666666666667,4,2,1,40,0,0
79789,-125,4,2,1,40,0,0
79809,-22.7272727272727,4,2,1,40,0,0
79829,-24.2130750605327,4,2,1,40,0,0
79849,-125,4,2,1,40,0,0
79910,-200,4,2,1,40,0,0
79951,-333.333333333333,4,2,1,40,0,0
79991,-250,4,2,1,40,0,0
80072,-166.666666666667,4,2,1,40,0,0
80113,-125,4,2,1,40,0,0
80133,-22.7272727272727,4,2,1,40,0,0
80153,-24.2130750605327,4,2,1,40,0,0
80173,-125,4,2,1,40,0,0
80234,-200,4,2,1,40,0,0
80275,-333.333333333333,4,2,1,40,0,0
80315,-250,4,2,1,40,0,0
80396,-166.666666666667,4,2,1,40,0,0
80437,-125,4,2,1,40,0,0
80457,-22.7272727272727,4,2,1,40,0,0
80478,-24.2130750605327,4,2,1,40,0,0
80498,-125,4,2,1,40,0,0
80559,-200,4,2,1,40,0,0
80600,-333.333333333333,4,2,1,40,0,0
80640,-250,4,2,1,40,0,0
80721,-166.666666666667,4,2,1,40,0,0
80762,-125,4,2,1,40,0,0
80782,-22.7272727272727,4,2,1,40,0,0
80802,-24.2130750605327,4,2,1,40,0,0
80822,-125,4,2,1,40,0,0
80883,-200,4,2,1,40,0,0
80924,-333.333333333333,4,2,1,40,0,0
80964,-250,4,2,1,40,0,0
81045,-166.666666666667,4,2,1,40,0,0
81086,-125,4,2,1,40,0,0
81106,-22.7272727272727,4,2,1,40,0,0
81126,-24.2130750605327,4,2,1,40,0,0
81146,-125,4,2,1,40,0,0
81207,-200,4,2,1,40,0,0
81248,-333.333333333333,4,2,1,40,0,0
81288,-250,4,2,1,40,0,0
81369,-166.666666666667,4,2,1,40,0,0
81410,-125,4,2,1,40,0,0
81430,-22.7272727272727,4,2,1,40,0,0
81451,-24.2130750605327,4,2,1,40,0,0
81471,-125,4,2,1,40,0,0
81532,-200,4,2,1,40,0,0
81573,-333.333333333333,4,2,1,40,0,0
81613,-250,4,2,1,40,0,0
81694,-166.666666666667,4,2,1,40,0,0
81735,-125,4,2,1,40,0,0
81755,-22.7272727272727,4,2,1,40,0,0
81775,-24.2130750605327,4,2,1,40,0,0
81795,-125,4,2,1,40,0,0
81856,-200,4,2,1,40,0,0
81897,-333.333333333333,4,2,1,40,0,0
81937,-250,4,2,1,40,0,0
82018,-166.666666666667,4,2,1,40,0,0
82059,-125,4,2,1,40,0,0
82079,-22.7272727272727,4,2,1,40,0,0
82100,-24.2130750605327,4,2,1,40,0,0
82120,-125,4,2,1,40,0,0
82181,-200,4,2,1,40,0,0
82222,-333.333333333333,4,2,1,40,0,0
82262,-250,4,2,1,40,0,0
82343,-166.666666666667,4,2,1,40,0,0
82384,-125,4,2,1,40,0,0
82404,-22.7272727272727,4,2,1,40,0,0
82424,-27.7777777777778,4,2,1,40,0,0
82444,-125,4,2,1,40,0,0
82505,-200,4,2,1,40,0,0
82546,-333.333333333333,4,2,1,40,0,0
82586,-250,4,2,1,40,0,0
82667,-166.666666666667,4,2,1,40,0,0
82708,-125,4,2,1,40,0,0
82728,-25,4,2,1,40,0,0
82748,-27.7777777777778,4,2,1,40,0,0
82768,-125,4,2,1,40,0,0
82829,-200,4,2,1,40,0,0
82870,-333.333333333333,4,2,1,40,0,0
82910,-250,4,2,1,40,0,0
82991,-166.666666666667,4,2,1,40,0,0
83032,-125,4,2,1,40,0,0
83052,-25,4,2,1,40,0,0
83073,-31.25,4,2,1,40,0,0
83093,-125,4,2,1,40,0,0
83154,-200,4,2,1,40,0,0
83195,-333.333333333333,4,2,1,40,0,0
83235,-250,4,2,1,40,0,0
83316,-166.666666666667,4,2,1,40,0,0
83357,-125,4,2,1,40,0,0
83377,-27.7777777777778,4,2,1,40,0,0
83397,-31.25,4,2,1,40,0,0
83417,-125,4,2,1,40,0,0
83478,-200,4,2,1,40,0,0
83519,-333.333333333333,4,2,1,40,0,0
83559,-250,4,2,1,40,0,0
83640,-166.666666666667,4,2,1,40,0,0
83681,-125,4,2,1,40,0,0
83701,-27.7777777777778,4,2,1,40,0,0
83721,-35.7142857142857,4,2,1,40,0,0
83741,-125,4,2,1,40,0,0
83802,-200,4,2,1,40,0,0
83843,-333.333333333333,4,2,1,40,0,0
83883,-250,4,2,1,40,0,0
83964,-166.666666666667,4,2,1,40,0,0
84005,-125,4,2,1,40,0,0
84025,-31.25,4,2,1,40,0,0
84045,-35.7142857142857,4,2,1,40,0,0
84065,-125,4,2,1,40,0,0
84126,-200,4,2,1,40,0,0
84167,-333.333333333333,4,2,1,40,0,0
84207,-250,4,2,1,40,0,0
84288,-166.666666666667,4,2,1,40,0,0
84329,-125,4,2,1,40,0,0
84349,-31.25,4,2,1,40,0,0
84370,-41.6666666666667,4,2,1,40,0,0
84390,-125,4,2,1,40,0,0
84451,-200,4,2,1,40,0,0
84492,-333.333333333333,4,2,1,40,0,0
84532,-250,4,2,1,40,0,0
84613,-166.666666666667,4,2,1,40,0,0
84654,-125,4,2,1,40,0,0
84674,-35.7142857142857,4,2,1,40,0,0
84694,-41.6666666666667,4,2,1,40,0,0
84714,-125,4,2,1,40,0,0
84775,-200,4,2,1,40,0,0
84816,-333.333333333333,4,2,1,40,0,0
84856,-250,4,2,1,40,0,0
84937,-166.666666666667,4,2,1,40,0,0
84978,-125,4,2,1,40,0,0
84998,-35.7142857142857,4,2,1,40,0,0
85018,-50,4,2,1,40,0,0
85038,-125,4,2,1,40,0,0
85099,-200,4,2,1,40,0,0
85140,-333.333333333333,4,2,1,40,0,0
85181,-250,4,2,1,40,0,0
85262,-166.666666666667,4,2,1,40,0,0
85303,-125,4,2,1,40,0,0
85323,-41.6666666666667,4,2,1,40,0,0

[HitObjects]
320,192,46,5,0,0:0:0:0:
448,192,46,1,0,0:0:0:0:
192,192,370,1,0,0:0:0:0:
64,192,370,1,0,0:0:0:0:
192,192,694,1,0,0:0:0:0:
64,192,694,1,0,0:0:0:0:
448,192,775,1,0,0:0:0:0:
320,192,775,1,0,0:0:0:0:
192,192,937,1,0,0:0:0:0:
64,192,937,1,0,0:0:0:0:
192,192,1181,1,0,0:0:0:0:
320,192,1181,1,0,0:0:0:0:
64,192,1505,1,0,0:0:0:0:
320,192,1505,1,0,0:0:0:0:
64,192,1667,1,0,0:0:0:0:
320,192,1667,1,0,0:0:0:0:
448,192,1829,1,0,0:0:0:0:
64,192,1991,1,0,0:0:0:0:
448,192,1991,1,0,0:0:0:0:
320,192,2154,1,0,0:0:0:0:
64,192,2154,1,0,0:0:0:0:
448,192,2316,1,0,0:0:0:0:
320,192,2316,1,0,0:0:0:0:
192,192,2478,1,0,0:0:0:0:
448,192,2478,1,0,0:0:0:0:
448,192,2640,1,0,0:0:0:0:
64,192,2640,1,0,0:0:0:0:
320,192,2640,1,0,0:0:0:0:
192,192,2802,1,0,0:0:0:0:
64,192,2802,1,0,0:0:0:0:
192,192,2964,1,0,0:0:0:0:
448,192,2964,1,0,0:0:0:0:
64,192,2964,1,0,0:0:0:0:
320,192,3127,1,0,0:0:0:0:
64,192,3289,1,0,0:0:0:0:
448,192,3289,1,0,0:0:0:0:
320,192,3289,1,0,0:0:0:0:
192,192,3451,1,0,0:0:0:0:
448,192,3451,1,0,0:0:0:0:
192,192,3613,1,0,0:0:0:0:
64,192,3613,1,0,0:0:0:0:
320,192,3613,1,0,0:0:0:0:
448,192,3775,1,0,0:0:0:0:
64,192,3937,1,0,0:0:0:0:
448,192,3937,1,0,0:0:0:0:
192,192,3937,1,0,0:0:0:0:
320,192,4100,1,0,0:0:0:0:
192,192,4100,1,0,0:0:0:0:
448,192,4262,1,0,0:0:0:0:
320,192,4262,1,0,0:0:0:0:
64,192,4262,1,0,0:0:0:0:
192,192,4424,1,0,0:0:0:0:
448,192,4586,1,0,0:0:0:0:
192,192,4586,1,0,0:0:0:0:
64,192,4586,1,0,0:0:0:0:
320,192,4748,1,0,0:0:0:0:
448,192,4748,1,0,0:0:0:0:
320,192,4910,1,0,0:0:0:0:
448,192,4910,1,0,0:0:0:0:
64,192,4910,1,0,0:0:0:0:
192,192,5073,1,0,0:0:0:0:
64,192,5235,1,0,0:0:0:0:
448,192,5235,1,0,0:0:0:0:
192,192,5235,1,0,0:0:0:0:
320,192,5397,1,0,0:0:0:0:
64,192,5397,1,0,0:0:0:0:
192,192,5559,1,0,0:0:0:0:
320,192,5559,1,0,0:0:0:0:
448,192,5559,1,0,0:0:0:0:
64,192,5721,1,0,0:0:0:0:
448,192,5883,1,0,0:0:0:0:
192,192,5883,1,0,0:0:0:0:
64,192,5883,1,0,0:0:0:0:
320,192,6045,1,0,0:0:0:0:
448,192,6045,1,0,0:0:0:0:
64,192,6208,1,0,0:0:0:0:
192,192,6208,1,0,0:0:0:0:
320,192,6208,1,0,0:0:0:0:
448,192,6370,1,0,0:0:0:0:
320,192,6532,1,0,0:0:0:0:
448,192,6532,1,0,0:0:0:0:
192,192,6532,1,0,0:0:0:0:
320,192,6694,1,0,0:0:0:0:
64,192,6694,1,0,0:0:0:0:
448,192,6856,1,0,0:0:0:0:
64,192,6856,1,0,0:0:0:0:
192,192,6856,1,0,0:0:0:0:
320,192,7018,1,0,0:0:0:0:
64,192,7181,1,0,0:0:0:0:
320,192,7181,1,0,0:0:0:0:
448,192,7181,1,0,0:0:0:0:
192,192,7343,1,0,0:0:0:0:
64,192,7343,1,0,0:0:0:0:
448,192,7505,1,0,0:0:0:0:
192,192,7505,1,0,0:0:0:0:
64,192,7505,1,0,0:0:0:0:
320,192,7667,1,0,0:0:0:0:
64,192,7829,1,0,0:0:0:0:
448,192,7829,1,0,0:0:0:0:
320,192,7829,1,0,0:0:0:0:
64,192,7991,1,0,0:0:0:0:
192,192,7991,1,0,0:0:0:0:
320,192,8154,1,0,0:0:0:0:
448,192,8154,1,0,0:0:0:0:
192,192,8154,1,0,0:0:0:0:
64,192,8316,1,0,0:0:0:0:
320,192,8316,1,0,0:0:0:0:
192,192,8478,1,0,0:0:0:0:
64,192,8478,1,0,0:0:0:0:
320,192,8640,1,0,0:0:0:0:
448,192,8640,1,0,0:0:0:0:
448,192,8802,1,0,0:0:0:0:
64,192,8802,1,0,0:0:0:0:
192,192,8802,1,0,0:0:0:0:
320,192,8964,1,0,0:0:0:0:
64,192,8964,1,0,0:0:0:0:
64,192,9127,1,0,0:0:0:0:
448,192,9127,1,0,0:0:0:0:
320,192,9127,1,0,0:0:0:0:
192,192,9289,1,0,0:0:0:0:
448,192,9289,1,0,0:0:0:0:
192,192,9451,1,0,0:0:0:0:
320,192,9451,1,0,0:0:0:0:
64,192,9451,1,0,0:0:0:0:
64,192,9613,1,0,0:0:0:0:
320,192,9613,1,0,0:0:0:0:
192,192,9775,1,0,0:0:0:0:
320,192,9775,1,0,0:0:0:0:
448,192,9775,1,0,0:0:0:0:
448,192,9937,1,0,0:0:0:0:
448,192,10100,1,0,0:0:0:0:
192,192,10100,1,0,0:0:0:0:
64,192,10100,1,0,0:0:0:0:
448,192,10262,1,0,0:0:0:0:
448,192,10424,1,0,0:0:0:0:
64,192,10424,1,0,0:0:0:0:
320,192,10424,1,0,0:0:0:0:
192,192,10586,1,0,0:0:0:0:
64,192,10748,1,0,0:0:0:0:
320,192,10748,1,0,0:0:0:0:
192,192,10748,1,0,0:0:0:0:
448,192,10910,1,0,0:0:0:0:
64,192,11073,1,0,0:0:0:0:
320,192,11073,1,0,0:0:0:0:
448,192,11073,1,0,0:0:0:0:
192,192,11235,1,0,0:0:0:0:
448,192,11397,1,0,0:0:0:0:
192,192,11397,1,0,0:0:0:0:
320,192,11397,1,0,0:0:0:0:
64,192,11559,1,0,0:0:0:0:
320,192,11721,1,0,0:0:0:0:
64,192,11721,1,0,0:0:0:0:
448,192,11721,1,0,0:0:0:0:
448,192,11883,1,0,0:0:0:0:
448,192,12045,1,0,0:0:0:0:
192,192,12045,1,0,0:0:0:0:
64,192,12045,1,0,0:0:0:0:
192,192,12208,1,0,0:0:0:0:
320,192,12370,1,0,0:0:0:0:
448,192,12370,1,0,0:0:0:0:
192,192,12370,1,0,0:0:0:0:
320,192,12532,1,0,0:0:0:0:
64,192,12694,1,0,0:0:0:0:
448,192,12694,1,0,0:0:0:0:
320,192,12694,1,0,0:0:0:0:
64,192,12856,1,0,0:0:0:0:
448,192,13018,1,0,0:0:0:0:
64,192,13018,1,0,0:0:0:0:
320,192,13018,1,0,0:0:0:0:
320,192,13181,1,0,0:0:0:0:
192,192,13181,1,0,0:0:0:0:
64,192,13343,1,0,0:0:0:0:
448,192,13343,1,0,0:0:0:0:
192,192,13343,1,0,0:0:0:0:
320,192,13505,1,0,0:0:0:0:
64,192,13505,1,0,0:0:0:0:
320,192,13667,1,0,0:0:0:0:
448,192,13667,1,0,0:0:0:0:
192,192,13829,1,0,0:0:0:0:
64,192,13829,1,0,0:0:0:0:
64,192,13991,1,0,0:0:0:0:
320,192,13991,1,0,0:0:0:0:
448,192,13991,1,0,0:0:0:0:
192,192,14154,1,0,0:0:0:0:
320,192,14154,1,0,0:0:0:0:
448,192,14316,1,0,0:0:0:0:
192,192,14316,1,0,0:0:0:0:
64,192,14316,1,0,0:0:0:0:
320,192,14478,1,0,0:0:0:0:
64,192,14478,1,0,0:0:0:0:
320,192,14640,1,0,0:0:0:0:
448,192,14640,1,0,0:0:0:0:
192,192,14640,1,0,0:0:0:0:
320,192,14802,1,0,0:0:0:0:
448,192,14802,1,0,0:0:0:0:
448,192,14964,1,0,0:0:0:0:
192,192,14964,1,0,0:0:0:0:
64,192,14964,1,0,0:0:0:0:
64,192,15127,1,0,0:0:0:0:
64,192,15289,1,0,0:0:0:0:
192,192,15289,1,0,0:0:0:0:
320,192,15289,1,0,0:0:0:0:
64,192,15451,1,0,0:0:0:0:
64,192,15613,1,0,0:0:0:0:
320,192,15613,1,0,0:0:0:0:
448,192,15613,1,0,0:0:0:0:
192,192,15937,1,0,0:0:0:0:
64,192,15937,1,0,0:0:0:0:
448,192,15937,1,0,0:0:0:0:
320,192,16262,1,0,0:0:0:0:
192,192,16262,1,0,0:0:0:0:
64,192,16262,1,0,0:0:0:0:
192,192,16586,1,0,0:0:0:0:
320,192,16586,1,0,0:0:0:0:
448,192,16586,1,0,0:0:0:0:
192,192,16910,1,0,0:0:0:0:
64,192,16910,1,0,0:0:0:0:
320,192,16991,1,0,0:0:0:0:
448,192,16991,1,0,0:0:0:0:
192,192,17073,1,0,0:0:0:0:
64,192,17073,1,0,0:0:0:0:
448,192,17154,1,0,0:0:0:0:
320,192,17154,1,0,0:0:0:0:
192,192,17235,1,0,0:0:0:0:
64,192,17235,1,0,0:0:0:0:
64,192,17397,1,0,0:0:0:0:
320,192,17397,1,0,0:0:0:0:
448,192,17397,1,0,0:0:0:0:
192,192,17559,1,0,0:0:0:0:
320,192,17559,1,0,0:0:0:0:
448,192,17559,1,0,0:0:0:0:
192,192,17883,1,0,0:0:0:0:
64,192,17883,1,0,0:0:0:0:
448,192,17883,1,0,0:0:0:0:
320,192,18208,1,0,0:0:0:0:
448,192,18208,1,0,0:0:0:0:
64,192,18208,1,0,0:0:0:0:
192,192,18370,1,0,0:0:0:0:
192,192,18532,1,0,0:0:0:0:
320,192,18532,1,0,0:0:0:0:
448,192,18532,1,0,0:0:0:0:
64,192,18694,1,0,0:0:0:0:
192,192,18856,1,0,0:0:0:0:
448,192,18856,1,0,0:0:0:0:
64,192,18856,1,0,0:0:0:0:
320,192,19018,1,0,0:0:0:0:
320,192,19181,1,0,0:0:0:0:
64,192,19181,1,0,0:0:0:0:
448,192,19181,1,0,0:0:0:0:
192,192,19343,1,0,0:0:0:0:
192,192,19505,1,0,0:0:0:0:
448,192,19505,1,0,0:0:0:0:
64,192,19505,1,0,0:0:0:0:
64,192,19667,1,0,0:0:0:0:
448,192,19829,1,0,0:0:0:0:
64,192,19829,1,0,0:0:0:0:
320,192,19829,1,0,0:0:0:0:
320,192,19991,1,0,0:0:0:0:
320,192,20154,1,0,0:0:0:0:
448,192,20154,1,0,0:0:0:0:
192,192,20154,1,0,0:0:0:0:
192,192,20316,1,0,0:0:0:0:
192,192,20478,1,0,0:0:0:0:
64,192,20478,1,0,0:0:0:0:
448,192,20478,1,0,0:0:0:0:
448,192,20640,1,0,0:0:0:0:
448,192,20802,1,0,0:0:0:0:
320,192,20802,1,0,0:0:0:0:
64,192,20802,1,0,0:0:0:0:
192,192,20964,1,0,0:0:0:0:
64,192,21127,1,0,0:0:0:0:
192,192,21127,1,0,0:0:0:0:
320,192,21127,1,0,0:0:0:0:
448,192,21289,1,0,0:0:0:0:
448,192,21451,1,0,0:0:0:0:
192,192,21451,1,0,0:0:0:0:
64,192,21451,1,0,0:0:0:0:
320,192,21613,1,0,0:0:0:0:
448,192,21775,1,0,0:0:0:0:
192,192,21775,1,0,0:0:0:0:
320,192,21775,1,0,0:0:0:0:
64,192,21937,1,0,0:0:0:0:
448,192,22100,1,0,0:0:0:0:
320,192,22100,1,0,0:0:0:0:
64,192,22100,1,0,0:0:0:0:
320,192,22262,1,0,0:0:0:0:
320,192,22424,1,0,0:0:0:0:
192,192,22424,1,0,0:0:0:0:
64,192,22424,1,0,0:0:0:0:
64,192,22586,1,0,0:0:0:0:
64,192,22748,1,0,0:0:0:0:
192,192,22748,1,0,0:0:0:0:
448,192,22748,1,0,0:0:0:0:
448,192,22910,1,0,0:0:0:0:
448,192,23073,1,0,0:0:0:0:
192,192,23073,1,0,0:0:0:0:
320,192,23073,1,0,0:0:0:0:
192,192,23235,1,0,0:0:0:0:
64,192,23397,1,0,0:0:0:0:
448,192,23397,1,0,0:0:0:0:
192,192,23397,1,0,0:0:0:0:
320,192,23559,1,0,0:0:0:0:
64,192,23559,1,0,0:0:0:0:
192,192,23721,1,0,0:0:0:0:
64,192,23721,1,0,0:0:0:0:
448,192,23721,1,0,0:0:0:0:
320,192,23883,1,0,0:0:0:0:
448,192,23883,1,0,0:0:0:0:
64,192,24045,1,0,0:0:0:0:
320,192,24045,1,0,0:0:0:0:
192,192,24208,1,0,0:0:0:0:
448,192,24208,1,0,0:0:0:0:
448,192,24370,1,0,0:0:0:0:
320,192,24370,1,0,0:0:0:0:
64,192,24370,1,0,0:0:0:0:
320,192,24532,1,0,0:0:0:0:
192,192,24532,1,0,0:0:0:0:
320,192,24694,1,0,0:0:0:0:
64,192,24694,1,0,0:0:0:0:
448,192,24694,1,0,0:0:0:0:
192,192,24856,1,0,0:0:0:0:
448,192,24856,1,0,0:0:0:0:
192,192,25018,1,0,0:0:0:0:
64,192,25018,1,0,0:0:0:0:
320,192,25018,1,0,0:0:0:0:
320,192,25181,1,0,0:0:0:0:
448,192,25181,1,0,0:0:0:0:
192,192,25343,1,0,0:0:0:0:
448,192,25343,1,0,0:0:0:0:
64,192,25505,1,0,0:0:0:0:
192,192,25505,1,0,0:0:0:0:
448,192,25667,1,0,0:0:0:0:
64,192,25667,1,0,0:0:0:0:
320,192,25667,1,0,0:0:0:0:
192,192,25829,1,0,0:0:0:0:
320,192,25829,1,0,0:0:0:0:
192,192,25991,1,0,0:0:0:0:
64,192,25991,1,0,0:0:0:0:
448,192,25991,1,0,0:0:0:0:
320,192,26154,1,0,0:0:0:0:
448,192,26154,1,0,0:0:0:0:
320,192,26316,1,0,0:0:0:0:
64,192,26316,1,0,0:0:0:0:
192,192,26478,1,0,0:0:0:0:
448,192,26478,1,0,0:0:0:0:
64,192,26640,1,0,0:0:0:0:
320,192,26640,1,0,0:0:0:0:
192,192,26640,1,0,0:0:0:0:
320,192,26802,1,0,0:0:0:0:
448,192,26964,1,0,0:0:0:0:
192,192,26964,1,0,0:0:0:0:
320,192,26964,1,0,0:0:0:0:
320,192,27127,1,0,0:0:0:0:
320,192,27289,1,0,0:0:0:0:
64,192,27289,1,0,0:0:0:0:
448,192,27289,1,0,0:0:0:0:
64,192,27451,1,0,0:0:0:0:
192,192,27451,1,0,0:0:0:0:
192,192,27613,1,0,0:0:0:0:
448,192,27613,1,0,0:0:0:0:
320,192,27775,1,0,0:0:0:0:
64,192,27775,1,0,0:0:0:0:
64,192,27937,1,0,0:0:0:0:
448,192,27937,1,0,0:0:0:0:
192,192,27937,1,0,0:0:0:0:
320,192,28100,1,0,0:0:0:0:
448,192,28262,1,0,0:0:0:0:
320,192,28262,1,0,0:0:0:0:
192,192,28262,1,0,0:0:0:0:
64,192,28424,1,0,0:0:0:0:
192,192,28586,1,0,0:0:0:0:
448,192,28586,1,0,0:0:0:0:
64,192,28586,1,0,0:0:0:0:
192,192,28748,1,0,0:0:0:0:
320,192,28748,1,0,0:0:0:0:
64,192,28910,1,0,0:0:0:0:
320,192,28910,1,0,0:0:0:0:
448,192,28910,1,0,0:0:0:0:
192,192,29073,1,0,0:0:0:0:
448,192,29073,1,0,0:0:0:0:
64,192,29235,1,0,0:0:0:0:
192,192,29235,1,0,0:0:0:0:
320,192,29397,1,0,0:0:0:0:
448,192,29397,1,0,0:0:0:0:
192,192,29559,1,0,0:0:0:0:
64,192,29559,1,0,0:0:0:0:
448,192,29559,1,0,0:0:0:0:
320,192,29721,1,0,0:0:0:0:
64,192,29721,1,0,0:0:0:0:
192,192,29883,1,0,0:0:0:0:
320,192,29883,1,0,0:0:0:0:
448,192,29883,1,0,0:0:0:0:
192,192,30045,1,0,0:0:0:0:
64,192,30045,1,0,0:0:0:0:
320,192,30208,1,0,0:0:0:0:
448,192,30208,1,0,0:0:0:0:
64,192,30208,1,0,0:0:0:0:
192,192,30370,1,0,0:0:0:0:
448,192,30370,1,0,0:0:0:0:
192,192,30532,1,0,0:0:0:0:
64,192,30532,1,0,0:0:0:0:
320,192,30694,1,0,0:0:0:0:
64,192,30694,1,0,0:0:0:0:
192,192,30856,1,0,0:0:0:0:
320,192,30856,1,0,0:0:0:0:
448,192,30856,1,0,0:0:0:0:
64,192,31018,1,0,0:0:0:0:
192,192,31018,1,0,0:0:0:0:
448,192,31181,1,0,0:0:0:0:
64,192,31181,1,0,0:0:0:0:
320,192,31181,1,0,0:0:0:0:
192,192,31343,1,0,0:0:0:0:
448,192,31343,1,0,0:0:0:0:
448,192,31505,1,0,0:0:0:0:
64,192,31505,1,0,0:0:0:0:
192,192,31505,1,0,0:0:0:0:
320,192,31667,1,0,0:0:0:0:
64,192,31667,1,0,0:0:0:0:
448,192,31829,1,0,0:0:0:0:
320,192,31829,1,0,0:0:0:0:
64,192,31829,1,0,0:0:0:0:
192,192,31991,1,0,0:0:0:0:
448,192,31991,1,0,0:0:0:0:
448,192,32154,1,0,0:0:0:0:
64,192,32154,1,0,0:0:0:0:
192,192,32154,1,0,0:0:0:0:
64,192,32316,1,0,0:0:0:0:
320,192,32316,1,0,0:0:0:0:
320,192,32478,1,0,0:0:0:0:
448,192,32478,1,0,0:0:0:0:
64,192,32478,1,0,0:0:0:0:
64,192,32640,1,0,0:0:0:0:
320,192,32640,1,0,0:0:0:0:
448,192,32640,1,0,0:0:0:0:
320,192,32802,1,0,0:0:0:0:
192,192,32802,1,0,0:0:0:0:
64,192,32802,1,0,0:0:0:0:
64,192,32964,1,0,0:0:0:0:
320,192,32964,1,0,0:0:0:0:
192,192,32964,1,0,0:0:0:0:
320,192,33289,1,0,0:0:0:0:
448,192,33289,1,0,0:0:0:0:
192,192,33451,1,0,0:0:0:0:
64,192,33451,1,0,0:0:0:0:
448,192,33451,1,0,0:0:0:0:
320,192,33613,1,0,0:0:0:0:
448,192,33775,1,0,0:0:0:0:
64,192,33775,1,0,0:0:0:0:
320,192,33775,1,0,0:0:0:0:
192,192,33937,1,0,0:0:0:0:
64,192,33937,1,0,0:0:0:0:
192,192,34100,1,0,0:0:0:0:
448,192,34100,1,0,0:0:0:0:
64,192,34100,1,0,0:0:0:0:
320,192,34262,1,0,0:0:0:0:
64,192,34424,1,0,0:0:0:0:
448,192,34424,1,0,0:0:0:0:
320,192,34424,1,0,0:0:0:0:
192,192,34586,1,0,0:0:0:0:
448,192,34586,1,0,0:0:0:0:
192,192,34748,1,0,0:0:0:0:
64,192,34748,1,0,0:0:0:0:
320,192,34748,1,0,0:0:0:0:
448,192,34910,1,0,0:0:0:0:
64,192,35073,1,0,0:0:0:0:
448,192,35073,1,0,0:0:0:0:
192,192,35073,1,0,0:0:0:0:
320,192,35235,1,0,0:0:0:0:
192,192,35235,1,0,0:0:0:0:
448,192,35397,1,0,0:0:0:0:
320,192,35397,1,0,0:0:0:0:
64,192,35397,1,0,0:0:0:0:
192,192,35559,1,0,0:0:0:0:
448,192,35721,1,0,0:0:0:0:
192,192,35721,1,0,0:0:0:0:
64,192,35721,1,0,0:0:0:0:
320,192,35883,1,0,0:0:0:0:
448,192,35883,1,0,0:0:0:0:
320,192,36045,1,0,0:0:0:0:
448,192,36045,1,0,0:0:0:0:
64,192,36045,1,0,0:0:0:0:
192,192,36208,1,0,0:0:0:0:
64,192,36370,1,0,0:0:0:0:
448,192,36370,1,0,0:0:0:0:
192,192,36370,1,0,0:0:0:0:
320,192,36532,1,0,0:0:0:0:
64,192,36532,1,0,0:0:0:0:
192,192,36694,1,0,0:0:0:0:
320,192,36694,1,0,0:0:0:0:
448,192,36694,1,0,0:0:0:0:
64,192,36856,1,0,0:0:0:0:
448,192,37018,1,0,0:0:0:0:
192,192,37018,1,0,0:0:0:0:
64,192,37018,1,0,0:0:0:0:
320,192,37181,1,0,0:0:0:0:
448,192,37181,1,0,0:0:0:0:
64,192,37343,1,0,0:0:0:0:
192,192,37343,1,0,0:0:0:0:
320,192,37343,1,0,0:0:0:0:
448,192,37505,1,0,0:0:0:0:
320,192,37667,1,0,0:0:0:0:
448,192,37667,1,0,0:0:0:0:
192,192,37667,1,0,0:0:0:0:
320,192,37829,1,0,0:0:0:0:
64,192,37829,1,0,0:0:0:0:
448,192,37991,1,0,0:0:0:0:
64,192,37991,1,0,0:0:0:0:
192,192,37991,1,0,0:0:0:0:
320,192,38154,1,0,0:0:0:0:
64,192,38316,1,0,0:0:0:0:
320,192,38316,1,0,0:0:0:0:
448,192,38316,1,0,0:0:0:0:
192,192,38478,1,0,0:0:0:0:
64,192,38478,1,0,0:0:0:0:
448,192,38640,1,0,0:0:0:0:
192,192,38640,1,0,0:0:0:0:
64,192,38640,1,0,0:0:0:0:
320,192,38802,1,0,0:0:0:0:
64,192,38964,1,0,0:0:0:0:
448,192,38964,1,0,0:0:0:0:
320,192,38964,1,0,0:0:0:0:
64,192,39127,1,0,0:0:0:0:
192,192,39127,1,0,0:0:0:0:
320,192,39289,1,0,0:0:0:0:
448,192,39289,1,0,0:0:0:0:
192,192,39289,1,0,0:0:0:0:
64,192,39451,1,0,0:0:0:0:
320,192,39451,1,0,0:0:0:0:
192,192,39613,1,0,0:0:0:0:
64,192,39613,1,0,0:0:0:0:
320,192,39775,1,0,0:0:0:0:
448,192,39775,1,0,0:0:0:0:
448,192,39937,1,0,0:0:0:0:
64,192,39937,1,0,0:0:0:0:
192,192,39937,1,0,0:0:0:0:
320,192,40100,1,0,0:0:0:0:
64,192,40100,1,0,0:0:0:0:
64,192,40262,1,0,0:0:0:0:
448,192,40262,1,0,0:0:0:0:
320,192,40262,1,0,0:0:0:0:
192,192,40424,1,0,0:0:0:0:
448,192,40424,1,0,0:0:0:0:
192,192,40586,1,0,0:0:0:0:
320,192,40586,1,0,0:0:0:0:
64,192,40586,1,0,0:0:0:0:
64,192,40748,1,0,0:0:0:0:
320,192,40748,1,0,0:0:0:0:
192,192,40910,1,0,0:0:0:0:
320,192,40910,1,0,0:0:0:0:
448,192,40910,1,0,0:0:0:0:
448,192,41073,1,0,0:0:0:0:
448,192,41235,1,0,0:0:0:0:
192,192,41235,1,0,0:0:0:0:
64,192,41235,1,0,0:0:0:0:
448,192,41397,1,0,0:0:0:0:
448,192,41559,1,0,0:0:0:0:
64,192,41559,1,0,0:0:0:0:
320,192,41559,1,0,0:0:0:0:
192,192,41721,1,0,0:0:0:0:
64,192,41883,1,0,0:0:0:0:
320,192,41883,1,0,0:0:0:0:
192,192,41883,1,0,0:0:0:0:
448,192,42045,1,0,0:0:0:0:
64,192,42208,1,0,0:0:0:0:
320,192,42208,1,0,0:0:0:0:
448,192,42208,1,0,0:0:0:0:
192,192,42370,1,0,0:0:0:0:
448,192,42532,1,0,0:0:0:0:
192,192,42532,1,0,0:0:0:0:
320,192,42532,1,0,0:0:0:0:
64,192,42694,1,0,0:0:0:0:
320,192,42856,1,0,0:0:0:0:
64,192,42856,1,0,0:0:0:0:
448,192,42856,1,0,0:0:0:0:
448,192,43018,1,0,0:0:0:0:
448,192,43181,1,0,0:0:0:0:
192,192,43181,1,0,0:0:0:0:
64,192,43181,1,0,0:0:0:0:
192,192,43343,1,0,0:0:0:0:
320,192,43505,1,0,0:0:0:0:
448,192,43505,1,0,0:0:0:0:
192,192,43505,1,0,0:0:0:0:
320,192,43667,1,0,0:0:0:0:
64,192,43829,1,0,0:0:0:0:
448,192,43829,1,0,0:0:0:0:
320,192,43829,1,0,0:0:0:0:
64,192,43991,1,0,0:0:0:0:
448,192,44154,1,0,0:0:0:0:
64,192,44154,1,0,0:0:0:0:
320,192,44154,1,0,0:0:0:0:
320,192,44316,1,0,0:0:0:0:
192,192,44316,1,0,0:0:0:0:
64,192,44478,1,0,0:0:0:0:
448,192,44478,1,0,0:0:0:0:
192,192,44478,1,0,0:0:0:0:
320,192,44640,1,0,0:0:0:0:
64,192,44640,1,0,0:0:0:0:
320,192,44802,1,0,0:0:0:0:
448,192,44802,1,0,0:0:0:0:
192,192,44964,1,0,0:0:0:0:
64,192,44964,1,0,0:0:0:0:
64,192,45127,1,0,0:0:0:0:
320,192,45127,1,0,0:0:0:0:
448,192,45127,1,0,0:0:0:0:
192,192,45289,1,0,0:0:0:0:
320,192,45289,1,0,0:0:0:0:
448,192,45451,1,0,0:0:0:0:
192,192,45451,1,0,0:0:0:0:
64,192,45451,1,0,0:0:0:0:
320,192,45613,1,0,0:0:0:0:
64,192,45613,1,0,0:0:0:0:
320,192,45775,1,0,0:0:0:0:
448,192,45775,1,0,0:0:0:0:
192,192,45775,1,0,0:0:0:0:
320,192,45937,1,0,0:0:0:0:
448,192,45937,1,0,0:0:0:0:
448,192,46100,1,0,0:0:0:0:
192,192,46100,1,0,0:0:0:0:
64,192,46100,1,0,0:0:0:0:
64,192,46262,1,0,0:0:0:0:
64,192,46424,1,0,0:0:0:0:
192,192,46424,1,0,0:0:0:0:
320,192,46424,1,0,0:0:0:0:
64,192,46586,1,0,0:0:0:0:
64,192,46748,1,0,0:0:0:0:
320,192,46748,1,0,0:0:0:0:
448,192,46748,1,0,0:0:0:0:
192,192,47073,1,0,0:0:0:0:
64,192,47073,1,0,0:0:0:0:
448,192,47073,1,0,0:0:0:0:
320,192,47397,1,0,0:0:0:0:
192,192,47397,1,0,0:0:0:0:
64,192,47397,1,0,0:0:0:0:
192,192,47721,1,0,0:0:0:0:
320,192,47721,1,0,0:0:0:0:
448,192,47721,1,0,0:0:0:0:
192,192,48045,1,0,0:0:0:0:
64,192,48045,1,0,0:0:0:0:
320,192,48127,1,0,0:0:0:0:
448,192,48127,1,0,0:0:0:0:
192,192,48208,1,0,0:0:0:0:
64,192,48208,1,0,0:0:0:0:
448,192,48289,1,0,0:0:0:0:
320,192,48289,1,0,0:0:0:0:
192,192,48370,1,0,0:0:0:0:
64,192,48370,1,0,0:0:0:0:
64,192,48532,1,0,0:0:0:0:
320,192,48532,1,0,0:0:0:0:
448,192,48532,1,0,0:0:0:0:
192,192,48694,1,0,0:0:0:0:
320,192,48694,1,0,0:0:0:0:
448,192,48694,1,0,0:0:0:0:
192,192,49018,1,0,0:0:0:0:
64,192,49018,1,0,0:0:0:0:
448,192,49018,1,0,0:0:0:0:
320,192,49343,1,0,0:0:0:0:
448,192,49343,1,0,0:0:0:0:
64,192,49343,1,0,0:0:0:0:
192,192,49505,1,0,0:0:0:0:
192,192,49667,1,0,0:0:0:0:
320,192,49667,1,0,0:0:0:0:
448,192,49667,1,0,0:0:0:0:
64,192,49829,1,0,0:0:0:0:
192,192,49991,1,0,0:0:0:0:
448,192,49991,1,0,0:0:0:0:
64,192,49991,1,0,0:0:0:0:
320,192,50154,1,0,0:0:0:0:
320,192,50316,1,0,0:0:0:0:
64,192,50316,1,0,0:0:0:0:
448,192,50316,1,0,0:0:0:0:
192,192,50478,1,0,0:0:0:0:
192,192,50640,1,0,0:0:0:0:
448,192,50640,1,0,0:0:0:0:
64,192,50640,1,0,0:0:0:0:
64,192,50802,1,0,0:0:0:0:
448,192,50964,1,0,0:0:0:0:
64,192,50964,1,0,0:0:0:0:
320,192,50964,1,0,0:0:0:0:
320,192,51127,1,0,0:0:0:0:
320,192,51289,1,0,0:0:0:0:
448,192,51289,1,0,0:0:0:0:
192,192,51289,1,0,0:0:0:0:
192,192,51451,1,0,0:0:0:0:
192,192,51613,1,0,0:0:0:0:
64,192,51613,1,0,0:0:0:0:
448,192,51613,1,0,0:0:0:0:
448,192,51775,1,0,0:0:0:0:
448,192,51937,1,0,0:0:0:0:
320,192,51937,1,0,0:0:0:0:
64,192,51937,1,0,0:0:0:0:
192,192,52100,1,0,0:0:0:0:
64,192,52262,1,0,0:0:0:0:
192,192,52262,1,0,0:0:0:0:
320,192,52262,1,0,0:0:0:0:
448,192,52424,1,0,0:0:0:0:
448,192,52586,1,0,0:0:0:0:
192,192,52586,1,0,0:0:0:0:
64,192,52586,1,0,0:0:0:0:
320,192,52748,1,0,0:0:0:0:
448,192,52910,1,0,0:0:0:0:
192,192,52910,1,0,0:0:0:0:
320,192,52910,1,0,0:0:0:0:
64,192,53073,1,0,0:0:0:0:
448,192,53235,1,0,0:0:0:0:
320,192,53235,1,0,0:0:0:0:
64,192,53235,1,0,0:0:0:0:
320,192,53397,1,0,0:0:0:0:
320,192,53559,1,0,0:0:0:0:
192,192,53559,1,0,0:0:0:0:
64,192,53559,1,0,0:0:0:0:
64,192,53721,1,0,0:0:0:0:
64,192,53883,1,0,0:0:0:0:
192,192,53883,1,0,0:0:0:0:
448,192,53883,1,0,0:0:0:0:
448,192,54045,1,0,0:0:0:0:
448,192,54208,1,0,0:0:0:0:
192,192,54208,1,0,0:0:0:0:
320,192,54208,1,0,0:0:0:0:
192,192,54370,1,0,0:0:0:0:
192,192,54532,1,0,0:0:0:0:
64,192,54532,1,0,0:0:0:0:
448,192,54532,1,0,0:0:0:0:
320,192,54694,1,0,0:0:0:0:
64,192,54694,1,0,0:0:0:0:
192,192,54856,1,0,0:0:0:0:
64,192,54856,1,0,0:0:0:0:
448,192,54856,1,0,0:0:0:0:
320,192,55018,1,0,0:0:0:0:
448,192,55018,1,0,0:0:0:0:
64,192,55181,1,0,0:0:0:0:
320,192,55181,1,0,0:0:0:0:
192,192,55343,1,0,0:0:0:0:
448,192,55343,1,0,0:0:0:0:
448,192,55505,1,0,0:0:0:0:
320,192,55505,1,0,0:0:0:0:
64,192,55505,1,0,0:0:0:0:
320,192,55667,1,0,0:0:0:0:
192,192,55667,1,0,0:0:0:0:
320,192,55829,1,0,0:0:0:0:
64,192,55829,1,0,0:0:0:0:
448,192,55829,1,0,0:0:0:0:
192,192,55991,1,0,0:0:0:0:
448,192,55991,1,0,0:0:0:0:
192,192,56154,1,0,0:0:0:0:
64,192,56154,1,0,0:0:0:0:
320,192,56154,1,0,0:0:0:0:
320,192,56316,1,0,0:0:0:0:
448,192,56316,1,0,0:0:0:0:
192,192,56478,1,0,0:0:0:0:
448,192,56478,1,0,0:0:0:0:
64,192,56640,1,0,0:0:0:0:
192,192,56640,1,0,0:0:0:0:
448,192,56802,1,0,0:0:0:0:
64,192,56802,1,0,0:0:0:0:
320,192,56802,1,0,0:0:0:0:
192,192,56964,1,0,0:0:0:0:
320,192,56964,1,0,0:0:0:0:
192,192,57127,1,0,0:0:0:0:
64,192,57127,1,0,0:0:0:0:
448,192,57127,1,0,0:0:0:0:
320,192,57289,1,0,0:0:0:0:
448,192,57289,1,0,0:0:0:0:
320,192,57451,1,0,0:0:0:0:
64,192,57451,1,0,0:0:0:0:
192,192,57613,1,0,0:0:0:0:
448,192,57613,1,0,0:0:0:0:
64,192,57775,1,0,0:0:0:0:
320,192,57775,1,0,0:0:0:0:
192,192,57775,1,0,0:0:0:0:
320,192,57937,1,0,0:0:0:0:
448,192,58100,1,0,0:0:0:0:
192,192,58100,1,0,0:0:0:0:
320,192,58100,1,0,0:0:0:0:
320,192,58262,1,0,0:0:0:0:
320,192,58424,1,0,0:0:0:0:
64,192,58424,1,0,0:0:0:0:
448,192,58424,1,0,0:0:0:0:
64,192,58586,1,0,0:0:0:0:
192,192,58586,1,0,0:0:0:0:
192,192,58748,1,0,0:0:0:0:
448,192,58748,1,0,0:0:0:0:
320,192,58910,1,0,0:0:0:0:
64,192,58910,1,0,0:0:0:0:
64,192,59073,1,0,0:0:0:0:
448,192,59073,1,0,0:0:0:0:
192,192,59073,1,0,0:0:0:0:
320,192,59235,1,0,0:0:0:0:
448,192,59397,1,0,0:0:0:0:
320,192,59397,1,0,0:0:0:0:
192,192,59397,1,0,0:0:0:0:
64,192,59559,1,0,0:0:0:0:
192,192,59721,1,0,0:0:0:0:
448,192,59721,1,0,0:0:0:0:
64,192,59721,1,0,0:0:0:0:
192,192,59883,1,0,0:0:0:0:
320,192,59883,1,0,0:0:0:0:
64,192,60045,1,0,0:0:0:0:
320,192,60045,1,0,0:0:0:0:
448,192,60045,1,0,0:0:0:0:
192,192,60208,1,0,0:0:0:0:
448,192,60208,1,0,0:0:0:0:
64,192,60370,1,0,0:0:0:0:
192,192,60370,1,0,0:0:0:0:
320,192,60532,1,0,0:0:0:0:
448,192,60532,1,0,0:0:0:0:
192,192,60694,1,0,0:0:0:0:
64,192,60694,1,0,0:0:0:0:
448,192,60694,1,0,0:0:0:0:
320,192,60856,1,0,0:0:0:0:
64,192,60856,1,0,0:0:0:0:
192,192,61018,1,0,0:0:0:0:
320,192,61018,1,0,0:0:0:0:
448,192,61018,1,0,0:0:0:0:
192,192,61181,1,0,0:0:0:0:
64,192,61181,1,0,0:0:0:0:
320,192,61343,1,0,0:0:0:0:
448,192,61343,1,0,0:0:0:0:
64,192,61343,1,0,0:0:0:0:
192,192,61505,1,0,0:0:0:0:
448,192,61505,1,0,0:0:0:0:
192,192,61667,1,0,0:0:0:0:
64,192,61667,1,0,0:0:0:0:
320,192,61829,1,0,0:0:0:0:
64,192,61829,1,0,0:0:0:0:
192,192,61991,1,0,0:0:0:0:
320,192,61991,1,0,0:0:0:0:
448,192,61991,1,0,0:0:0:0:
64,192,62154,1,0,0:0:0:0:
192,192,62154,1,0,0:0:0:0:
448,192,62316,1,0,0:0:0:0:
64,192,62316,1,0,0:0:0:0:
320,192,62316,1,0,0:0:0:0:
192,192,62478,1,0,0:0:0:0:
448,192,62478,1,0,0:0:0:0:
448,192,62640,1,0,0:0:0:0:
64,192,62640,1,0,0:0:0:0:
192,192,62640,1,0,0:0:0:0:
320,192,62802,1,0,0:0:0:0:
64,192,62802,1,0,0:0:0:0:
448,192,62964,1,0,0:0:0:0:
320,192,62964,1,0,0:0:0:0:
64,192,62964,1,0,0:0:0:0:
192,192,63127,1,0,0:0:0:0:
448,192,63127,1,0,0:0:0:0:
448,192,63289,1,0,0:0:0:0:
64,192,63289,1,0,0:0:0:0:
192,192,63289,1,0,0:0:0:0:
64,192,63451,1,0,0:0:0:0:
320,192,63451,1,0,0:0:0:0:
320,192,63613,1,0,0:0:0:0:
448,192,63613,1,0,0:0:0:0:
64,192,63613,1,0,0:0:0:0:
64,192,63775,1,0,0:0:0:0:
320,192,63775,1,0,0:0:0:0:
448,192,63775,1,0,0:0:0:0:
320,192,63937,1,0,0:0:0:0:
192,192,63937,1,0,0:0:0:0:
64,192,63937,1,0,0:0:0:0:
64,192,64100,1,0,0:0:0:0:
320,192,64100,1,0,0:0:0:0:
192,192,64100,1,0,0:0:0:0:
320,192,64424,1,0,0:0:0:0:
448,192,64424,1,0,0:0:0:0:
192,192,64586,1,0,0:0:0:0:
64,192,64586,1,0,0:0:0:0:
448,192,64586,1,0,0:0:0:0:
320,192,64748,1,0,0:0:0:0:
448,192,64910,1,0,0:0:0:0:
64,192,64910,1,0,0:0:0:0:
320,192,64910,1,0,0:0:0:0:
192,192,65073,1,0,0:0:0:0:
64,192,65073,1,0,0:0:0:0:
192,192,65235,1,0,0:0:0:0:
448,192,65235,1,0,0:0:0:0:
64,192,65235,1,0,0:0:0:0:
320,192,65397,1,0,0:0:0:0:
64,192,65559,1,0,0:0:0:0:
448,192,65559,1,0,0:0:0:0:
320,192,65559,1,0,0:0:0:0:
192,192,65721,1,0,0:0:0:0:
448,192,65721,1,0,0:0:0:0:
192,192,65883,1,0,0:0:0:0:
64,192,65883,1,0,0:0:0:0:
320,192,65883,1,0,0:0:0:0:
448,192,66045,1,0,0:0:0:0:
64,192,66208,1,0,0:0:0:0:
448,192,66208,1,0,0:0:0:0:
192,192,66208,1,0,0:0:0:0:
320,192,66370,1,0,0:0:0:0:
192,192,66370,1,0,0:0:0:0:
448,192,66532,1,0,0:0:0:0:
320,192,66532,1,0,0:0:0:0:
64,192,66532,1,0,0:0:0:0:
192,192,66694,1,0,0:0:0:0:
448,192,66856,1,0,0:0:0:0:
192,192,66856,1,0,0:0:0:0:
64,192,66856,1,0,0:0:0:0:
320,192,67018,1,0,0:0:0:0:
448,192,67018,1,0,0:0:0:0:
320,192,67181,1,0,0:0:0:0:
448,192,67181,1,0,0:0:0:0:
64,192,67181,1,0,0:0:0:0:
192,192,67343,1,0,0:0:0:0:
64,192,67505,1,0,0:0:0:0:
448,192,67505,1,0,0:0:0:0:
192,192,67505,1,0,0:0:0:0:
320,192,67667,1,0,0:0:0:0:
64,192,67667,1,0,0:0:0:0:
192,192,67829,1,0,0:0:0:0:
320,192,67829,1,0,0:0:0:0:
448,192,67829,1,0,0:0:0:0:
64,192,67991,1,0,0:0:0:0:
448,192,68154,1,0,0:0:0:0:
192,192,68154,1,0,0:0:0:0:
64,192,68154,1,0,0:0:0:0:
320,192,68316,1,0,0:0:0:0:
448,192,68316,1,0,0:0:0:0:
64,192,68478,1,0,0:0:0:0:
192,192,68478,1,0,0:0:0:0:
320,192,68478,1,0,0:0:0:0:
448,192,68640,1,0,0:0:0:0:
320,192,68802,1,0,0:0:0:0:
448,192,68802,1,0,0:0:0:0:
192,192,68802,1,0,0:0:0:0:
320,192,68964,1,0,0:0:0:0:
64,192,68964,1,0,0:0:0:0:
448,192,69127,1,0,0:0:0:0:
64,192,69127,1,0,0:0:0:0:
192,192,69127,1,0,0:0:0:0:
320,192,69289,1,0,0:0:0:0:
64,192,69451,1,0,0:0:0:0:
320,192,69451,1,0,0:0:0:0:
448,192,69451,1,0,0:0:0:0:
192,192,69613,1,0,0:0:0:0:
64,192,69613,1,0,0:0:0:0:
448,192,69775,1,0,0:0:0:0:
192,192,69775,1,0,0:0:0:0:
64,192,69775,1,0,0:0:0:0:
320,192,69937,1,0,0:0:0:0:
64,192,70100,1,0,0:0:0:0:
448,192,70100,1,0,0:0:0:0:
320,192,70100,1,0,0:0:0:0:
64,192,70262,1,0,0:0:0:0:
192,192,70262,1,0,0:0:0:0:
320,192,70424,1,0,0:0:0:0:
448,192,70424,1,0,0:0:0:0:
192,192,70424,1,0,0:0:0:0:
64,192,70586,1,0,0:0:0:0:
320,192,70586,1,0,0:0:0:0:
192,192,70748,1,0,0:0:0:0:
64,192,70748,1,0,0:0:0:0:
320,192,70910,1,0,0:0:0:0:
448,192,70910,1,0,0:0:0:0:
448,192,71073,1,0,0:0:0:0:
64,192,71073,1,0,0:0:0:0:
192,192,71073,1,0,0:0:0:0:
320,192,71235,1,0,0:0:0:0:
64,192,71235,1,0,0:0:0:0:
64,192,71397,1,0,0:0:0:0:
448,192,71397,1,0,0:0:0:0:
320,192,71397,1,0,0:0:0:0:
192,192,71559,1,0,0:0:0:0:
448,192,71559,1,0,0:0:0:0:
192,192,71721,1,0,0:0:0:0:
320,192,71721,1,0,0:0:0:0:
64,192,71721,1,0,0:0:0:0:
64,192,71883,1,0,0:0:0:0:
320,192,71883,1,0,0:0:0:0:
192,192,72045,1,0,0:0:0:0:
320,192,72045,1,0,0:0:0:0:
448,192,72045,1,0,0:0:0:0:
448,192,72208,1,0,0:0:0:0:
448,192,72370,1,0,0:0:0:0:
192,192,72370,1,0,0:0:0:0:
64,192,72370,1,0,0:0:0:0:
448,192,72532,1,0,0:0:0:0:
448,192,72694,1,0,0:0:0:0:
64,192,72694,1,0,0:0:0:0:
320,192,72694,1,0,0:0:0:0:
192,192,72856,1,0,0:0:0:0:
64,192,73018,1,0,0:0:0:0:
320,192,73018,1,0,0:0:0:0:
192,192,73018,1,0,0:0:0:0:
448,192,73181,1,0,0:0:0:0:
64,192,73343,1,0,0:0:0:0:
320,192,73343,1,0,0:0:0:0:
448,192,73343,1,0,0:0:0:0:
192,192,73505,1,0,0:0:0:0:
448,192,73667,1,0,0:0:0:0:
192,192,73667,1,0,0:0:0:0:
320,192,73667,1,0,0:0:0:0:
64,192,73829,1,0,0:0:0:0:
320,192,73991,1,0,0:0:0:0:
64,192,73991,1,0,0:0:0:0:
448,192,73991,1,0,0:0:0:0:
448,192,74154,1,0,0:0:0:0:
448,192,74316,1,0,0:0:0:0:
192,192,74316,1,0,0:0:0:0:
64,192,74316,1,0,0:0:0:0:
192,192,74478,1,0,0:0:0:0:
320,192,74640,1,0,0:0:0:0:
448,192,74640,1,0,0:0:0:0:
192,192,74640,1,0,0:0:0:0:
320,192,74802,1,0,0:0:0:0:
64,192,74964,1,0,0:0:0:0:
448,192,74964,1,0,0:0:0:0:
320,192,74964,1,0,0:0:0:0:
64,192,75127,1,0,0:0:0:0:
448,192,75289,1,0,0:0:0:0:
64,192,75289,1,0,0:0:0:0:
320,192,75289,1,0,0:0:0:0:
320,192,75451,1,0,0:0:0:0:
192,192,75451,1,0,0:0:0:0:
64,192,75613,1,0,0:0:0:0:
448,192,75613,1,0,0:0:0:0:
192,192,75613,1,0,0:0:0:0:
320,192,75775,1,0,0:0:0:0:
64,192,75775,1,0,0:0:0:0:
320,192,75937,1,0,0:0:0:0:
448,192,75937,1,0,0:0:0:0:
192,192,76100,1,0,0:0:0:0:
64,192,76100,1,0,0:0:0:0:
64,192,76262,1,0,0:0:0:0:
320,192,76262,1,0,0:0:0:0:
448,192,76262,1,0,0:0:0:0:
192,192,76424,1,0,0:0:0:0:
320,192,76424,1,0,0:0:0:0:
448,192,76586,1,0,0:0:0:0:
192,192,76586,1,0,0:0:0:0:
64,192,76586,1,0,0:0:0:0:
320,192,76748,1,0,0:0:0:0:
64,192,76748,1,0,0:0:0:0:
320,192,76910,1,0,0:0:0:0:
448,192,76910,1,0,0:0:0:0:
192,192,76910,1,0,0:0:0:0:
320,192,77073,1,0,0:0:0:0:
448,192,77073,1,0,0:0:0:0:
448,192,77235,1,0,0:0:0:0:
192,192,77235,1,0,0:0:0:0:
64,192,77235,1,0,0:0:0:0:
64,192,77397,1,0,0:0:0:0:
64,192,77559,1,0,0:0:0:0:
192,192,77559,1,0,0:0:0:0:
320,192,77559,1,0,0:0:0:0:
64,192,77721,1,0,0:0:0:0:
64,192,77883,1,0,0:0:0:0:
320,192,77883,1,0,0:0:0:0:
448,192,77883,1,0,0:0:0:0:
192,192,78045,1,0,0:0:0:0:
192,192,78208,1,0,0:0:0:0:
64,192,78208,1,0,0:0:0:0:
448,192,78208,1,0,0:0:0:0:
320,192,78370,1,0,0:0:0:0:
320,192,78532,1,0,0:0:0:0:
64,192,78532,1,0,0:0:0:0:
192,192,78532,1,0,0:0:0:0:
448,192,78694,1,0,0:0:0:0:
192,192,78694,1,0,0:0:0:0:
320,192,78856,1,0,0:0:0:0:
448,192,78856,1,0,0:0:0:0:
64,192,78856,1,0,0:0:0:0:
192,192,79018,1,0,0:0:0:0:
320,192,79018,1,0,0:0:0:0:
192,192,79181,1,0,0:0:0:0:
64,192,79181,1,0,0:0:0:0:
448,192,79181,1,0,0:0:0:0:
64,192,79343,1,0,0:0:0:0:
320,192,79343,1,0,0:0:0:0:
192,192,79505,1,0,0:0:0:0:
320,192,79505,1,0,0:0:0:0:
448,192,79505,1,0,0:0:0:0:
64,192,79667,1,0,0:0:0:0:
320,192,79667,1,0,0:0:0:0:
448,192,79829,1,0,0:0:0:0:
64,192,79829,1,0,0:0:0:0:
192,192,79829,1,0,0:0:0:0:
320,192,79991,1,0,0:0:0:0:
192,192,80154,1,0,0:0:0:0:
448,192,80154,1,0,0:0:0:0:
320,192,80154,1,0,0:0:0:0:
64,192,80316,1,0,0:0:0:0:
192,192,80478,1,0,0:0:0:0:
320,192,80478,1,0,0:0:0:0:
64,192,80478,1,0,0:0:0:0:
448,192,80640,1,0,0:0:0:0:
192,192,80802,1,0,0:0:0:0:
320,192,80802,1,0,0:0:0:0:
448,192,80802,1,0,0:0:0:0:
64,192,80964,1,0,0:0:0:0:
192,192,81127,1,0,0:0:0:0:
448,192,81127,1,0,0:0:0:0:
64,192,81127,1,0,0:0:0:0:
320,192,81289,1,0,0:0:0:0:
320,192,81451,1,0,0:0:0:0:
64,192,81451,1,0,0:0:0:0:
448,192,81451,1,0,0:0:0:0:
320,192,81775,1,0,0:0:0:0:
448,192,81775,1,0,0:0:0:0:
64,192,81775,1,0,0:0:0:0:
192,192,81937,1,0,0:0:0:0:
448,192,82100,1,0,0:0:0:0:
320,192,82100,1,0,0:0:0:0:
192,192,82100,1,0,0:0:0:0:
448,192,82424,1,0,0:0:0:0:
64,192,82424,1,0,0:0:0:0:
320,192,82424,1,0,0:0:0:0:
192,192,82586,1,0,0:0:0:0:
192,192,82748,1,0,0:0:0:0:
448,192,82748,1,0,0:0:0:0:
192,192,83073,1,0,0:0:0:0:
448,192,83073,1,0,0:0:0:0:
64,192,83235,1,0,0:0:0:0:
64,192,83397,1,0,0:0:0:0:
320,192,83397,1,0,0:0:0:0:
448,192,83721,1,0,0:0:0:0:
64,192,83721,1,0,0:0:0:0:
320,192,83883,1,0,0:0:0:0:
192,192,84045,1,0,0:0:0:0:
320,192,84045,1,0,0:0:0:0:
64,192,84370,1,0,0:0:0:0:
448,192,84532,1,0,0:0:0:0:
192,192,84694,1,0,0:0:0:0:
448,192,84694,1,0,0:0:0:0:
320,192,85018,1,0,0:0:0:0:
64,192,85181,1,0,0:0:0:0:
64,192,85343,1,0,0:0:0:0:
448,192,85343,1,0,0:0:0:0:
