osu file format v14

[General]
AudioFilename: audio.mp3
AudioLeadIn: 0
PreviewTime: 175973
Countdown: 0
SampleSet: Soft
StackLeniency: 0.3
Mode: 0
LetterboxInBreaks: 0
WidescreenStoryboard: 0

[Editor]
Bookmarks: 17792,35246,52701,70155,87610,96337,105064,113791,122519,124701,133291,142155,155246,157428,159610,168337,172701,174882,175973,177064,184973,190155,194519,195064,203246,209791,211973
DistanceSpacing: 0.9
BeatDivisor: 4
GridSize: 32
TimelineZoom: 1.7

[Metadata]
Title:Ginga Tetsudou no Penguin (Stripe.P Remix)
TitleUnicode:銀河鉄道のペンギン (Stripe.P Remix)
Artist:Aiobahn & Yunomi feat. nicamoq
ArtistUnicode:Aiobahn & Yunomi feat. nicamoq
Creator:Naidaaka
Version:owo
Source:
Tags:
BeatmapID:1480845
BeatmapSetID:699252

[Difficulty]
HPDrainRate:6
CircleSize:4.3
OverallDifficulty:9.5
ApproachRate:9
SliderMultiplier:1.4
SliderTickRate:1

[Events]
//Background and Video events
0,0,"Fuji.Choko.full.981932.jpg",0,0
//Break Periods
//Storyboard Layer 0 (Background)
//Storyboard Layer 1 (Fail)
//Storyboard Layer 2 (Pass)
//Storyboard Layer 3 (Foreground)
//Storyboard Sound Samples

[TimingPoints]
17792,545.454545454546,4,2,0,100,1,0
17792,-142.857142857143,4,2,0,100,0,0
35246,-100,4,2,0,100,0,0
42610,-166.666666666667,4,2,0,100,0,0
42882,-125,4,2,0,100,0,0
43155,-100,4,2,0,100,0,0
43428,-83.3333333333333,4,2,0,100,0,0
43973,-100,4,2,0,100,0,0
51337,-125,4,2,0,100,0,0
51610,-100,4,2,0,100,0,0
51882,-83.3333333333333,4,2,0,100,0,0
52155,-71.4285714285714,4,2,0,100,0,0
52701,272.727272727273,4,2,0,100,1,0
52701,-100,4,2,0,100,0,0
61428,-100,4,2,0,100,0,0
68791,-166.666666666667,4,2,0,100,0,0
69064,-125,4,2,0,100,0,0
69337,-100,4,2,0,100,0,0
69610,-100,4,2,0,100,0,0
73610,-200,4,2,0,100,0,0
74519,-100,4,2,0,100,0,0
75791,-200,4,2,0,100,0,0
76701,-100,4,2,0,100,0,0
77973,-200,4,2,0,100,0,0
78337,-100,4,2,0,100,0,0
78882,-83.3333333333333,4,2,0,100,0,0
87610,-666.666666666667,4,2,0,100,0,1
87882,-666.666666666667,4,2,0,100,0,0
88155,-62.5,4,2,0,100,0,1
89791,-666.666666666667,4,2,0,100,0,1
90337,-62.5,4,2,0,100,0,1
91701,-62.5,4,2,0,100,0,0
91973,-666.666666666667,4,2,0,100,0,1
92246,-666.666666666667,4,2,0,100,0,0
92519,-62.5,4,2,0,100,0,1
94155,-666.666666666667,4,2,0,100,0,1
94701,-62.5,4,2,0,100,0,1
96064,-62.5,4,2,0,100,0,0
96337,-666.666666666667,4,2,0,100,0,1
96610,-666.666666666667,4,2,0,100,0,0
96882,-62.5,4,2,0,100,0,1
98519,-666.666666666667,4,2,0,100,0,1
99064,-62.5,4,2,0,100,0,1
100428,-62.5,4,2,0,100,0,0
100701,-666.666666666667,4,2,0,100,0,1
100973,-666.666666666667,4,2,0,100,0,0
101246,-62.5,4,2,0,100,0,1
102882,-666.666666666667,4,2,0,100,0,1
103428,-62.5,4,2,0,100,0,1
104791,-62.5,4,2,0,100,0,0
105064,-50,4,2,0,100,0,1
105337,-50,4,2,0,100,0,0
105610,-50,4,2,0,100,0,1
106973,-50,4,2,0,100,0,0
107246,-666.666666666667,4,2,0,100,0,1
107519,-666.666666666667,4,2,0,100,0,0
107791,-50,4,2,0,100,0,1
109155,-50,4,2,0,100,0,0
109428,-666.666666666667,4,2,0,100,0,1
109701,-666.666666666667,4,2,0,100,0,0
109973,-50,4,2,0,100,0,1
111337,-50,4,2,0,100,0,0
111610,-666.666666666667,4,2,0,100,0,1
111882,-666.666666666667,4,2,0,100,0,0
112155,-50,4,2,0,100,0,1
113519,-50,4,2,0,100,0,0
113791,-666.666666666667,4,2,0,100,0,1
114064,-666.666666666667,4,2,0,100,0,0
114337,-50,4,2,0,100,0,1
115701,-50,4,2,0,100,0,0
115973,-666.666666666667,4,2,0,100,0,1
116246,-666.666666666667,4,2,0,100,0,0
116519,-50,4,2,0,100,0,1
117882,-50,4,2,0,100,0,0
118155,-666.666666666667,4,2,0,100,0,1
118428,-666.666666666667,4,2,0,100,0,0
118701,-50,4,2,0,100,0,1
120064,-50,4,2,0,100,0,0
120337,-666.666666666667,4,2,0,100,0,1
120610,-666.666666666667,4,2,0,100,0,0
120882,-50,4,2,0,100,0,1
122246,-50,4,2,0,100,0,0
122519,-50,4,2,0,100,0,1
122655,-50,4,2,0,100,0,0
124701,545.454545454546,4,2,0,100,1,0
124701,-100,4,2,0,100,0,0
132064,-166.666666666667,4,2,0,100,0,0
132337,-125,4,2,0,100,0,0
132610,-100,4,2,0,100,0,0
132882,-83.3333333333333,4,2,0,100,0,0
133428,-100,4,2,0,100,0,0
140791,-125,4,2,0,100,0,0
141064,-100,4,2,0,100,0,0
141337,-83.3333333333333,4,2,0,100,0,0
142155,-100,4,2,0,100,0,0
145428,-83.3333333333333,4,2,0,100,0,0
146519,-100,4,2,0,100,0,0
148701,-200,4,2,0,100,0,0
149519,-100,4,2,0,100,0,0
159337,-100,4,2,0,5,0,0
159610,-55.5555555555556,4,2,0,100,0,0
168337,-52.6315789473684,4,2,0,100,0,0
171473,-55.5555555555556,4,2,0,100,0,0
172701,-50,4,2,0,100,0,0
177064,272.727272727273,4,2,0,100,1,0
177064,-50,4,2,0,100,0,1
184018,-100,4,2,0,100,0,1
184154,-50,4,2,0,100,0,1
192745,-100,4,2,0,100,0,1
192882,-50,4,2,0,100,0,1
194245,-50,4,2,0,100,0,0
194518,-666.666666666667,4,2,0,100,0,1
194927,-666.666666666667,4,2,0,100,0,0
195064,-50,4,2,0,100,0,1
196427,-50,4,2,0,100,0,0
196700,-666.666666666667,4,2,0,100,0,1
196973,-666.666666666667,4,2,0,100,0,0
197245,-50,4,2,0,100,0,1
198609,-50,4,2,0,100,0,0
198882,-666.666666666667,4,2,0,100,0,1
199154,-666.666666666667,4,2,0,100,0,0
199427,-50,4,2,0,100,0,1
200791,-50,4,2,0,100,0,0
201064,-666.666666666667,4,2,0,100,0,1
201336,-666.666666666667,4,2,0,100,0,0
201609,-50,4,2,0,100,0,1
202973,-50,4,2,0,100,0,0
203245,-666.666666666667,4,2,0,100,0,1
203518,-666.666666666667,4,2,0,100,0,0
203791,-50,4,2,0,100,0,1
205154,-50,4,2,0,100,0,0
205427,-666.666666666667,4,2,0,100,0,1
205700,-666.666666666667,4,2,0,100,0,0
205973,-50,4,2,0,100,0,1
207336,-50,4,2,0,100,0,0
207609,-666.666666666667,4,2,0,100,0,1
207882,-666.666666666667,4,2,0,100,0,0
208154,-50,4,2,0,100,0,1
209518,-50,4,2,0,100,0,0
209791,-666.666666666667,4,2,0,100,0,1
210064,-666.666666666667,4,2,0,100,0,0
210336,-50,4,2,0,100,0,1
211700,-50,4,2,0,100,0,0
211973,-50,4,2,0,100,0,1
212041,-50,4,2,0,100,0,0

[Colours]
Combo1 : 74,134,255
Combo2 : 158,138,229
Combo3 : 253,255,255
Combo4 : 106,234,124

[HitObjects]
128,82,35246,6,0,P|124:123|142:162,1,70
278,87,35655,1,0,0:0:0:0:
211,118,35792,2,0,P|229:144|256:156,1,35
311,203,36064,2,0,P|324:174|321:145,1,35
202,124,36337,6,0,P|220:150|247:162,1,35
326,208,36610,2,0,P|357:213|384:203,1,35
334,73,36882,2,0,P|302:75|278:92,2,35
446,147,37292,1,0,0:0:0:0:
496,200,37428,6,0,B|485:283,1,70
451,366,37837,1,0,0:0:0:0:
401,312,37973,2,0,B|407:264,1,35
336,235,38246,2,0,P|367:205|407:197,2,70
278,310,38928,6,0,L|271:362,1,35
180,325,39201,1,0,0:0:0:0:
102,284,39337,1,0,0:0:0:0:
63,194,39473,1,0,0:0:0:0:
82,86,39610,6,0,L|162:93,1,70
306,106,40019,1,0,0:0:0:0:
248,151,40155,2,0,L|257:88,1,35
346,33,40428,2,0,L|337:96,1,35
235,159,40701,6,0,L|244:96,1,35
294,242,40973,2,0,L|321:263,1,35
192,251,41246,2,0,L|159:264,2,35
294,242,41655,1,0,0:0:0:0:
351,288,41792,2,0,L|335:370,2,70
472,176,42610,6,0,L|435:165,1,20.9999993591309
438,71,42882,6,0,L|404:89,1,28
316,16,43155,6,0,L|305:52,1,35
179,66,43428,5,0,0:0:0:0:
172,157,43564,1,0,0:0:0:0:
331,168,43701,1,0,0:0:0:0:
255,117,43837,1,0,0:0:0:0:
248,208,43973,6,0,L|253:293,1,70
292,339,44382,1,0,0:0:0:0:
352,295,44519,2,0,P|332:275|314:271,1,35
248,208,44792,2,0,P|219:208|204:217,1,35
112,220,45064,6,0,P|92:239|87:257,1,35
173,327,45337,2,0,P|165:299|152:287,1,35
50,327,45610,2,0,P|77:334|94:328,2,35
0,253,46019,1,0,0:0:0:0:
36,180,46155,6,0,L|29:103,1,70
65,13,46564,1,0,0:0:0:0:
115,67,46700,2,0,B|109:115,1,35
180,144,46973,2,0,P|149:174|109:182,2,70
214,49,47655,6,0,L|208:7,1,35
296,91,47928,1,0,0:0:0:0:
340,166,48064,1,0,0:0:0:0:
324,263,48201,1,0,0:0:0:0:
251,343,48337,6,0,L|179:325,1,70
108,269,48746,1,0,0:0:0:0:
65,209,48882,2,0,L|114:223,1,35
206,259,49155,2,0,L|250:234,1,35
341,194,49428,6,0,L|355:144,1,35
449,87,49701,2,0,L|399:99,1,35
302,46,49973,2,0,L|327:72,2,35
189,44,50382,1,0,0:0:0:0:
141,100,50519,2,0,L|151:177,1,70
141,100,51337,6,0,L|148:154,1,28
88,208,51610,6,0,L|131:241,1,35
126,321,51882,6,0,L|180:313,1,41.9999987182618
317,294,52155,5,0,0:0:0:0:
413,122,52292,1,0,0:0:0:0:
365,208,52428,1,0,0:0:0:0:
315,124,52564,1,0,0:0:0:0:
462,205,52701,6,0,B|414:189|414:189|306:216,1,140
415,292,53110,1,0,0:0:0:0:
367,377,53246,6,0,L|293:362,1,70
189,344,53519,1,0,0:0:0:0:
150,253,53655,1,0,0:0:0:0:
185,162,53791,6,0,L|259:177,1,70
318,7,54064,1,0,0:0:0:0:
357,98,54200,1,0,0:0:0:0:
322,189,54336,6,0,L|248:174,1,70
84,110,54610,1,0,0:0:0:0:
175,71,54746,1,0,0:0:0:0:
266,106,54882,6,0,L|253:175,1,70
239,243,55155,2,0,L|253:175,1,70
298,91,55428,2,0,L|284:159,1,70
261,266,55701,2,0,L|274:197,1,70
372,165,55973,6,0,B|388:80|388:80|369:30,2,140
347,314,56655,1,0,0:0:0:0:
261,266,56792,1,0,0:0:0:0:
150,284,56928,1,0,0:0:0:0:
46,213,57064,6,0,B|151:190|151:190|119:172,1,140
46,113,57473,1,0,0:0:0:0:
107,35,57610,6,0,P|141:78|140:116,1,70
150,284,57882,1,0,0:0:0:0:
81,354,58019,1,0,0:0:0:0:
54,259,58155,6,0,L|131:242,1,70
252,174,58428,1,0,0:0:0:0:
341,213,58564,1,0,0:0:0:0:
406,140,58701,6,0,L|483:123,1,70
254,152,58973,1,0,0:0:0:0:
343,191,59109,1,0,0:0:0:0:
408,118,59246,5,0,0:0:0:0:
359,33,59382,1,0,0:0:0:0:
263,54,59518,1,0,0:0:0:0:
254,152,59655,1,0,0:0:0:0:
245,250,59791,6,0,L|234:336,1,70
240,69,60064,1,0,0:0:0:0:
231,167,60201,1,0,0:0:0:0:
222,265,60337,6,0,L|211:351,1,70
383,291,60610,2,0,L|394:205,1,70
139,282,60882,2,0,L|128:368,1,70
300,308,61155,5,0,0:0:0:0:
302,287,61223,1,0,0:0:0:0:
305,266,61291,1,0,0:0:0:0:
307,245,61359,1,0,0:0:0:0:
292,198,61428,6,0,B|255:173|255:173|140:187,1,140
62,194,61837,1,0,0:0:0:0:
126,267,61973,6,0,P|155:231|149:191,1,70
119,63,62246,1,0,0:0:0:0:
40,4,62382,1,0,0:0:0:0:
29,102,62519,6,0,L|120:93,1,70
284,47,62791,1,0,0:0:0:0:
371,92,62928,1,0,0:0:0:0:
458,47,63064,6,0,L|445:127,1,70
400,348,63337,1,0,0:0:0:0:
341,269,63473,1,0,0:0:0:0:
282,190,63610,5,0,0:0:0:0:
379,178,63746,1,0,0:0:0:0:
244,281,63882,5,0,0:0:0:0:
184,202,64018,1,0,0:0:0:0:
341,269,64155,5,0,0:0:0:0:
302,359,64291,1,0,0:0:0:0:
184,202,64428,5,0,0:0:0:0:
222,111,64564,1,0,0:0:0:0:
354,100,64701,6,0,B|315:123|315:123|222:111,1,140
124,124,65110,1,0,0:0:0:0:
34,84,65246,2,0,L|52:4,1,70
124,124,65519,2,0,L|106:204,1,70
28,339,65791,6,0,P|102:317|183:350,1,140
258,347,66201,1,0,0:0:0:0:
347,306,66337,6,0,P|363:268|351:221,1,70
330,82,66610,1,0,0:0:0:0:
271,4,66747,1,0,0:0:0:0:
178,35,66882,6,0,L|185:112,1,70
323,98,67155,1,0,0:0:0:0:
264,20,67292,1,0,0:0:0:0:
171,51,67428,5,0,0:0:0:0:
191,167,67564,1,0,0:0:0:0:
211,283,67701,1,0,0:0:0:0:
327,263,67837,1,0,0:0:0:0:
95,303,67973,5,0,0:0:0:0:
95,303,68791,6,0,L|87:253,1,41.9999987182618
211,283,69064,2,0,L|202:228,1,56
327,263,69337,2,0,L|316:194,1,70
406,37,69610,5,0,0:0:0:0:
421,133,69746,1,0,0:0:0:0:
315,193,69882,1,0,0:0:0:0:
330,97,70018,1,0,0:0:0:0:
420,255,70155,5,0,0:0:0:0:
420,255,70428,5,0,0:0:0:0:
313,314,70610,1,0,0:0:0:0:
313,314,70701,1,0,0:0:0:0:
189,289,70882,5,0,0:0:0:0:
171,304,70973,1,0,0:0:0:0:
140,316,71064,1,0,0:0:0:0:
98,322,71155,1,0,0:0:0:0:
113,234,71428,5,0,0:0:0:0:
113,234,71519,1,0,0:0:0:0:
111,139,71701,1,0,0:0:0:0:
111,139,71791,1,0,0:0:0:0:
109,44,71974,1,0,0:0:0:0:
109,44,72064,1,0,0:0:0:0:
275,136,72337,5,0,0:0:0:0:
275,136,72610,5,0,0:0:0:0:
393,157,72791,1,0,0:0:0:0:
393,157,72882,5,0,0:0:0:0:
397,119,72973,1,0,0:0:0:0:
472,87,73064,1,0,0:0:0:0:
476,49,73155,1,0,0:0:0:0:
404,4,73337,5,0,0:0:0:0:
404,4,73610,6,0,L|330:16,1,70
221,103,73973,2,0,L|277:112,1,46.6666666666667
404,202,74246,1,0,0:0:0:0:
404,202,74519,5,0,0:0:0:0:
333,276,74701,1,0,0:0:0:0:
333,276,74791,1,0,0:0:0:0:
232,295,74973,1,0,0:0:0:0:
232,295,75064,1,0,0:0:0:0:
130,277,75246,1,0,0:0:0:0:
130,277,75337,1,0,0:0:0:0:
196,197,75519,1,0,0:0:0:0:
196,197,75791,6,0,L|191:122,1,70
97,51,76155,2,0,L|101:119,1,46.6666666666667
295,51,76428,1,0,0:0:0:0:
295,51,76701,5,0,0:0:0:0:
406,118,76882,1,0,0:0:0:0:
374,125,76973,1,0,0:0:0:0:
438,233,77155,1,0,0:0:0:0:
403,209,77246,5,0,0:0:0:0:
379,336,77428,1,0,0:0:0:0:
367,285,77519,5,0,0:0:0:0:
432,310,77610,1,0,0:0:0:0:
498,336,77701,5,0,0:0:0:0:
498,336,77973,6,0,L|422:324,1,70
268,298,78337,5,0,0:0:0:0:
78,246,78473,1,0,0:0:0:0:
159,323,78610,1,0,0:0:0:0:
187,220,78746,1,0,0:0:0:0:
215,117,78882,5,0,0:0:0:0:
224,103,79155,1,0,0:0:0:0:
421,173,79428,5,0,0:0:0:0:
430,187,79701,1,0,0:0:0:0:
224,103,79973,5,0,0:0:0:0:
240,99,80246,1,0,0:0:0:0:
430,187,80519,5,0,0:0:0:0:
426,203,80792,1,0,0:0:0:0:
242,312,81064,5,0,0:0:0:0:
351,323,81610,1,0,0:0:0:0:
237,327,82155,1,0,0:0:0:0:
356,346,82701,1,0,0:0:0:0:
232,346,82973,1,0,0:0:0:0:
108,346,83246,5,0,0:0:0:0:
69,243,83519,1,0,0:0:0:0:
0,329,83791,1,0,0:0:0:0:
177,260,84064,5,0,0:0:0:0:
138,157,84337,1,0,0:0:0:0:
69,243,84610,1,0,0:0:0:0:
246,174,84882,5,0,0:0:0:0:
30,141,85155,5,0,0:0:0:0:
138,157,85291,1,0,0:0:0:0:
246,174,85428,5,0,0:0:0:0:
314,88,85564,1,0,0:0:0:0:
354,189,85700,1,0,0:0:0:0:
287,275,85837,1,0,0:0:0:0:
233,155,85973,5,0,0:0:0:0:
301,69,86109,1,0,0:0:0:0:
364,206,86245,1,0,0:0:0:0:
297,292,86382,1,0,0:0:0:0:
220,136,86519,5,0,0:0:0:0:
288,50,86655,1,0,0:0:0:0:
464,135,86791,5,0,0:0:0:0:
396,49,86927,1,0,0:0:0:0:
207,117,87065,5,0,0:0:0:0:
275,31,87201,1,0,0:0:0:0:
409,30,87337,1,0,0:0:0:0:
477,116,87473,1,0,0:0:0:0:
342,350,87610,6,0,L|344:322,1,20.9999993591309
354,243,88019,1,0,0:0:0:0:
342,350,88155,6,0,B|289:390|289:390|132:370,1,224
128,254,88564,2,0,L|260:271,1,112
132,370,88837,2,0,L|0:353,1,112
124,138,89110,5,0,0:0:0:0:
128,254,89246,1,0,0:0:0:0:
132,370,89382,1,0,0:0:0:0:
25,199,89519,5,0,0:0:0:0:
227,193,89655,1,0,0:0:0:0:
429,187,89791,6,0,L|427:167,1,20.9999993591309
415,79,90201,1,0,0:0:0:0:
403,290,90337,6,0,B|437:247|437:247|413:61,1,224
292,0,90746,2,0,L|307:112,1,112
403,290,91019,5,0,0:0:0:0:
329,238,91155,1,0,0:0:0:0:
277,312,91291,1,0,0:0:0:0:
351,364,91428,5,0,0:0:0:0:
329,238,91564,1,0,0:0:0:0:
307,112,91701,1,0,0:0:0:0:
238,229,91837,1,0,0:0:0:0:
102,227,91973,6,0,L|98:251,1,20.9999993591309
82,333,92382,1,0,0:0:0:0:
102,227,92519,6,0,B|118:147|118:147|163:95|163:95|178:21,1,224
25,116,92928,2,0,L|2:233,1,112
253,110,93201,2,0,L|276:-7,1,112
25,116,93473,5,0,0:0:0:0:
139,113,93610,1,0,0:0:0:0:
253,110,93746,1,0,0:0:0:0:
194,13,93882,5,0,0:0:0:0:
84,213,94019,1,0,0:0:0:0:
312,208,94155,6,0,L|333:207,1,20.9999993591309
420,203,94564,1,0,0:0:0:0:
487,280,94701,6,0,B|438:321|438:321|268:325,1,224
367,106,95110,2,0,L|478:102,1,112
367,306,95382,5,0,0:0:0:0:
191,346,95519,1,0,0:0:0:0:
141,271,95655,1,0,0:0:0:0:
345,292,95791,5,0,0:0:0:0:
204,324,95928,1,0,0:0:0:0:
160,259,96064,1,0,0:0:0:0:
133,161,96201,1,0,0:0:0:0:
160,41,96337,6,0,L|169:19,1,20.9999993591309
88,88,96746,1,0,0:0:0:0:
160,41,96882,6,0,B|211:23|211:23|379:48,1,224
376,149,97291,2,0,L|265:133,1,112
465,101,97564,2,0,P|479:162|449:219,1,112
263,245,97837,5,0,0:0:0:0:
265,133,97973,1,0,0:0:0:0:
360,190,98110,1,0,0:0:0:0:
168,188,98246,5,0,0:0:0:0:
362,80,98382,1,0,0:0:0:0:
359,301,98519,6,0,L|358:326,1,20.9999993591309
419,247,98928,1,0,0:0:0:0:
359,301,99064,6,0,B|313:333|313:333|131:313,1,224
102,201,99473,2,0,L|213:210,1,112
26,338,99746,5,0,0:0:0:0:
68,118,99882,1,0,0:0:0:0:
96,226,100019,1,0,0:0:0:0:
20,304,100155,5,0,0:0:0:0:
53,127,100291,1,0,0:0:0:0:
76,214,100428,1,0,0:0:0:0:
173,269,100564,1,0,0:0:0:0:
307,257,100701,6,0,L|329:258,1,20.9999993591309
244,309,101110,1,0,0:0:0:0:
307,257,101246,6,0,B|340:201|340:201|318:40,1,224
215,47,101655,2,0,L|229:159,1,112
441,111,101928,2,0,L|427:-1,1,112
318,43,102201,5,0,0:0:0:0:
332,153,102337,1,0,0:0:0:0:
346,263,102473,1,0,0:0:0:0:
435,196,102610,5,0,0:0:0:0:
243,220,102746,1,0,0:0:0:0:
51,244,102882,6,0,L|52:220,1,20.9999993591309
113,298,103291,1,0,0:0:0:0:
51,244,103428,6,0,B|22:198|22:198|44:27,1,224
243,220,103837,2,0,L|227:330,1,112
158,90,104110,5,0,0:0:0:0:
384,53,104246,1,0,0:0:0:0:
332,126,104383,1,0,0:0:0:0:
165,78,104519,5,0,0:0:0:0:
398,43,104655,1,0,0:0:0:0:
444,107,104792,1,0,0:0:0:0:
454,206,104928,1,0,0:0:0:0:
397,315,105064,6,0,B|394:320|394:320|390:326|390:326|394:320|394:320|390:326|390:326|394:320|394:320|390:326|390:326|394:320|394:320|390:326|390:326|394:320|394:320|390:326|390:326|394:320|394:320|390:326|390:326|394:320|394:320|390:326|390:326|394:320|394:320|390:326|390:326|394:320|394:320|390:326|390:326|394:320|394:320|390:326|390:326|390:326|390:326|394:320|394:320|390:326|390:326|394:320|394:320|390:326|390:326|394:320|394:320|390:326|390:326|394:320|394:320|390:326|390:326|394:320|394:320|390:326|390:326|394:320|394:320|390:326|390:326|394:320|394:320|390:326|390:326|394:320|394:320|390:326|390:326|394:320|394:320|390:326|390:326|394:320|394:320|390:326|390:326|394:320|394:320|390:326|390:326|394:320|394:320|390:326|390:326|394:320|394:320|390:326|390:326|394:320|394:320|390:326|390:326|394:320|394:320|390:326|390:326|394:320|394:320|390:326|390:326|394:320|394:320|390:326|390:326|394:320|394:320|390:326|390:326|394:320|394:320|390:326|390:326|394:320|394:320|390:326|390:326|394:320|394:320|390:326|390:326|394:320|394:320|390:326|390:326|394:320|394:320|390:326|390:326|394:320|394:320|390:326|390:326|394:320|394:320|390:326|390:326|394:320|394:320|390:326|390:326|394:320|394:320|390:326|390:326|394:320|394:320|390:326|390:326|394:320|394:320|390:326|390:326|394:320|394:320|390:326|390:326|362:365|362:365|139:351,1,840
48,166,106019,2,0,B|3:111|27:64|27:64|33:93|58:114,1,140
61,278,106291,2,0,B|36:344|-16:346|-16:346|5:326|11:294,1,140
152,211,106564,5,0,0:0:0:0:
250,157,106701,1,0,0:0:0:0:
356,191,106837,1,0,0:0:0:0:
273,265,106973,5,0,0:0:0:0:
333,83,107110,1,0,0:0:0:0:
460,225,107246,6,0,L|457:248,1,20.9999993591309
447,332,107655,1,0,0:0:0:0:
460,225,107791,6,0,B|489:36|489:36|466:82|424:102,1,280
319,126,108201,2,0,P|290:95|329:121,1,140
298,226,108473,5,0,0:0:0:0:
200,281,108610,1,0,0:0:0:0:
93,248,108746,1,0,0:0:0:0:
298,248,108882,5,0,0:0:0:0:
200,303,109019,1,0,0:0:0:0:
93,270,109155,1,0,0:0:0:0:
28,162,109291,1,0,0:0:0:0:
43,22,109428,6,0,L|49:1,1,20.9999993591309
0,89,109837,1,0,0:0:0:0:
43,22,109973,6,0,B|156:32|156:32|183:9|183:9|201:38|201:38|311:49,1,280
447,203,110382,2,0,P|486:228|446:204,1,140
397,98,110655,2,0,P|399:51|398:98,1,140
332,194,110928,5,0,0:0:0:0:
221,179,111064,1,0,0:0:0:0:
110,164,111201,1,0,0:0:0:0:
178,75,111337,5,0,0:0:0:0:
264,283,111473,1,0,0:0:0:0:
40,253,111610,6,0,L|42:278,1,20.9999993591309
52,360,112019,1,0,0:0:0:0:
40,253,112155,6,0,B|16:58|16:58|31:104|65:129,1,280
164,171,112564,2,0,B|222:214|266:176|266:176|245:178|221:166,1,140
200,67,112837,5,0,0:0:0:0:
305,29,112973,1,0,0:0:0:0:
343,134,113110,1,0,0:0:0:0:
238,172,113246,5,0,0:0:0:0:
305,29,113382,1,0,0:0:0:0:
414,48,113519,1,0,0:0:0:0:
458,165,113655,1,0,0:0:0:0:
399,291,113791,6,0,L|382:305,1,20.9999993591309
463,349,114201,1,0,0:0:0:0:
399,291,114337,6,0,B|336:252|336:252|122:288,1,280
212,346,114746,2,0,P|232:276|186:203,1,140
53,225,115019,2,0,P|33:295|79:368,1,140
132,286,115291,5,0,0:0:0:0:
125,173,115428,1,0,0:0:0:0:
118,60,115564,1,0,0:0:0:0:
24,123,115701,5,0,0:0:0:0:
219,110,115837,1,0,0:0:0:0:
414,97,115973,6,0,L|390:99,1,20.9999993591309
316,103,116382,1,0,0:0:0:0:
414,97,116519,6,0,B|455:108|511:172|503:238|446:258|446:258|409:240|418:198,1,280
414,97,116928,2,0,B|408:29|467:20|467:20|455:41|457:64,1,140
417,202,117201,5,0,0:0:0:0:
352,293,117337,1,0,0:0:0:0:
241,308,117473,1,0,0:0:0:0:
237,102,117610,5,0,0:0:0:0:
406,184,117746,1,0,0:0:0:0:
330,257,117883,1,0,0:0:0:0:
205,274,118019,1,0,0:0:0:0:
68,246,118155,6,0,L|54:225,1,20.9999993591309
14,158,118564,1,0,0:0:0:0:
68,246,118701,6,0,B|85:273|87:316|87:316|194:222|98:119,1,280
43,63,119110,2,0,B|33:20|-30:18|-30:18|-5:24|9:48,1,140
111,135,119382,2,0,B|153:147|186:94|186:94|168:112|140:113,1,140
14,158,119655,5,0,0:0:0:0:
111,135,119791,1,0,0:0:0:0:
230,175,119928,5,0,0:0:0:0:
327,152,120064,1,0,0:0:0:0:
259,80,120201,1,0,0:0:0:0:
298,247,120337,6,0,L|304:270,1,20.9999993591309
328,351,120746,1,0,0:0:0:0:
404,274,120882,6,0,B|460:237|473:181|431:119|387:118|387:118|347:150|386:207,1,280
404,274,121291,2,0,B|410:339|472:354|472:354|456:343|450:320,1,140
373,184,121564,5,0,0:0:0:0:
270,137,121701,1,0,0:0:0:0:
159,153,121837,1,0,0:0:0:0:
240,354,121973,5,0,0:0:0:0:
397,164,122110,1,0,0:0:0:0:
273,107,122247,1,0,0:0:0:0:
140,126,122383,1,0,0:0:0:0:
240,354,122519,5,0,0:0:0:0:
240,354,124701,6,0,P|254:313|245:265,1,70
190,229,125110,1,0,0:0:0:0:
110,311,125246,2,0,P|134:317|161:306,1,35
190,229,125519,2,0,P|168:222|149:225,1,35
63,242,125791,6,0,P|42:252|31:268,1,35
116,344,126064,2,0,P|116:326|109:310,1,35
63,242,126337,2,0,P|50:229|34:222,2,35
196,311,126746,1,0,0:0:0:0:
266,266,126882,6,0,L|262:191,1,70
258,73,127291,1,0,0:0:0:0:
332,32,127428,2,0,L|335:73,1,35
410,103,127701,2,0,P|392:137|347:151,2,70
332,32,128519,5,0,0:0:0:0:
258,73,128791,1,0,0:0:0:0:
90,49,129064,6,0,P|76:89|86:127,1,70
142,172,129473,1,0,0:0:0:0:
258,73,129610,2,0,L|208:78,1,35
259,151,129882,2,0,L|309:146,1,35
241,63,130155,6,0,L|191:68,1,35
273,161,130427,2,0,L|323:156,1,35
241,259,130701,2,0,L|191:254,2,35
392,332,131110,1,0,0:0:0:0:
465,292,131246,2,0,L|474:361,2,70
447,149,132064,6,0,L|443:111,1,20.9999993591309
319,145,132337,6,0,L|343:115,1,28
231,51,132610,6,0,L|269:47,1,35
447,149,132882,5,0,0:0:0:0:
319,145,133155,1,0,0:0:0:0:
231,51,133428,6,0,L|132:59,1,70
97,112,133837,1,0,0:0:0:0:
15,43,133973,2,0,L|22:1,1,35
97,112,134246,2,0,L|90:154,1,35
30,214,134519,6,0,L|54:248,1,35
54,333,134791,2,0,L|95:340,1,35
187,263,135064,2,0,L|145:256,2,35
310,338,135473,1,0,0:0:0:0:
386,304,135610,6,0,L|382:228,1,70
378,104,136019,1,0,0:0:0:0:
297,81,136155,2,0,L|301:128,1,35
459,127,136428,2,0,L|454:54,2,70
297,81,137246,5,0,0:0:0:0:
378,104,137519,1,0,0:0:0:0:
216,58,137791,6,0,P|201:101|211:140,1,70
250,195,138201,1,0,0:0:0:0:
231,332,138337,2,0,P|211:337|191:334,1,35
111,286,138610,2,0,P|93:275|81:259,1,35
58,168,138882,6,0,P|52:148|56:128,1,35
181,96,139155,2,0,P|186:115|183:135,1,35
103,47,139428,2,0,P|113:29|129:17,2,35
271,101,139837,1,0,0:0:0:0:
349,70,139973,2,0,L|341:-1,2,70
365,219,140791,6,0,L|369:260,1,28
455,343,141064,6,0,L|417:325,1,35
290,359,141337,6,0,L|324:336,1,41.9999987182618
365,219,141610,5,0,0:0:0:0:
455,343,141746,1,0,0:0:0:0:
290,359,141882,5,0,0:0:0:0:
191,334,142019,1,0,0:0:0:0:
139,247,142155,5,0,0:0:0:0:
221,229,142428,1,0,0:0:0:0:
83,149,142700,1,0,0:0:0:0:
165,167,142973,1,0,0:0:0:0:
221,69,143246,1,0,0:0:0:0:
139,87,143519,1,0,0:0:0:0:
277,166,143791,1,0,0:0:0:0:
359,148,144064,5,0,0:0:0:0:
400,139,144201,1,0,0:0:0:0:
441,130,144337,2,0,L|423:75,1,35
359,148,144610,2,0,L|377:203,1,35
453,114,144882,2,0,L|435:59,1,35
346,160,145155,2,0,L|364:215,1,35
431,265,145428,2,0,B|445:284|447:304|447:304|478:258|439:205,1,125.999996154785
447,206,145973,5,0,0:0:0:0:
447,206,146110,1,0,0:0:0:0:
375,249,146246,1,0,0:0:0:0:
283,280,146382,1,0,0:0:0:0:
173,273,146519,5,0,0:0:0:0:
91,255,146791,1,0,0:0:0:0:
35,354,147064,1,0,0:0:0:0:
117,336,147336,1,0,0:0:0:0:
147,192,147610,1,0,0:0:0:0:
65,174,147882,1,0,0:0:0:0:
9,273,148155,1,0,0:0:0:0:
91,255,148427,1,0,0:0:0:0:
121,111,148701,6,0,L|118:72,1,35
39,95,149246,1,0,0:0:0:0:
203,95,149519,2,0,P|225:93|244:98,1,35
286,210,149791,2,0,P|273:191|268:172,1,35
342,79,150064,2,0,P|332:99|318:113,1,35
203,95,150337,2,0,P|225:93|244:98,1,35
342,79,150610,2,0,P|358:93|368:110,1,35
427,192,150882,5,0,0:0:0:0:
420,275,151155,1,0,0:0:0:0:
344,351,151428,1,0,0:0:0:0:
337,268,151701,1,0,0:0:0:0:
247,178,151973,1,0,0:0:0:0:
254,261,152246,1,0,0:0:0:0:
164,337,152519,1,0,0:0:0:0:
171,254,152792,1,0,0:0:0:0:
420,275,153064,6,0,L|459:278,1,35
337,268,153337,2,0,L|346:229,1,35
171,254,153610,2,0,L|136:251,1,35
254,261,153882,2,0,L|245:222,1,35
167,106,154155,2,0,L|184:175,1,70
171,254,154564,1,0,0:0:0:0:
207,330,154701,2,0,L|172:327,1,35
79,350,154973,2,0,L|45:353,1,35
46,191,155246,5,0,0:0:0:0:
208,147,155791,1,0,0:0:0:0:
285,196,156337,1,0,0:0:0:0:
123,152,156882,2,0,B|113:170|110:190|110:190|87:132|114:82,1,140
256,192,157564,12,0,159337,0:0:0:0:
183,108,159610,6,0,P|119:100|57:146,1,125.999996154785
46,203,160019,1,0,0:0:0:0:
71,274,160155,2,0,P|76:302|65:337,1,62.9999980773926
46,203,160428,2,0,P|79:198|122:215,1,62.9999980773926
215,301,160701,1,0,0:0:0:0:
283,270,160837,2,0,P|314:216|303:156,1,125.999996154785
304,156,161246,2,0,P|340:166|367:159,2,62.9999980773926
232,131,161655,1,0,0:0:0:0:
310,28,161791,6,0,B|339:2|339:2|335:101,1,125.999996154785
304,156,162201,1,0,0:0:0:0:
232,131,162337,2,0,P|197:121|165:129,1,62.9999980773926
162,257,162610,2,0,P|188:231|197:199,1,62.9999980773926
113,188,162882,1,0,0:0:0:0:
211,326,163019,2,0,P|271:345|334:321,1,125.999996154785
328,325,163428,2,0,P|341:360|335:390,2,62.9999980773926
434,92,163973,6,0,P|456:85|438:97,1,62.9999980773926
384,171,164246,2,0,P|379:193|377:171,1,62.9999980773926
340,88,164519,2,0,P|318:94|336:83,1,62.9999980773926
473,173,164791,2,0,L|465:241,1,62.9999980773926
405,374,165064,2,0,L|391:247,1,125.999996154785
322,217,165473,1,0,0:0:0:0:
262,264,165610,2,0,P|229:267|191:250,1,62.9999980773926
119,242,165882,2,0,P|132:211|166:187,1,62.9999980773926
209,129,166155,6,0,P|228:156|232:197,2,62.9999980773926
133,119,166564,1,0,0:0:0:0:
208,112,166701,2,0,P|233:133|248:172,2,62.9999980773926
120,107,167110,1,0,0:0:0:0:
168,33,167246,5,0,0:0:0:0:
160,186,167791,1,0,0:0:0:0:
297,117,168337,5,0,0:0:0:0:
395,94,168610,1,0,0:0:0:0:
433,263,168882,1,0,0:0:0:0:
365,190,169155,1,0,0:0:0:0:
462,167,169428,5,0,0:0:0:0:
462,167,169564,1,0,0:0:0:0:
336,286,169701,1,0,0:0:0:0:
336,286,169837,1,0,0:0:0:0:
241,252,169973,5,0,0:0:0:0:
145,285,170110,1,0,0:0:0:0:
333,262,170246,1,0,0:0:0:0:
238,228,170382,1,0,0:0:0:0:
142,261,170519,5,0,0:0:0:0:
44,234,170655,1,0,0:0:0:0:
116,162,170791,1,0,0:0:0:0:
142,240,170928,1,0,0:0:0:0:
44,213,171064,5,0,0:0:0:0:
116,141,171200,1,0,0:0:0:0:
44,192,171337,1,0,0:0:0:0:
188,90,171473,2,0,P|254:65|318:103,2,125.999996154785
216,208,172155,2,0,B|250:231|250:231|248:141,1,125.999996154785
244,32,172701,5,0,0:0:0:0:
390,65,172973,1,0,0:0:0:0:
253,50,173246,1,0,0:0:0:0:
399,83,173518,1,0,0:0:0:0:
366,228,173791,5,0,0:0:0:0:
220,195,174064,1,0,0:0:0:0:
375,246,174338,1,0,0:0:0:0:
229,213,174610,1,0,0:0:0:0:
274,356,174882,5,0,0:0:0:0:
165,322,175019,1,0,0:0:0:0:
91,236,175155,1,0,0:0:0:0:
85,123,175291,1,0,0:0:0:0:
202,214,175428,5,0,0:0:0:0:
54,344,175564,1,0,0:0:0:0:
91,236,175701,1,0,0:0:0:0:
128,128,175837,1,0,0:0:0:0:
278,300,175973,5,0,0:0:0:0:
313,197,177064,6,0,B|320:130|283:79|220:67|180:94|180:94|191:149|245:159,1,280
224,248,177473,1,0,0:0:0:0:
312,299,177609,2,0,B|377:332|421:302|421:302|403:305|382:302,1,140
224,248,177882,2,0,B|162:287|166:340|166:340|173:323|186:307,1,140
313,198,178154,5,0,0:0:0:0:
347,105,178291,1,0,0:0:0:0:
410,180,178427,1,0,0:0:0:0:
461,40,178564,1,0,0:0:0:0:
313,198,178700,2,0,B|290:245|290:245|306:347,2,140
347,105,179109,1,0,0:0:0:0:
283,31,179245,6,0,B|190:-5|190:-5|212:174,1,280
229,312,179654,1,0,0:0:0:0:
229,312,179723,1,0,0:0:0:0:
229,312,179791,2,0,L|211:168,1,140
79,48,180064,5,0,0:0:0:0:
57,214,180200,1,0,0:0:0:0:
12,98,180336,1,0,0:0:0:0:
101,49,180473,1,0,0:0:0:0:
79,215,180609,1,0,0:0:0:0:
146,165,180745,1,0,0:0:0:0:
124,331,180882,5,0,0:0:0:0:
57,214,181018,1,0,0:0:0:0:
146,165,181154,1,0,0:0:0:0:
257,151,181291,1,0,0:0:0:0:
375,192,181427,6,0,B|408:238|396:278|396:278|455:242|469:194|451:152|411:119,1,280
328,77,181836,1,0,0:0:0:0:
257,151,181973,2,0,P|258:223|331:248,1,140
328,77,182245,2,0,P|260:45|186:74,1,140
122,142,182518,5,0,0:0:0:0:
31,178,182654,1,0,0:0:0:0:
108,238,182791,1,0,0:0:0:0:
244,184,182927,1,0,0:0:0:0:
92,255,183064,2,0,B|56:291|56:291|40:381,2,140
190,258,183473,1,0,0:0:0:0:
282,268,183609,6,0,B|374:278|424:364|424:364|411:306|445:248,1,280
461,109,184018,2,0,P|460:83|454:67,1,35
462,129,184154,2,0,P|459:200|434:268,1,140
343,183,184427,5,0,0:0:0:0:
345,34,184564,1,0,0:0:0:0:
273,77,184700,1,0,0:0:0:0:
271,226,184836,1,0,0:0:0:0:
199,269,184972,1,0,0:0:0:0:
201,120,185109,1,0,0:0:0:0:
369,200,185245,5,0,0:0:0:0:
281,251,185382,1,0,0:0:0:0:
194,304,185518,1,0,0:0:0:0:
85,276,185654,1,0,0:0:0:0:
33,160,185791,6,0,B|-7:76|14:-6|104:-28|177:59|80:118,1,280
51,173,186200,1,0,0:0:0:0:
147,190,186336,2,0,L|291:174,1,140
324,84,186609,2,0,L|180:100,1,140
147,190,186882,5,0,0:0:0:0:
160,286,187018,1,0,0:0:0:0:
237,227,187154,1,0,0:0:0:0:
256,370,187291,1,0,0:0:0:0:
225,131,187427,2,0,B|215:79|215:79|241:-4,2,140
237,227,187836,1,0,0:0:0:0:
327,264,187973,6,0,B|399:295|399:295|384:157|384:157|321:189,1,280
480,290,188382,1,0,0:0:0:0:
480,290,188450,1,0,0:0:0:0:
480,290,188518,2,0,L|464:134,1,140
418,42,188791,5,0,0:0:0:0:
252,66,188927,1,0,0:0:0:0:
188,121,189064,1,0,0:0:0:0:
335,55,189200,1,0,0:0:0:0:
426,61,189336,1,0,0:0:0:0:
260,85,189472,1,0,0:0:0:0:
192,140,189609,5,0,0:0:0:0:
339,74,189745,1,0,0:0:0:0:
178,53,189882,1,0,0:0:0:0:
96,106,190018,1,0,0:0:0:0:
110,216,190154,6,0,B|181:359|60:401|-12:341|159:299,1,280
231,337,190564,1,0,0:0:0:0:
317,290,190700,2,0,B|349:226|349:226|317:162,1,140
145,164,190973,2,0,B|184:223|184:223|255:228,1,140
341,79,191245,5,0,0:0:0:0:
231,140,191382,1,0,0:0:0:0:
233,15,191518,1,0,0:0:0:0:
252,227,191654,1,0,0:0:0:0:
317,290,191791,2,0,B|349:226|349:226|317:162,2,140
252,227,192200,1,0,0:0:0:0:
231,140,192336,6,0,B|269:83|269:83|341:78|341:78|410:84|410:84|450:145,1,280
450,166,192745,2,0,L|446:210,1,35
448,142,192882,2,0,B|409:83|409:83|341:79,1,140
156,92,193154,5,0,0:0:0:0:
86,246,193291,1,0,0:0:0:0:
72,104,193427,1,0,0:0:0:0:
165,75,193564,1,0,0:0:0:0:
95,229,193701,1,0,0:0:0:0:
264,213,193836,1,0,0:0:0:0:
211,147,193973,5,0,0:0:0:0:
86,246,194109,1,0,0:0:0:0:
255,230,194244,1,0,0:0:0:0:
305,151,194382,1,0,0:0:0:0:
220,307,194518,6,0,L|227:338,1,31.4999990386963
347,236,195064,6,0,B|372:261|369:307|369:307|459:211|369:99,1,280
260,72,195473,2,0,P|307:108|395:119,1,140
491,38,195745,2,0,P|435:61|381:131,1,140
347,236,196018,5,0,0:0:0:0:
123,252,196154,1,0,0:0:0:0:
235,244,196291,1,0,0:0:0:0:
173,152,196427,5,0,0:0:0:0:
297,336,196564,1,0,0:0:0:0:
395,137,196700,6,0,L|397:112,1,20.9999993591309
401,28,197109,1,0,0:0:0:0:
395,137,197245,6,0,B|335:172|335:172|116:130,1,280
32,4,197654,2,0,L|200:39,1,140
128,132,197927,5,0,0:0:0:0:
169,32,198064,1,0,0:0:0:0:
87,232,198200,1,0,0:0:0:0:
195,218,198336,5,0,0:0:0:0:
299,259,198473,1,0,0:0:0:0:
72,209,198609,1,0,0:0:0:0:
201,192,198745,1,0,0:0:0:0:
326,241,198882,6,0,L|324:265,1,20.9999993591309
316,350,199291,1,0,0:0:0:0:
326,241,199427,6,0,B|361:207|411:192|467:208|490:250|490:250|473:313|398:271,1,280
326,241,199836,2,0,P|290:175|307:116,1,140
380,35,200109,2,0,P|416:101|399:160,1,140
190,187,200382,5,0,0:0:0:0:
147,98,200518,1,0,0:0:0:0:
245,105,200654,1,0,0:0:0:0:
92,180,200791,5,0,0:0:0:0:
202,16,200927,1,0,0:0:0:0:
288,194,201064,6,0,L|286:216,1,20.9999993591309
278,303,201473,1,0,0:0:0:0:
288,194,201609,6,0,B|221:164|221:164|13:212,1,280
0,360,202018,2,0,L|143:327,1,140
278,303,202291,5,0,0:0:0:0:
288,194,202427,1,0,0:0:0:0:
387,366,202564,1,0,0:0:0:0:
377,257,202700,5,0,0:0:0:0:
260,304,202836,1,0,0:0:0:0:
270,195,202972,1,0,0:0:0:0:
319,78,203109,1,0,0:0:0:0:
450,30,203245,6,0,L|456:50,1,20.9999993591309
480,135,203654,1,0,0:0:0:0:
450,30,203791,6,0,P|377:16|301:53,1,140
330,233,204064,2,0,P|378:176|384:92,1,140
214,27,204337,2,0,P|238:97|308:144,1,140
450,240,204609,5,0,0:0:0:0:
330,233,204745,1,0,0:0:0:0:
264,348,204882,1,0,0:0:0:0:
384,341,205018,5,0,0:0:0:0:
210,240,205154,1,0,0:0:0:0:
36,341,205291,1,0,0:0:0:0:
208,227,205427,6,0,L|204:205,1,20.9999993591309
188,119,205836,1,0,0:0:0:0:
208,227,205973,6,0,B|280:252|280:252|491:181,1,280
481,33,206382,2,0,L|347:79,1,140
188,119,206654,5,0,0:0:0:0:
76,131,206791,1,0,0:0:0:0:
64,19,206927,1,0,0:0:0:0:
192,139,207064,5,0,0:0:0:0:
57,153,207201,1,0,0:0:0:0:
43,19,207337,1,0,0:0:0:0:
192,139,207473,1,0,0:0:0:0:
71,287,207609,6,0,L|60:307,1,20.9999993591309
14,381,208018,1,0,0:0:0:0:
71,287,208154,6,0,P|136:264|205:300,1,140
281,349,208427,2,0,P|343:375|408:350,1,140
359,244,208700,2,0,P|362:279|363:248,1,140
357,123,208973,5,0,0:0:0:0:
133,141,209109,1,0,0:0:0:0:
245,132,209245,1,0,0:0:0:0:
182,40,209382,5,0,0:0:0:0:
196,233,209518,1,0,0:0:0:0:
357,123,209654,1,0,0:0:0:0:
182,40,209791,6,0,L|158:44,1,20.9999993591309
73,54,210200,1,0,0:0:0:0:
182,40,210336,6,0,B|204:133|138:206|138:206|191:180|252:208,1,280
216,300,210745,2,0,P|188:279|216:304,1,140
342,286,211018,5,0,0:0:0:0:
416,104,211154,1,0,0:0:0:0:
328,58,211291,1,0,0:0:0:0:
325,280,211427,5,0,0:0:0:0:
394,121,211563,1,0,0:0:0:0:
308,73,211700,1,0,0:0:0:0:
196,75,211836,1,0,0:0:0:0:
90,145,211973,5,0,0:0:0:0:
