osu file format v14

[General]
AudioFilename: audio.mp3
AudioLeadIn: 0
PreviewTime: 143768
Countdown: 0
SampleSet: Soft
StackLeniency: 0.8
Mode: 0
LetterboxInBreaks: 0
WidescreenStoryboard: 0

[Editor]
Bookmarks: 9982,17851,33589,49327,65064,96540,112278,120146,128015,143753,159491,214573
DistanceSpacing: 1.9
BeatDivisor: 4
GridSize: 16
TimelineZoom: 1.4

[Metadata]
Title:Makuramoto ni Ghost
TitleUnicode:枕元にゴースト
Artist:Aiobahn & Yunomi
ArtistUnicode:Aiobahn & Yunomi
Creator:Mentai
Version:Insane
Source:
Tags:a ghost at the bedside nicamoq future house electronic snownino_
BeatmapID:1347140
BeatmapSetID:632102

[Difficulty]
HPDrainRate:6
CircleSize:4
OverallDifficulty:7
ApproachRate:9.2
SliderMultiplier:2.7
SliderTickRate:1

[Events]
//Background and Video events
0,0,"EYVv0i.jpg",0,0
//Break Periods
2,143967,158936
//Storyboard Layer 0 (Background)
//Storyboard Layer 1 (Fail)
//Storyboard Layer 2 (Pass)
//Storyboard Layer 3 (Foreground)
//Storyboard Sound Samples

[TimingPoints]
2129,491.803278688525,4,2,1,50,1,0
9997,-100,4,2,1,60,0,0
17375,-100,4,2,1,80,0,0
19834,-117.647058823529,4,2,1,80,0,0
21555,-100,4,2,1,80,0,0
23768,-117.647058823529,4,2,1,80,0,0
25489,-100,4,2,1,80,0,0
27702,-117.647058823529,4,2,1,80,0,0
29424,-100,4,2,1,80,0,0
31637,-117.647058823529,4,2,1,80,0,0
33604,-133.333333333333,4,2,1,50,0,0
49342,-117.647058823529,4,2,1,50,0,0
64588,-117.647058823529,4,2,2,30,0,0
65079,-117.647058823529,4,2,2,50,0,0
78850,-117.647058823529,4,2,1,50,0,0
80325,-117.647058823529,4,2,2,50,0,0
80817,-86.9565217391304,4,2,1,75,0,1
87579,-117.647058823529,4,2,1,75,0,1
88686,-86.9565217391304,4,2,1,75,0,1
95325,-117.647058823529,4,2,1,75,0,1
96555,-100,4,2,1,80,0,0
98522,-117.647058823529,4,2,1,80,0,0
100243,-100,4,2,1,80,0,0
102456,-117.647058823529,4,2,1,80,0,0
104178,-100,4,2,1,80,0,0
106391,-117.647058823529,4,2,1,80,0,0
108112,-100,4,2,1,80,0,0
110325,-117.647058823529,4,2,1,80,0,0
112293,-153.846153846153,4,2,2,40,0,0
112784,-153.846153846153,4,2,2,40,0,0
129014,-153.846153846153,4,2,1,40,0,0
135899,-153.846153846153,4,2,2,40,0,0
140817,-133.333333333333,4,2,2,50,0,0
141309,-117.647058823529,4,2,2,60,0,0
141801,-105.263157894736,4,2,2,70,0,0
142293,-95.2380952380949,4,2,2,80,0,0
142784,-86.9565217391304,4,2,2,90,0,0
143768,-86.9565217391304,4,2,2,100,0,0
144014,-86.9565217391304,4,2,2,40,0,0
159506,-117.647058823529,4,2,2,50,0,0
175243,-86.9565217391304,4,2,1,75,0,1
182006,-117.647058823529,4,2,1,75,0,1
183112,-86.9565217391303,4,2,1,75,0,1
189875,-117.647058823529,4,2,1,75,0,1
190981,-100,4,2,2,75,0,0
191227,-100,4,2,1,75,0,0
192948,-117.647058823529,4,2,1,75,0,0
194670,-100,4,2,1,75,0,0
196883,-117.647058823529,4,2,1,75,0,0
198604,-100,4,2,1,75,0,0
200817,-117.647058823529,4,2,1,75,0,0
202538,-100,4,2,1,75,0,0
204752,-117.647058823529,4,2,1,75,0,0
206719,-133.333333333333,4,2,2,75,0,0
214588,-133.333333333333,4,2,1,75,0,0
222456,-86.9565217391303,4,2,1,75,0,0

[Colours]
Combo1 : 168,37,218
Combo2 : 19,4,198
Combo3 : 125,27,245
Combo4 : 29,102,237

[HitObjects]
64,132,9997,5,0,0:0:0:0:
64,132,10981,1,0,0:0:0:0:
144,188,11473,1,0,0:0:0:0:
216,124,11965,5,0,0:0:0:0:
138,75,12456,1,2,0:0:0:0:
144,188,12702,1,2,0:0:0:0:
153,301,12948,1,2,0:0:0:0:
153,301,13932,5,0,0:0:0:0:
153,301,14915,1,0,0:0:0:0:
233,245,15407,1,0,0:0:0:0:
305,309,15899,5,0,0:0:0:0:
368,240,16391,2,0,L|462:233,2,90,2|0|0,0:0|0:0|0:0,0:0:0:0:
305,309,16883,1,2,0:0:0:0:
230,118,17866,6,0,L|234:42,2,67.5,6|0|0,1:0|0:0|0:0,0:0:0:0:
116,169,18235,1,0,0:0:0:0:
236,243,18358,2,0,P|312:229|369:240,1,135,14|0,1:2|0:0,0:0:0:0:
432,343,18727,1,2,0:0:0:0:
487,204,18850,6,0,P|493:164|485:125,1,67.5,2|0,1:0|0:0,0:0:0:0:
376,38,19096,2,0,P|370:78|378:117,1,67.5,2|0,0:0|0:0,0:0:0:0:
268,210,19342,2,0,P|274:170|266:131,1,67.5,10|0,1:2|0:0,0:0:0:0:
179,24,19588,1,2,0:0:0:0:
105,120,19711,1,0,0:0:0:0:
252,68,19834,6,0,B|318:51|390:68|390:68|376:37,1,172.125003283024,2|0,1:0|0:0,0:0:0:0:
433,147,20325,2,0,P|479:79|452:1,1,172.125003283024,10|0,1:2|0:0,0:0:0:0:
325,146,20817,2,0,B|343:196|316:232|316:232|355:274|355:274|329:318|367:375,1,229.500004377365,2|8,1:2|1:2,0:0:0:0:
132,328,21555,2,0,L|134:253,1,67.5,0|0,0:0|0:0,0:0:0:0:
104,141,21801,6,0,P|141:134|179:145,2,67.5,2|0|2,1:0|0:0|0:0,0:0:0:0:
5,217,22170,1,0,0:0:0:0:
63,80,22293,2,0,P|134:61|207:77,1,135,10|0,1:2|0:0,0:0:0:0:
278,159,22661,1,2,0:0:0:0:
336,37,22784,6,0,L|417:29,1,67.5,2|0,1:0|0:0,0:0:0:0:
493,132,23030,2,0,L|425:138,1,67.5,2|0,0:0|0:0,0:0:0:0:
367,259,23276,2,0,L|448:251,1,67.5,10|0,1:2|0:0,0:0:0:0:
508,365,23522,1,2,0:0:0:0:
400,352,23645,1,0,0:0:0:0:
508,270,23768,6,0,B|517:217|494:194|475:183|457:175|457:175|490:151|497:117,1,172.125003283024,2|0,1:0|0:0,0:0:0:0:
457,51,24260,1,10,1:2:0:0:
288,109,24506,1,2,0:0:0:0:
288,109,24629,1,2,0:0:0:0:
288,109,24752,2,0,B|164:81|174:137|57:105,1,229.500004377365,2|8,1:0|1:2,0:0:0:0:
42,250,25489,2,0,L|109:254,1,67.5,0|0,0:0|0:0,0:0:0:0:
202,311,25735,6,0,L|269:307,2,67.5,6|0|2,1:0|0:0|0:0,0:0:0:0:
113,361,26104,1,0,0:0:0:0:
42,250,26227,2,0,P|35:172|66:113,1,135,14|0,1:2|0:0,0:0:0:0:
179,84,26596,1,2,0:0:0:0:
289,153,26719,6,0,P|329:159|368:151,1,67.5,2|0,1:0|0:0,0:0:0:0:
483,233,26965,2,0,P|443:227|404:235,1,67.5,2|0,0:0|0:0,0:0:0:0:
287,307,27211,2,0,P|320:310|353:304,1,67.5,10|0,1:2|0:0,0:0:0:0:
479,380,27456,1,2,0:0:0:0:
447,298,27579,1,0,0:0:0:0:
333,384,27702,6,0,B|291:392|258:389|235:366|215:352|215:352|196:359|180:381,1,172.125003283024,2|0,1:0|0:0,0:0:0:0:
286,307,28194,2,0,P|214:276|133:321,1,172.125003283024,10|0,1:2|0:0,0:0:0:0:
333,384,28686,2,0,B|366:357|376:320|377:291|343:235|343:235|364:258|404:267,1,229.500004377365,2|8,1:0|1:2,0:0:0:0:
493,85,29424,2,0,L|421:86,1,67.5,0|0,0:0|0:0,0:0:0:0:
317,120,29670,6,0,P|310:87|317:54,2,67.5,2|0|2,1:0|0:0|0:0,0:0:0:0:
348,235,30038,1,0,0:0:0:0:
217,195,30161,2,0,P|146:182|82:202,1,135,10|0,1:2|0:0,0:0:0:0:
4,289,30530,1,2,0:0:0:0:
116,341,30653,6,0,L|108:260,1,67.5,2|0,1:0|0:0,0:0:0:0:
217,195,30899,2,0,L|223:263,1,67.5,2|0,0:0|0:0,0:0:0:0:
354,302,31145,2,0,L|346:221,1,67.5,10|0,1:2|0:0,0:0:0:0:
435,109,31391,1,2,0:0:0:0:
466,229,31514,1,0,0:0:0:0:
317,120,31637,6,0,B|274:129|236:105|236:105|202:127|150:119,1,172.125003283024,2|0,1:0|0:0,0:0:0:0:
65,162,32129,1,10,1:2:0:0:
129,36,32375,1,2,0:0:0:0:
129,36,32497,1,2,0:0:0:0:
129,36,32620,2,0,B|183:47|237:15|237:15|286:49|358:26,1,229.500004377365,2|8,1:2|1:2,0:0:0:0:
470,157,33604,5,2,1:0:0:0:
400,97,33850,1,0,0:0:0:0:
400,97,33973,1,0,0:0:0:0:
400,97,34096,1,2,1:0:0:0:
372,194,34342,1,0,0:0:0:0:
372,194,34465,1,0,0:0:0:0:
372,194,34588,2,0,P|328:220|226:234,2,151.875005793572,2|2|2,1:0|0:0|0:0,0:0:0:0:
449,261,35571,6,0,P|455:298|438:365,1,101.250003862381,2|0,1:0|0:0,0:0:0:0:
370,304,35940,2,0,P|336:323|258:334,1,101.250003862381,2|0,0:0|0:0,0:0:0:0:
200,285,36309,1,2,0:0:0:0:
200,285,36555,2,0,B|225:250|225:250|181:234|181:234|226:179|174:109,1,202.500007724762,2|0,1:0|1:0,0:0:0:0:
37,24,37538,5,0,1:0:0:0:
0,118,37784,2,0,L|8:222,1,101.250003862381,2|0,0:0|1:0,0:0:0:0:
95,281,38276,2,0,L|103:177,1,101.250003862381,2|0,0:0|1:0,0:0:0:0:
188,112,38768,1,0,0:0:0:0:
188,112,38891,1,0,0:0:0:0:
188,112,39014,1,2,1:0:0:0:
216,209,39260,1,0,0:0:0:0:
216,209,39383,1,0,0:0:0:0:
216,209,39506,6,0,P|274:221|316:207,1,101.250003862381,2|0,1:0|0:0,0:0:0:0:
389,159,39875,2,0,P|401:207|389:255,1,101.250003862381,2|0,0:0|0:0,0:0:0:0:
311,304,40243,1,2,0:0:0:0:
311,304,40489,2,0,B|236:327|163:277|163:277|176:307|176:338,1,202.500007724762,2|0,1:0|1:0,0:0:0:0:
150,121,41473,5,2,1:0:0:0:
220,61,41719,1,0,0:0:0:0:
220,61,41842,1,0,0:0:0:0:
220,61,41965,1,2,1:0:0:0:
248,158,42211,1,0,0:0:0:0:
248,158,42334,1,0,0:0:0:0:
248,158,42456,2,0,B|320:169|320:169|406:149,2,151.875005793572,2|2|2,1:0|0:0|0:0,0:0:0:0:
154,197,43440,6,0,L|171:304,1,101.250003862381,2|0,1:0|0:0,0:0:0:0:
217,373,43809,2,0,P|168:385|120:372,1,101.250003862381,2|0,0:0|0:0,0:0:0:0:
65,296,44178,1,2,0:0:0:0:
65,296,44424,2,0,B|55:226|55:226|71:172|71:172|61:90,1,202.500007724762,2|2,1:0|1:0,0:0:0:0:
122,16,45161,1,2,0:0:0:0:
176,101,45407,6,0,B|230:128|274:102|315:76|378:108,1,202.500007724762,2|2,1:0|1:0,0:0:0:0:
448,36,46145,1,2,0:0:0:0:
351,6,46391,2,0,P|293:89|325:196,1,202.500007724762,2|2,1:0|1:0,0:0:0:0:
382,257,47129,1,2,0:0:0:0:
284,283,47375,6,0,P|228:297|180:283,1,101.250003862381,2|0,1:0|0:0,0:0:0:0:
113,339,47743,2,0,P|99:283|113:235,1,101.250003862381,2|0,0:0|0:0,0:0:0:0:
192,201,48112,1,2,0:0:0:0:
192,201,48358,2,0,B|210:120|189:44|189:44|207:65|235:77,1,202.500007724762,2|8,1:0|0:0,0:0:0:0:
447,18,49342,6,0,L|458:93,1,57.3750010943413,2|0,1:0|0:0,0:0:0:0:
378,114,49588,2,0,L|367:189,1,57.3750010943413,2|0,0:0|0:0,0:0:0:0:
442,218,49834,2,0,P|458:277|436:332,1,114.750002188683,10|0,1:2|0:0,0:0:0:0:
360,358,50202,1,2,0:0:0:0:
369,272,50325,1,2,1:2:0:0:
289,305,50448,2,0,P|230:321|175:299,1,114.750002188683,2|2,0:0|0:0,0:0:0:0:
105,261,50817,1,8,1:2:0:0:
105,261,51309,6,0,L|94:186,1,57.3750010943413,2|0,1:0|0:0,0:0:0:0:
174,165,51555,2,0,L|185:90,1,57.3750010943413,2|0,0:0|0:0,0:0:0:0:
130,38,51801,2,0,P|189:22|244:44,1,114.750002188683,10|0,1:2|0:0,0:0:0:0:
276,117,52170,1,2,0:0:0:0:
330,50,52293,1,2,1:2:0:0:
372,124,52415,2,0,P|388:183|366:238,1,114.750002188683,2|2,0:0|0:0,0:0:0:0:
314,298,52784,1,8,1:2:0:0:
314,298,53276,5,2,1:2:0:0:
221,366,53522,1,0,0:0:0:0:
221,366,53645,1,0,0:0:0:0:
221,366,53768,1,10,1:2:0:0:
214,251,54014,1,0,0:0:0:0:
214,251,54137,1,0,0:0:0:0:
214,251,54260,2,0,P|196:188|218:132,1,114.750002188683,2|0,1:2|0:0,0:0:0:0:
267,69,54629,2,0,P|204:51|148:73,1,114.750002188683,2|0,0:0|0:0,0:0:0:0:
114,142,54997,2,0,P|103:187|112:216,1,57.3750010943413,2|0,0:0|0:0,0:0:0:0:
115,303,55243,5,2,1:0:0:0:
115,303,55366,1,0,0:0:0:0:
195,241,55489,1,2,0:0:0:0:
195,241,55612,1,0,0:0:0:0:
286,307,55735,2,0,L|348:308,1,57.3750010943413,10|0,1:2|0:0,0:0:0:0:
400,235,55981,1,2,0:0:0:0:
461,303,56104,2,0,P|489:250|439:153,1,172.125003283024,2|0,0:0|0:0,0:0:0:0:
270,74,56719,1,8,1:2:0:0:
270,74,57211,6,0,L|195:63,1,57.3750010943413,2|0,1:0|0:0,0:0:0:0:
174,143,57456,2,0,L|99:154,1,57.3750010943413,2|0,0:0|0:0,0:0:0:0:
47,100,57702,2,0,P|30:154|48:207,1,114.750002188683,10|0,1:2|0:0,0:0:0:0:
180,318,58194,2,0,L|255:329,1,57.3750010943413,2|0,1:0|0:0,0:0:0:0:
300,267,58440,1,2,0:0:0:0:
230,215,58563,2,0,P|256:133|205:61,1,172.125003283024,2|0,0:0|0:0,0:0:0:0:
55,43,59178,6,0,L|44:118,1,57.3750010943413,2|0,1:0|0:0,0:0:0:0:
117,151,59424,2,0,L|128:226,1,57.3750010943413,2|0,0:0|0:0,0:0:0:0:
65,270,59670,1,10,1:2:0:0:
65,270,59793,1,2,0:0:0:0:
146,298,59915,2,0,L|202:289,1,57.3750010943413,2|0,0:0|0:0,0:0:0:0:
333,352,60161,2,0,L|276:360,1,57.3750010943413,2|0,1:2|0:0,0:0:0:0:
184,383,60407,1,2,0:0:0:0:
295,276,60530,2,0,B|358:268|358:268|390:252|390:252|465:244,1,172.125003283024,2|0,0:0|0:0,0:0:0:0:
459,52,61145,6,0,B|410:77|341:54|341:54|360:74|367:109,1,172.125003283024,2|0,1:2|0:0,0:0:0:0:
418,166,61637,2,0,P|359:182|304:160,1,114.750002188683,10|0,1:2|0:0,0:0:0:0:
175,56,62129,2,0,B|146:106|180:159|222:215|166:300,1,229.500004377365,2|8,1:0|1:2,0:0:0:0:
100,384,62866,1,2,0:0:0:0:
123,219,63112,6,0,P|176:201|230:217,1,114.750002188683,2|0,0:0|0:0,0:0:0:0:
288,282,63481,2,0,P|341:299|395:283,1,114.750002188683,2|0,0:0|0:0,0:0:0:0:
458,223,63850,1,2,0:0:0:0:
458,223,64096,2,0,B|485:186|485:186|432:158|432:158|473:101|436:38,1,229.500004377365,2|8,0:0|0:0,0:0:0:0:
209,16,65079,5,8,0:0:0:0:
225,31,65571,1,8,0:0:0:0:
241,46,66063,1,8,0:0:0:0:
257,61,66555,1,8,0:0:0:0:
273,77,67047,1,8,0:0:0:0:
289,92,67538,1,8,0:0:0:0:
305,107,68030,1,8,0:0:0:0:
321,122,68522,1,8,0:0:0:0:
254,197,69014,5,8,0:0:0:0:
238,212,69506,1,8,0:0:0:0:
222,227,69997,1,8,0:0:0:0:
206,242,70489,1,8,0:0:0:0:
190,258,70981,1,8,0:0:0:0:
174,273,71473,1,8,0:0:0:0:
158,288,71965,1,8,0:0:0:0:
142,303,72456,1,8,0:0:0:0:
75,225,72948,5,10,0:0:0:0:
101,115,73194,1,8,0:0:0:0:
178,227,73440,1,10,0:0:0:0:
204,117,73686,1,8,0:0:0:0:
58,238,73932,5,10,0:0:0:0:
91,101,74178,1,10,0:0:0:0:
187,241,74424,1,10,0:0:0:0:
187,241,74670,1,10,0:0:0:0:
239,114,74915,5,10,0:0:0:0:
351,100,75161,1,10,0:0:0:0:
272,211,75407,1,10,0:0:0:0:
384,198,75653,1,10,0:0:0:0:
220,103,75899,5,8,0:0:0:0:
361,87,76145,1,10,0:0:0:0:
261,225,76391,1,10,0:0:0:0:
261,225,76637,1,10,0:0:0:0:
403,213,76883,6,8,L|466:206,1,57.3750010943413,10|8,0:0|0:0,0:0:0:0:
361,87,77129,2,8,L|303:93,1,57.3750010943413,10|8,0:0|0:0,0:0:0:0:
203,231,77375,2,8,L|266:224,1,57.3750010943413,10|8,0:0|0:0,0:0:0:0:
161,105,77620,2,8,L|103:111,1,57.3750010943413,10|8,0:0|0:0,0:0:0:0:
77,273,77866,6,8,L|84:336,1,57.3750010943413,8|8,0:0|0:0,0:0:0:0:
203,231,78112,2,8,L|196:173,1,57.3750010943413,10|8,0:0|0:0,0:0:0:0:
105,112,78358,1,10,0:0:0:0:
105,112,78481,1,8,0:0:0:0:
186,31,78604,1,10,0:0:0:0:
186,31,78727,1,8,0:0:0:0:
275,102,78850,6,8,L|335:96,5,38.2500007295609,10|8|8|10|8|8,0:0|0:0|0:0|0:0|0:0|0:0,0:0:0:0:
234,170,79342,2,8,L|195:173,5,38.2500007295609,10|8|8|10|8|8,0:0|0:0|0:0|0:0|0:0|0:0,0:0:0:0:
293,220,79834,2,0,B|337:283|283:376|283:376|306:348|355:336,1,229.500004377365,0|8,1:0|0:0,0:0:0:0:
459,160,80817,6,0,P|465:117|458:78,1,77.6250014805794,6|0,1:2|0:0,0:0:0:0:
332,35,81063,1,2,0:0:0:0:
421,0,81186,1,2,0:0:0:0:
368,123,81309,2,0,P|356:205|390:272,1,155.250002961159,10|0,1:2|0:0,0:0:0:0:
455,363,81678,1,2,0:0:0:0:
338,371,81801,6,0,P|255:382|189:349,1,155.250002961159,2|0,1:0|0:0,0:0:0:0:
91,286,82170,2,0,L|95:208,1,77.6250014805794,2|8,0:0|1:2,0:0:0:0:
208,89,82415,2,0,P|213:126|212:166,1,77.6250014805794,0|2,0:0|0:0,0:0:0:0:
271,271,82661,1,0,0:0:0:0:
192,352,82784,5,2,1:0:0:0:
373,311,82907,2,0,P|426:227|422:151,1,155.250002961159,2|0,0:0|0:0,0:0:0:0:
312,22,83276,1,10,1:2:0:0:
462,61,83399,1,2,0:0:0:0:
294,138,83522,1,2,0:0:0:0:
294,138,83645,6,0,B|209:154|145:130|145:130|176:155|184:204,1,232.875004441738,2|0,0:0|0:0,0:0:0:0:
198,294,84137,2,0,B|102:292|88:201,2,155.250002961159,2|2|2,0:0|0:0|0:0,0:0:0:0:
295,338,84752,5,2,1:0:0:0:
183,200,84875,1,0,0:0:0:0:
359,263,84997,2,0,L|435:275,1,77.6250014805794,0|0,0:0|0:0,0:0:0:0:
352,157,85243,2,0,L|274:170,1,77.6250014805794,10|0,1:2|0:0,0:0:0:0:
251,62,85489,2,0,L|173:49,1,77.6250014805794,2|0,0:0|0:0,0:0:0:0:
105,144,85735,2,0,P|98:182|104:220,2,77.6250014805794,2|2|2,1:2|0:0|0:0,0:0:0:0:
186,270,86104,2,0,P|121:315|48:298,1,155.250002961159,2|0,0:0|0:0,0:0:0:0:
10,180,86473,2,0,P|4:141|10:103,1,77.6250014805794,2|0,0:0|0:0,0:0:0:0:
97,24,86719,5,2,1:0:0:0:
97,24,86842,2,0,B|142:26|142:26|183:43|183:43|269:48,1,155.250002961159,2|0,0:0|0:0,0:0:0:0:
359,87,87211,2,0,P|364:48|358:10,1,77.6250014805794,10|0,1:2|0:0,0:0:0:0:
263,133,87456,1,2,0:0:0:0:
352,197,87579,6,0,B|318:251|339:324|339:324|351:289|372:271,1,172.125003283024,2|0,0:0|0:0,0:0:0:0:
464,171,88194,1,8,1:2:0:0:
464,171,88686,5,2,1:0:0:0:
351,261,88809,1,0,0:0:0:0:
357,132,88932,2,0,L|362:54,1,77.6250014805794,0|0,0:0|0:0,0:0:0:0:
240,219,89178,2,0,P|233:257|239:295,1,77.6250014805794,10|0,1:2|0:0,0:0:0:0:
321,370,89424,1,2,0:0:0:0:
167,366,89547,1,2,0:0:0:0:
351,261,89670,6,0,P|431:285|498:257,1,155.250002961159,2|0,1:0|0:0,0:0:0:0:
429,75,90038,2,0,B|422:195|422:195|453:174,1,155.250002961159,2|0,0:0|0:0,0:0:0:0:
466,1,90407,2,0,P|425:-8|389:2,1,77.6250014805794,2|0,0:0|0:0,0:0:0:0:
305,95,90653,5,2,1:0:0:0:
208,37,90776,2,0,P|144:37|90:108,1,155.250002961159,2|0,0:0|0:0,0:0:0:0:
143,271,91145,1,10,1:2:0:0:
178,121,91268,1,2,0:0:0:0:
49,197,91391,1,2,0:0:0:0:
49,197,91514,6,0,B|0:311|71:386|71:386|106:351,1,232.875004441738,2|0,0:0|0:0,0:0:0:0:
143,271,92006,2,0,P|227:252|298:274,2,155.250002961159,2|2|2,0:0|0:0|0:0,0:0:0:0:
49,197,92620,5,2,1:0:0:0:
6,95,92743,1,0,0:0:0:0:
141,194,92866,2,0,P|147:236|139:282,1,77.6250014805794,0|0,0:0|0:0,0:0:0:0:
69,355,93112,2,0,P|153:374|224:352,1,155.250002961159,10|2,1:2|0:0,0:0:0:0:
291,270,93481,1,2,0:0:0:0:
141,194,93604,6,0,P|143:97|176:32,1,155.250002961159,2|0,1:0|0:0,0:0:0:0:
332,8,93973,2,0,B|307:80|364:80|319:189,1,155.250002961159,2|0,0:0|0:0,0:0:0:0:
367,270,94342,2,0,P|328:275|290:269,1,77.6250014805794,2|0,0:0|0:0,0:0:0:0:
149,321,94588,5,2,0:0:0:0:
149,321,94711,1,2,0:0:0:0:
149,321,94834,2,0,P|187:315|225:321,1,77.6250014805794,2|0,0:0|0:0,0:0:0:0:
367,270,95079,2,0,L|386:193,1,77.6250014805794,2|2,0:0|0:0,0:0:0:0:
431,382,95448,6,0,B|398:147|398:147|391:199|368:214,1,286.875005471707,2|0,0:0|0:0,0:0:0:0:
120,44,96555,6,0,L|49:39,2,67.5,2|0|0,1:2|0:0|0:0,0:0:0:0:
199,115,96924,1,2,0:0:0:0:
124,191,97047,2,0,P|111:250|145:340,1,135,14|0,1:2|0:0,0:0:0:0:
218,355,97415,1,2,0:0:0:0:
249,239,97538,6,0,P|255:199|247:160,1,67.5,2|0,1:2|0:0,0:0:0:0:
329,45,97784,2,0,P|323:85|331:124,1,67.5,2|0,0:0|0:0,0:0:0:0:
403,241,98030,2,0,P|406:208|400:175,1,67.5,10|0,1:2|0:0,0:0:0:0:
503,50,98276,1,2,0:0:0:0:
398,82,98399,1,0,0:0:0:0:
493,190,98522,6,0,B|512:270|468:323|468:323|439:283,1,172.125003283024,2|0,1:2|0:0,0:0:0:0:
298,169,99014,2,0,P|270:248|307:324,1,172.125003283024,10|0,1:2|0:0,0:0:0:0:
398,82,99506,2,0,B|340:22|228:69|228:69|258:46|264:26,1,229.500004377365,2|8,1:2|1:2,0:0:0:0:
103,29,100243,2,0,L|100:112,1,67.5
26,239,100489,6,0,L|29:322,2,67.5,2|0|2,1:2|0:0|0:0,0:0:0:0:
0,124,100858,1,0,0:0:0:0:
129,204,100981,2,0,P|199:221|268:202,1,135,10|0,1:2|0:0,0:0:0:0:
375,197,101350,1,2,0:0:0:0:
476,108,101473,6,0,L|484:189,1,67.5,2|0,1:2|0:0,0:0:0:0:
381,265,101719,2,0,L|375:197,1,67.5,2|0,0:0|0:0,0:0:0:0:
252,139,101965,2,0,L|260:220,1,67.5,10|0,1:2|0:0,0:0:0:0:
171,310,102211,1,2,0:0:0:0:
163,197,102334,1,0,0:0:0:0:
288,308,102456,6,0,B|361:332|413:277|413:277|391:275|371:257,1,172.125003283024,2|0,1:2|0:0,0:0:0:0:
258,206,102948,1,10,1:2:0:0:
415,56,103194,1,2,0:0:0:0:
415,56,103317,1,2,0:0:0:0:
415,56,103440,2,0,B|392:116|418:170|442:220|411:287,1,229.500004377365,2|8,1:2|1:2,0:0:0:0:
273,364,104178,2,0,L|199:358,1,67.5,0|0,0:0|0:0,0:0:0:0:
88,321,104424,6,0,L|14:327,2,67.5,2|0|2,1:2|0:0|0:0,0:0:0:0:
168,228,104793,1,0,0:0:0:0:
52,186,104915,2,0,P|33:117|68:33,1,135,14|0,1:2|0:0,0:0:0:0:
155,7,105284,1,2,0:0:0:0:
241,81,105407,6,0,P|281:87|320:79,1,67.5,2|0,1:2|0:0,0:0:0:0:
435,161,105653,2,0,P|395:155|356:163,1,67.5,2|0,0:0|0:0,0:0:0:0:
232,235,105899,2,0,P|265:238|298:232,1,67.5,10|0,1:2|0:0,0:0:0:0:
429,316,106145,1,2,0:0:0:0:
320,371,106268,1,0,0:0:0:0:
375,242,106391,6,0,B|415:203|384:135|384:135|404:152|448:164,1,172.125003283024,2|0,1:2|0:0,0:0:0:0:
292,148,106883,2,0,P|317:69|396:43,1,172.125003283024,10|0,1:2|0:0,0:0:0:0:
375,242,107375,2,0,B|308:308|226:259|226:259|250:279|261:319,1,229.500004377365,2|8,1:2|1:2,0:0:0:0:
47,356,108112,2,0,L|54:277,1,67.5,0|0,0:0|0:0,0:0:0:0:
133,196,108358,6,0,L|126:117,2,67.5,2|0|2,1:2|0:0|0:0,0:0:0:0:
192,302,108727,1,0,0:0:0:0:
253,181,108850,2,0,P|299:168|391:189,1,135,10|0,1:2|0:0,0:0:0:0:
449,256,109219,1,2,0:0:0:0:
348,338,109342,6,0,L|356:257,1,67.5,2|0,1:2|0:0,0:0:0:0:
253,181,109588,2,0,L|247:249,1,67.5,2|0,0:0|0:0,0:0:0:0:
124,307,109834,2,0,L|132:226,1,67.5,10|0,1:2|0:0,0:0:0:0:
49,106,110079,1,2,0:0:0:0:
22,221,110202,1,0,0:0:0:0:
161,132,110325,6,0,B|218:117|253:181|253:181|280:150|314:143,1,172.125003283024,2|0,1:2|0:0,0:0:0:0:
387,92,110817,1,10,1:2:0:0:
453,287,111063,1,2,0:0:0:0:
453,287,111186,1,2,0:0:0:0:
453,287,111309,2,0,B|376:266|330:352|330:352|294:311|248:301,1,229.500004377365,2|8,1:2|1:2,0:0:0:0:
153,262,112293,6,0,P|121:168|158:83,1,175.499991966248,4|0,0:0|0:0,0:0:0:0:
204,35,113030,1,0,0:0:0:0:
266,96,113276,2,0,P|360:128|445:91,1,175.499991966248,0|0,0:0|0:0,0:0:0:0:
477,177,114014,1,0,0:0:0:0:
477,177,114137,1,0,0:0:0:0:
477,177,114260,2,0,P|471:263|493:311,2,131.624993974686,2|2|2,0:0|0:0|0:0,0:0:0:0:
428,104,115243,2,0,P|346:128|266:95,1,175.499991966248,2|0,0:0|0:0,0:0:0:0:
114,6,116227,6,0,P|90:88|122:168,1,175.499991966248,0|0,0:0|0:0,0:0:0:0:
183,232,116965,1,0,0:0:0:0:
233,160,117211,2,0,P|315:136|395:168,1,175.499991966248,0|0,0:0|0:0,0:0:0:0:
449,237,117948,1,0,0:0:0:0:
449,237,118071,1,0,0:0:0:0:
449,237,118194,6,0,P|382:256|318:215,2,131.624993974686,2|2|2,0:0|0:0|0:0,0:0:0:0:
395,168,119178,2,0,P|315:136|233:160,1,175.499991966248,2|0,0:0|0:0,0:0:0:0:
58,142,120161,6,0,B|31:198|59:229|88:258|51:317,1,175.499991966248,0|0,0:0|0:0,0:0:0:0:
128,357,120899,1,0,0:0:0:0:
128,357,121022,1,0,0:0:0:0:
128,357,121145,2,0,P|189:377|254:367,2,131.624993974686,0|0|0,0:0|0:0|0:0,0:0:0:0:
54,310,122129,6,0,P|66:252|52:210,1,87.749995983124,2|0,0:0|0:0,0:0:0:0:
13,158,122497,2,0,P|59:143|109:158,1,87.749995983124,2|0,0:0|0:0,0:0:0:0:
153,206,122866,1,2,0:0:0:0:
153,206,123112,2,0,B|180:225|180:225|198:189|198:189|248:209|301:180,1,175.499991966248,2|2,0:0|0:0,0:0:0:0:
355,113,123850,1,2,0:0:0:0:
263,102,124096,6,0,P|242:189|280:274,1,175.499991966248,2|2,0:0|0:0,0:0:0:0:
356,306,124834,1,2,0:0:0:0:
284,359,125079,2,0,P|197:338|112:376,1,175.499991966248,2|2,0:0|0:0,0:0:0:0:
52,312,125817,1,2,0:0:0:0:
129,271,126063,6,0,P|141:213|127:171,1,87.749995983124,2|0,0:0|0:0,0:0:0:0:
86,119,126432,2,0,P|132:104|182:119,1,87.749995983124,2|0,0:0|0:0,0:0:0:0:
231,168,126801,1,2,0:0:0:0:
231,168,127047,2,0,B|253:231|229:308|229:308|251:290|273:282,1,175.499991966248,2|10,0:0|0:0,0:0:0:0:
373,248,128030,5,6,0:0:0:0:
373,248,129014,1,0,0:0:0:0:
435,205,129506,1,0,0:0:0:0:
490,255,129997,5,0,0:0:0:0:
428,292,130489,1,2,0:0:0:0:
435,205,130735,1,2,0:0:0:0:
441,117,130981,1,2,0:0:0:0:
441,117,131965,5,0,0:0:0:0:
441,117,132948,1,0,0:0:0:0:
398,55,133440,1,0,0:0:0:0:
448,0,133932,5,0,0:0:0:0:
485,62,134424,1,2,0:0:0:0:
398,55,134670,1,2,0:0:0:0:
310,49,134915,1,2,0:0:0:0:
310,49,135899,5,10,0:0:0:0:
310,49,136145,1,8,0:0:0:0:
284,159,136391,1,8,0:0:0:0:
284,159,136637,1,8,0:0:0:0:
207,47,136883,1,10,0:0:0:0:
207,47,137129,1,8,0:0:0:0:
181,157,137375,1,10,0:0:0:0:
181,157,137620,1,8,0:0:0:0:
326,35,137866,5,10,0:0:0:0:
326,35,138112,1,8,0:0:0:0:
293,173,138358,1,10,0:0:0:0:
197,32,138604,1,10,0:0:0:0:
164,170,138850,1,10,0:0:0:0:
164,170,139096,1,8,0:0:0:0:
77,35,139342,1,8,0:0:0:0:
76,34,139588,1,8,0:0:0:0:
7,175,139834,6,0,L|3:226,3,43.874997991562,10|8|8|8,0:0|0:0|0:0|0:0,0:0:0:0:
85,249,140325,2,0,L|81:300,3,43.874997991562,8|8|8|8,0:0|0:0|0:0|0:0,0:0:0:0:
162,355,140817,2,0,L|213:351,3,50.6250019311906,10|8|8|8,0:0|0:0|0:0|0:0,0:0:0:0:
258,244,141309,2,0,L|321:248,3,57.3750010943413,10|8|8|8,0:0|0:0|0:0|0:0,0:0:0:0:
437,291,141801,2,0,L|441:227,3,64.1249982876778,10|8|8|8,0:0|0:0|0:0|0:0,0:0:0:0:
354,113,142293,2,0,L|348:186,1,70.8749978370667,10|8,0:0|0:0,0:0:0:0:
252,314,142538,2,0,L|257:243,1,70.8749978370667,10|8,0:0|0:0,0:0:0:0:
162,175,142784,6,0,B|157:142|273:193|286:41|206:-22|127:54|127:54|51:-27|-31:50|-35:175|99:146|113:241,1,621.000011844635,10|4,0:0|0:0,0:0:0:0:
37,359,159506,5,10,0:0:0:0:
56,349,159997,1,10,0:0:0:0:
76,340,160489,1,10,0:0:0:0:
96,331,160981,1,8,0:0:0:0:
116,320,161473,1,10,0:0:0:0:
136,311,161965,1,10,0:0:0:0:
156,302,162456,1,8,0:0:0:0:
176,292,162948,1,8,0:0:0:0:
135,200,163440,5,10,0:0:0:0:
125,181,163932,1,10,0:0:0:0:
114,162,164424,1,10,0:0:0:0:
103,143,164915,1,8,0:0:0:0:
93,122,165407,1,10,0:0:0:0:
83,103,165899,1,10,0:0:0:0:
72,84,166391,1,10,0:0:0:0:
61,65,166883,1,10,0:0:0:0:
182,30,167375,5,10,0:0:0:0:
270,133,167620,1,8,0:0:0:0:
292,32,167866,1,8,0:0:0:0:
168,135,168112,1,8,0:0:0:0:
170,16,168358,5,8,0:0:0:0:
280,145,168604,1,8,0:0:0:0:
308,19,168850,1,8,0:0:0:0:
153,148,169096,2,0,L|153:227,1,57.3750010943413,10|0,0:0|0:0,0:0:0:0:
280,145,169342,5,10,0:0:0:0:
383,233,169588,1,8,0:0:0:0:
282,255,169834,1,8,0:0:0:0:
385,131,170079,1,8,0:0:0:0:
266,133,170325,5,8,0:0:0:0:
395,243,170571,1,10,0:0:0:0:
269,271,170817,1,10,0:0:0:0:
398,116,171063,2,0,L|398:48,1,57.3750010943413,10|0,0:0|0:0,0:0:0:0:
291,14,171309,6,8,P|245:10|220:15,1,57.3750010943413,10|8,0:0|0:0,0:0:0:0:
154,110,171555,2,8,P|182:114|210:112,1,57.3750010943413,8|8,0:0|0:0,0:0:0:0:
311,204,171801,2,8,P|265:200|240:205,1,57.3750010943413,8|8,0:0|0:0,0:0:0:0:
174,300,172047,2,8,P|202:304|230:302,1,57.3750010943413,8|8,0:0|0:0,0:0:0:0:
350,327,172293,6,8,L|357:390,1,57.3750010943413,8|8,0:0|0:0,0:0:0:0:
476,285,172538,2,8,L|469:227,1,57.3750010943413,8|8,0:0|0:0,0:0:0:0:
378,166,172784,1,8,0:0:0:0:
378,166,172907,1,8,0:0:0:0:
459,85,173030,1,10,0:0:0:0:
459,85,173153,1,10,0:0:0:0:
359,22,173276,5,10,0:0:0:0:
256,192,173399,12,8,174752,0:0:0:0:
460,336,175243,6,0,L|464:246,1,77.6250014805794,6|0,1:2|0:0,0:0:0:0:
352,135,175489,1,2,0:0:0:0:
467,139,175612,1,2,0:0:0:0:
339,254,175735,2,0,P|294:271|182:250,1,155.250002961159,10|0,1:2|0:0,0:0:0:0:
121,162,176104,1,2,0:0:0:0:
21,377,176227,6,0,L|26:217,1,155.250002961159,2|0,1:2|0:0,0:0:0:0:
119,85,176596,2,0,L|122:189,1,77.6250014805794,2|8,0:0|1:2,0:0:0:0:
188,332,176842,2,0,L|190:254,1,77.6250014805794,2|0,0:0|0:0,0:0:0:0:
277,174,177088,1,2,0:0:0:0:
121,162,177210,5,2,1:2:0:0:
306,280,177333,2,0,P|356:283|448:217,1,155.250002961159,2|0,0:0|0:0,0:0:0:0:
482,117,177702,1,10,1:2:0:0:
497,307,177825,1,2,0:0:0:0:
379,144,177948,1,2,0:0:0:0:
379,144,178071,6,0,P|381:88|336:163,1,232.875004441738,2|0,0:0|0:0,0:0:0:0:
306,280,178563,2,0,P|225:232|194:165,2,155.250002961159,2|2|2,0:0|0:0|0:0,0:0:0:0:
437,311,179178,5,2,1:2:0:0:
396,186,179301,1,2,0:0:0:0:
306,280,179424,2,0,L|222:283,1,77.6250014805794,2|0,0:0|0:0,0:0:0:0:
144,190,179669,2,0,L|60:187,1,77.6250014805794,10|0,1:2|0:0,0:0:0:0:
224,101,179915,2,0,L|308:98,1,77.6250014805794,2|0,0:0|0:0,0:0:0:0:
473,101,180161,2,0,P|475:41|464:19,2,77.6250014805794,2|2|2,1:2|0:0|0:0,0:0:0:0:
421,212,180530,2,0,L|259:206,1,155.250002961159,2|0,0:0|0:0,0:0:0:0:
179,298,180899,2,0,P|177:358|188:380,1,77.6250014805794,2|0,0:0|0:0,0:0:0:0:
83,220,181145,5,2,1:2:0:0:
83,220,181268,2,0,P|87:90|63:42,1,155.250002961159,2|0,0:0|0:0,0:0:0:0:
161,16,181637,2,0,L|244:14,1,77.6250014805794,10|0,1:2|0:0,0:0:0:0:
0,23,181883,1,2,0:0:0:0:
5,177,182006,6,0,B|76:202|136:165|136:165|92:152,1,172.125003283024,2|0,0:0|0:0,0:0:0:0:
161,16,182620,1,8,1:2:0:0:
161,16,183112,5,2,1:2:0:0:
101,154,183235,1,2,0:0:0:0:
249,136,183358,2,0,P|288:137|339:123,1,77.6250014805794,2|0,0:0|0:0,0:0:0:0:
463,92,183604,2,0,L|463:184,1,77.6250014805794,10|0,1:2|0:0,0:0:0:0:
356,257,183850,1,2,0:0:0:0:
325,128,183973,1,2,0:0:0:0:
456,262,184096,6,0,P|435:321|336:356,1,155.250002961159,2|0,1:2|0:0,0:0:0:0:
230,222,184465,2,0,B|109:217|109:217|161:187,1,155.250002961159,2|0,0:0|0:0,0:0:0:0:
325,128,184833,2,0,L|415:124,1,77.6250014805794,2|0,0:0|0:0,0:0:0:0:
512,104,185079,5,2,1:2:0:0:
339,14,185202,2,0,B|218:19|218:19|270:49,1,155.250002961159,2|0,0:0|0:0,0:0:0:0:
381,199,185571,1,10,1:2:0:0:
423,57,185694,1,2,0:0:0:0:
237,159,185817,1,2,0:0:0:0:
237,159,185940,6,0,B|219:217|244:324|244:324|230:296|199:270,1,232.875004441738,2|0,0:0|0:0,0:0:0:0:
82,229,186432,2,0,L|78:68,2,155.250002961159,2|2|2,0:0|0:0|0:0,0:0:0:0:
9,358,187047,5,2,1:2:0:0:
156,353,187169,1,2,0:0:0:0:
82,229,187292,2,0,L|84:129,1,77.6250014805794,2|0,0:0|0:0,0:0:0:0:
230,75,187538,2,0,L|234:237,1,155.250002961159,10|0,1:2|0:0,0:0:0:0:
308,354,187907,1,2,0:0:0:0:
156,353,188030,6,0,B|45:354|45:354|115:320,1,155.250002961159,2|0,1:2|0:0,0:0:0:0:
233,230,188399,2,0,P|243:153|228:67,1,155.250002961159,2|0,0:0|0:0,0:0:0:0:
92,19,188768,2,0,L|82:103,1,77.6250014805794,2|0,0:0|0:0,0:0:0:0:
29,219,189014,5,2,1:2:0:0:
29,219,189137,1,2,0:0:0:0:
29,219,189260,2,0,P|66:232|105:226,1,77.6250014805794,2|0,0:0|0:0,0:0:0:0:
228,283,189506,2,0,L|221:205,1,77.6250014805794,10|2,1:2|0:0,0:0:0:0:
202,334,189875,6,0,B|221:205|221:205|224:233|237:241,1,172.125003283024,2|2,0:0|0:0,0:0:0:0:
356,332,190489,2,0,P|383:277|379:223,1,114.750002188683,10|2,1:2|0:0,0:0:0:0:
171,87,190981,6,0,L|171:16,2,67.5,6|0|2,1:2|0:0|0:0,0:0:0:0:
222,206,191350,1,0,0:0:0:0:
313,95,191473,2,0,P|396:81|480:106,1,135,14|0,1:2|0:0,0:0:0:0:
506,183,191842,1,2,0:0:0:0:
454,288,191965,6,0,P|423:264|411:219,1,67.5,2|0,1:2|0:0,0:0:0:0:
263,306,192211,2,0,P|295:283|341:286,1,67.5,2|0,0:0|0:0,0:0:0:0:
217,141,192456,2,0,P|211:173|221:205,1,67.5,10|0,1:2|0:0,0:0:0:0:
320,163,192702,1,2,0:0:0:0:
341,62,192825,1,0,0:0:0:0:
234,40,192948,6,0,B|168:57|96:40|96:40|108:55|110:71,1,172.125003283024,2|0,1:2|0:0,0:0:0:0:
217,141,193440,2,0,P|142:192|42:176,1,172.125003283024,10|0,1:2|0:0,0:0:0:0:
141,291,193932,2,0,B|191:309|227:282|227:282|269:321|269:321|313:295|370:333,1,229.500004377365,2|8,1:2|1:2,0:0:0:0:
479,203,194670,2,0,L|404:195,1,67.5,2|2,0:0|0:0,0:0:0:0:
271,221,194915,6,0,P|264:184|275:146,2,67.5,2|0|2,1:2|0:0|0:0,0:0:0:0:
347,320,195284,1,0,0:0:0:0:
205,262,195407,2,0,P|186:191|202:118,1,135,10|0,1:2|0:0,0:0:0:0:
258,43,195776,1,2,0:0:0:0:
103,51,195899,6,0,L|95:126,1,67.5,2|0,1:2|0:0,0:0:0:0:
26,241,196145,2,0,L|18:166,1,67.5,2|0,0:0|0:0,0:0:0:0:
109,271,196391,2,0,P|92:302|65:321,1,67.5,10|0,1:2|0:0,0:0:0:0:
254,304,196637,2,0,P|223:287|204:260,1,67.5,2|0,0:0|0:0,0:0:0:0:
155,20,196883,6,0,B|186:116|123:86|158:212,1,172.125003283024,2|0,1:2|0:0,0:0:0:0:
109,271,197375,1,10,1:2:0:0:
243,187,197620,1,2,0:0:0:0:
243,187,197743,1,2,0:0:0:0:
243,187,197866,2,0,B|356:203|411:181|411:181|348:162,1,229.500004377365,2|8,1:2|1:2,0:0:0:0:
497,52,198604,2,0,L|492:125,1,67.5,2|2,0:0|0:0,0:0:0:0:
475,261,198850,6,0,L|480:334,2,67.5,2|0|2,1:2|0:0|0:0,0:0:0:0:
411,180,199219,1,0,0:0:0:0:
343,259,199342,2,0,B|296:259|296:259|258:252|258:252|209:252,1,135,14|0,1:2|0:0,0:0:0:0:
107,258,199711,1,0,0:0:0:0:
153,104,199834,6,0,L|158:177,1,67.5,2|0,1:2|0:0,0:0:0:0:
204,319,200079,2,0,L|209:246,1,67.5,2|0,0:0|0:0,0:0:0:0:
282,104,200325,2,0,P|281:137|270:169,1,67.5,10|0,1:2|0:0,0:0:0:0:
219,35,200571,1,2,0:0:0:0:
348,36,200694,1,0,0:0:0:0:
356,164,200817,6,0,B|335:233|299:282|299:282|329:269|367:271,1,172.125003283024,2|0,1:2|0:0,0:0:0:0:
222,225,201309,2,0,P|204:298|268:377,1,172.125003283024,10|0,1:2|0:0,0:0:0:0:
255,139,201801,2,0,B|207:123|169:148|169:148|127:109|127:109|83:135|26:97,1,229.500004377365,2|8,1:2|1:2,0:0:0:0:
45,294,202538,2,0,L|118:299,1,67.5,2|2,0:0|0:0,0:0:0:0:
222,225,202784,6,0,L|295:220,2,67.5,2|0|2,1:2|0:0|0:0,0:0:0:0:
116,157,203153,1,0,0:0:0:0:
231,82,203276,2,0,L|391:71,1,135,10|0,1:2|0:0,0:0:0:0:
475,62,203645,1,2,0:0:0:0:
438,221,203768,6,0,L|430:146,1,67.5,2|0,1:2|0:0,0:0:0:0:
372,5,204014,2,0,L|364:80,1,67.5,2|0,0:0|0:0,0:0:0:0:
316,163,204260,2,0,P|286:142|271:116,1,67.5,10|0,1:2|0:0,0:0:0:0:
270,317,204506,2,0,P|287:288|315:269,1,67.5,2|0,0:0|0:0,0:0:0:0:
62,220,204752,6,0,B|158:251|128:188|254:223,1,172.125003283024,2|0,1:2|0:0,0:0:0:0:
314,269,205243,1,10,1:2:0:0:
337,116,205489,1,2,0:0:0:0:
337,116,205612,1,2,0:0:0:0:
337,116,205735,2,0,L|106:126,1,229.500004377365,2|8,1:2|1:2,0:0:0:0:
17,225,206719,6,0,L|27:304,1,50.6250019311906,0|0,1:2|0:0,0:0:0:0:
103,321,206965,2,0,L|113:242,1,50.6250019311906,0|0,0:0|0:0,0:0:0:0:
198,260,207211,2,0,P|249:251|326:270,1,101.250003862381,0|0,1:2|0:0,0:0:0:0:
374,298,207579,1,0,0:0:0:0:
408,217,207702,6,0,L|479:221,1,50.6250019311906,0|0,1:2|0:0,0:0:0:0:
355,145,207948,2,0,L|423:124,1,50.6250019311906,0|0,0:0|0:0,0:0:0:0:
282,95,208194,2,0,L|338:52,1,50.6250019311906,0|0,1:2|0:0,0:0:0:0:
208,120,208440,2,0,P|219:143|239:163,1,50.6250019311906,0|0,0:0|0:0,0:0:0:0:
226,40,208686,6,0,L|11:36,1,202.500007724762,0|0,1:2|1:2,0:0:0:0:
236,160,209670,2,0,L|451:156,1,202.500007724762,0|0,1:2|1:2,0:0:0:0:
243,287,210407,1,0,0:0:0:0:
243,287,210530,1,0,0:0:0:0:
243,287,210653,6,0,L|171:289,1,50.6250019311906,0|0,1:2|0:0,0:0:0:0:
91,357,210899,2,0,L|115:312,1,50.6250019311906,0|0,0:0|0:0,0:0:0:0:
81,144,211145,2,0,L|144:247,1,101.250003862381,0|0,1:2|0:0,0:0:0:0:
192,288,211514,1,0,0:0:0:0:
216,207,211637,6,0,P|231:187|255:173,1,50.6250019311906,0|0,1:2|0:0,0:0:0:0:
318,284,211883,2,0,P|297:268|284:247,1,50.6250019311906,0|0,0:0|0:0,0:0:0:0:
392,179,212129,2,0,P|378:200|358:215,1,50.6250019311906,0|0,1:2|0:0,0:0:0:0:
309,95,212375,2,0,L|327:145,1,50.6250019311906,0|0,0:0|0:0,0:0:0:0:
227,55,212620,6,0,P|301:4|394:65,1,202.500007724762,0|0,1:2|1:2,0:0:0:0:
201,149,213358,1,0,0:0:0:0:
201,149,213481,1,0,0:0:0:0:
201,149,213604,2,0,L|-6:166,1,202.500007724762,0|0,1:2|1:2,0:0:0:0:
21,312,214342,1,0,0:0:0:0:
21,312,214465,1,0,0:0:0:0:
21,312,214588,6,0,L|135:302,1,101.250003862381,0|0,1:2|0:0,0:0:0:0:
199,244,214956,1,0,1:2:0:0:
256,322,215079,2,0,L|344:329,1,50.6250019311906,8|0,1:2|0:0,0:0:0:0:
485,263,215325,2,0,L|370:253,1,101.250003862381,0|0,1:2|0:0,0:0:0:0:
335,170,215694,1,0,0:0:0:0:
419,58,215817,2,0,L|411:146,1,50.6250019311906,0|0,1:2|0:0,0:0:0:0:
236,167,216063,2,0,P|302:160|348:176,1,101.250003862381,8|0,1:2|0:0,0:0:0:0:
485,263,216555,6,0,P|419:270|373:254,1,101.250003862381,0|0,1:2|0:0,0:0:0:0:
334,169,216924,1,0,1:2:0:0:
269,255,217047,2,0,L|180:262,1,50.6250019311906,8|0,1:2|0:0,0:0:0:0:
37,181,217293,2,0,L|172:192,1,101.250003862381,0|0,1:2|0:0,0:0:0:0:
217,258,217661,1,0,0:0:0:0:
63,305,217784,2,0,L|113:300,1,50.6250019311906,0|0,1:2|0:0,0:0:0:0:
318,267,218030,2,0,L|182:255,1,101.250003862381,8|0,1:2|0:0,0:0:0:0:
233,140,218522,6,0,P|230:88|256:29,1,101.250003862381,0|0,1:2|0:0,0:0:0:0:
331,6,218891,1,0,1:2:0:0:
159,3,219014,2,0,L|147:71,1,50.6250019311906,8|0,1:2|0:0,0:0:0:0:
72,226,219260,2,0,L|49:96,1,101.250003862381,0|0,1:2|0:0,0:0:0:0:
49,13,219629,1,0,0:0:0:0:
148,147,219752,2,0,L|160:215,1,50.6250019311906,0|0,1:2|0:0,0:0:0:0:
258,314,219997,2,0,P|261:262|235:203,1,101.250003862381,8|0,1:2|0:0,0:0:0:0:
339,74,220489,6,0,L|316:203,1,101.250003862381,0|0,1:2|0:0,0:0:0:0:
244,216,220858,1,0,1:2:0:0:
363,251,220981,2,0,L|441:264,1,50.6250019311906,8|0,1:2|0:0,0:0:0:0:
289,294,221227,2,0,L|173:314,1,101.250003862381,0|0,1:2|0:0,0:0:0:0:
83,334,221596,1,0,0:0:0:0:
111,186,221719,2,0,L|124:264,1,50.6250019311906,0|0,1:2|0:0,0:0:0:0:
58,107,221965,2,0,P|105:91|154:102,1,101.250003862381,8|0,1:2|0:0,0:0:0:0:
313,149,222456,6,0,L|363:140,2,38.8125007402897,2|2|2,0:0|0:0|0:0,0:0:0:0:
