osu file format v14

[General]
AudioFilename: audio.mp3
AudioLeadIn: 0
PreviewTime: 143768
Countdown: 0
SampleSet: Soft
StackLeniency: 0.8
Mode: 0
LetterboxInBreaks: 0
WidescreenStoryboard: 0

[Editor]
Bookmarks: 9982,17851,33589,49327,65064,96540,112278,120146,214573
DistanceSpacing: 1.3
BeatDivisor: 4
GridSize: 4
TimelineZoom: 1

[Metadata]
Title:Makuramoto ni Ghost
TitleUnicode:枕元にゴースト
Artist:Aiobahn & Yunomi
ArtistUnicode:Aiobahn & Yunomi
Creator:Mentai
Version:Advanced
Source:
Tags:a ghost at the bedside nicamoq future house electronic snownino_
BeatmapID:1344874
BeatmapSetID:632102

[Difficulty]
HPDrainRate:4
CircleSize:3.5
OverallDifficulty:5
ApproachRate:7
SliderMultiplier:1.5
SliderTickRate:1

[Events]
//Background and Video events
0,0,"EYVv0i.jpg",0,0
//Break Periods
2,112492,119261
2,143968,158606
//Storyboard Layer 0 (Background)
//Storyboard Layer 1 (Fail)
//Storyboard Layer 2 (Pass)
//Storyboard Layer 3 (Foreground)
//Storyboard Sound Samples

[TimingPoints]
2129,491.803278688525,4,2,1,50,1,0
9997,-100,4,2,1,60,0,0
17375,-100,4,2,1,80,0,0
31637,-100,4,2,1,80,0,0
33604,-100,4,2,1,50,0,0
64588,-100,4,2,2,30,0,0
65079,-100,4,2,2,50,0,0
78850,-100,4,2,1,50,0,0
80325,-100,4,2,2,50,0,0
80817,-100,4,2,1,75,0,1
96555,-100,4,2,1,80,0,0
112293,-100,4,2,2,40,0,0
129014,-100,4,2,1,40,0,0
135899,-100,4,2,2,40,0,0
140817,-100,4,2,2,50,0,0
141309,-100,4,2,2,60,0,0
141801,-100,4,2,2,70,0,0
142293,-100,4,2,2,80,0,0
142784,-100,4,2,2,90,0,0
143768,-100,4,2,2,100,0,0
144014,-100,4,2,2,40,0,0
159506,-100,4,2,2,50,0,0
175243,-100,4,2,1,75,0,1
190981,-100,4,2,2,75,0,0
191227,-100,4,2,1,75,0,0
206719,-100,4,2,2,75,0,0
214588,-100,4,2,1,75,0,0

[Colours]
Combo1 : 168,37,218
Combo2 : 19,4,198
Combo3 : 125,27,245
Combo4 : 29,102,237

[HitObjects]
76,52,9997,6,0,P|60:120|88:200,1,150,0|0,0:0|0:0,0:0:0:0:
272,320,10981,2,0,P|344:336|424:312,2,150,0|0|0,0:0|0:0|0:0,0:0:0:0:
276,96,12456,2,0,L|288:16,2,75,2|2|2,0:0|0:0|0:0,0:0:0:0:
276,96,13932,6,0,P|203:80|133:104,1,150,0|0,0:0|0:0,0:0:0:0:
18,217,14915,2,0,P|2:289|21:361,2,150,0|0|0,0:0|0:0|0:0,0:0:0:0:
228,220,16391,2,0,L|276:256,2,50,2|0|0,0:0|0:0|0:0,0:0:0:0:
161,176,16883,2,0,P|107:131|89:27,1,150,2|0,0:0|0:0,0:0:0:0:
252,16,17866,6,0,B|302:4|333:20|366:38|408:16,1,150,6|14,1:0|1:2,0:0:0:0:
484,72,18604,1,0,0:0:0:0:
408,132,18850,2,0,L|404:212,1,75,2|2,1:0|0:0,0:0:0:0:
496,244,19342,2,0,L|500:324,1,75,10|2,1:2|0:0,0:0:0:0:
416,371,19833,2,0,P|343:386|271:367,2,150,2|10|2,1:0|1:2|1:2,0:0:0:0:
488,224,21309,2,0,L|484:149,1,75,8|0,1:2|0:0,0:0:0:0:
420,76,21801,6,0,B|344:88|344:88|268:76,1,150,2|10,1:0|1:2,0:0:0:0:
184,36,22538,1,0,0:0:0:0:
112,104,22784,2,0,P|116:144|108:184,1,75,2|2,1:0|0:0,0:0:0:0:
196,228,23276,2,0,P|191:265|198:302,1,75,10|2,1:2|0:0,0:0:0:0:
288,260,23768,2,0,P|303:187|284:115,2,150,2|10|2,1:0|1:2|1:0,0:0:0:0:
436,336,25243,2,0,L|432:261,1,75,8|0,1:2|0:0,0:0:0:0:
492,184,25735,6,0,L|496:32,1,150,6|14,1:0|1:2,0:0:0:0:
404,0,26473,1,0,0:0:0:0:
348,80,26719,2,0,L|268:76,1,75,2|2,1:0|0:0,0:0:0:0:
208,4,27210,2,0,L|133:7,1,75,10|2,1:2|0:0,0:0:0:0:
56,68,27702,2,0,B|40:140|40:140|56:228,2,150,2|10|2,1:0|1:2|1:0,0:0:0:0:
208,11,29178,2,0,L|282:7,1,75,8|0,1:2|0:0,0:0:0:0:
372,44,29669,6,0,B|394:90|369:124|345:155|372:200,1,150,2|10,1:0|1:2,0:0:0:0:
432,264,30407,1,0,0:0:0:0:
340,292,30653,2,0,L|260:288,1,75,2|2,1:0|0:0,0:0:0:0:
200,216,31145,2,0,L|125:219,1,75,10|2,1:2|0:0,0:0:0:0:
55,288,31637,2,0,P|31:216|61:143,2,150,2|10|2,1:0|1:2|1:2,0:0:0:0:
192,384,33112,1,8,1:2:0:0:
200,216,33604,5,2,1:0:0:0:
276,276,33850,1,0,0:0:0:0:
276,276,33973,1,0,0:0:0:0:
276,276,34096,2,0,L|352:280,1,75,2|0,1:0|0:0,0:0:0:0:
436,234,34588,2,0,P|448:288|428:340,2,112.5,2|2|2,1:0|0:0|0:0,0:0:0:0:
360,176,35571,6,0,P|324:184|280:176,1,75,2|0,1:0|0:0,0:0:0:0:
260,136,35940,2,0,P|223:130|186:138,1,75,2|0,0:0|0:0,0:0:0:0:
148,168,36309,1,2,0:0:0:0:
79,240,36555,2,0,P|51:160|91:83,1,150,2|0,1:0|1:0,0:0:0:0:
216,20,37538,5,0,1:0:0:0:
288,84,37784,2,0,L|368:80,1,75,2|0,0:0|1:0,0:0:0:0:
448,32,38276,2,0,P|460:84|452:116,1,75,2|0,0:0|1:0,0:0:0:0:
396,180,38768,2,0,L|352:184,2,37.5,0|0|2,0:0|0:0|1:0,0:0:0:0:
476,240,39260,1,0,0:0:0:0:
476,240,39383,1,0,0:0:0:0:
476,240,39506,6,0,P|480:304|472:328,1,75,2|0,1:0|0:0,0:0:0:0:
460,352,39874,2,0,P|396:356|372:348,1,75,2|0,0:0|0:0,0:0:0:0:
352,332,40243,1,2,0:0:0:0:
261,367,40489,2,0,B|217:383|189:363|153:339|105:367,1,150,2|0,1:0|1:0,0:0:0:0:
0,289,41473,5,2,1:0:0:0:
95,270,41719,1,0,0:0:0:0:
95,270,41842,1,0,0:0:0:0:
95,270,41965,2,0,L|99:194,1,75,2|0,1:0|0:0,0:0:0:0:
158,117,42456,2,0,P|107:98|53:110,2,112.5,2|2|2,1:0|0:0|0:0,0:0:0:0:
252,141,43440,6,0,P|260:177|252:221,1,75,2|0,1:0|0:0,0:0:0:0:
212,241,43809,2,0,P|206:278|214:315,1,75,2|0,0:0|0:0,0:0:0:0:
244,353,44178,1,2,0:0:0:0:
341,359,44424,2,0,L|417:355,1,75,2|0,1:0|0:0,0:0:0:0:
471,275,44915,2,0,L|396:271,1,75,2|2,1:0|0:0,0:0:0:0:
328,208,45407,6,0,B|332:152|332:152|352:120|352:120|356:52,1,150,2|2,1:0|1:0,0:0:0:0:
280,0,46145,1,2,0:0:0:0:
212,68,46391,2,0,P|144:48|60:72,1,150,2|2,1:0|1:0,0:0:0:0:
4,140,47129,1,2,0:0:0:0:
100,164,47374,6,0,P|108:200|100:244,1,75,2|0,1:0|0:0,0:0:0:0:
60,264,47743,2,0,P|54:301|62:338,1,75,2|0,0:0|0:0,0:0:0:0:
92,376,48112,1,2,0:0:0:0:
184,340,48358,2,0,B|266:317|256:372|353:326,1,150,2|8,1:0|0:0,0:0:0:0:
476,268,49342,5,2,1:0:0:0:
392,216,49588,1,2,0:0:0:0:
392,216,49710,1,0,0:0:0:0:
392,216,49833,2,0,L|388:140,1,75,10|0,1:2|0:0,0:0:0:0:
328,63,50325,2,0,P|379:43|433:55,2,112.5,2|2|0,1:2|0:0|0:0,0:0:0:0:
264,136,51309,6,0,L|268:176,2,37.5,2|0|2,1:0|0:0|0:0,0:0:0:0:
176,92,51801,2,0,P|124:86|81:99,1,75,10|0,1:2|0:0,0:0:0:0:
94,187,52292,2,0,L|102:303,2,112.5,2|2|0,1:2|0:0|0:0,0:0:0:0:
176,92,53276,5,2,1:2:0:0:
256,152,53522,1,0,0:0:0:0:
256,152,53645,1,0,0:0:0:0:
256,152,53768,2,0,L|332:148,1,75,10|0,1:2|0:0,0:0:0:0:
416,193,54260,2,0,P|428:139|409:88,2,112.5,2|2|2,1:2|0:0|0:0,0:0:0:0:
368,280,55243,6,0,L|288:276,1,75,2|2,1:0|0:0,0:0:0:0:
228,204,55735,2,0,L|153:207,1,75,10|2,1:2|0:0,0:0:0:0:
88,280,56227,2,0,P|60:200|100:123,1,150,0|8,1:2|1:2,0:0:0:0:
216,48,57210,5,2,1:0:0:0:
292,112,57456,1,2,0:0:0:0:
292,112,57579,1,0,0:0:0:0:
292,112,57702,2,0,L|296:188,1,75,10|0,1:2|0:0,0:0:0:0:
250,272,58194,2,0,P|304:283|355:264,2,112.5,2|2|0,1:0|0:0|0:0,0:0:0:0:
160,236,59178,6,0,L|120:240,2,37.5,2|0|2,1:0|0:0|0:0,0:0:0:0:
204,148,59669,2,0,L|241:144,2,37.5,10|2|2,1:2|0:0|0:0,0:0:0:0:
136,76,60161,2,0,B|80:88|80:88|20:84,2,112.5,2|2|0,1:2|0:0|0:0,0:0:0:0:
230,60,61145,6,0,L|382:25,1,150,2|10,1:2|1:2,0:0:0:0:
140,0,62129,2,0,P|121:46|164:143,1,150,2|8,1:0|1:2,0:0:0:0:
79,197,62866,1,2,0:0:0:0:
147,266,63112,6,0,P|183:274|227:266,1,75,2|0,0:0|0:0,0:0:0:0:
247,226,63481,2,0,P|284:220|321:228,1,75,2|0,0:0|0:0,0:0:0:0:
359,258,63850,1,2,0:0:0:0:
425,330,64096,2,0,P|453:250|413:173,1,150,2|8,0:0|0:0,0:0:0:0:
308,52,65079,5,8,0:0:0:0:
308,52,65571,1,8,0:0:0:0:
224,136,66063,1,8,0:0:0:0:
224,136,66555,1,8,0:0:0:0:
144,48,67047,1,8,0:0:0:0:
144,48,67538,1,8,0:0:0:0:
60,132,68030,1,8,0:0:0:0:
60,132,68522,1,8,0:0:0:0:
144,220,69014,5,8,0:0:0:0:
144,220,69506,1,8,0:0:0:0:
228,304,69997,1,8,0:0:0:0:
228,304,70489,1,8,0:0:0:0:
308,216,70981,1,8,0:0:0:0:
308,216,71473,1,8,0:0:0:0:
392,300,71965,1,8,0:0:0:0:
392,300,72456,1,8,0:0:0:0:
484,224,72948,6,0,L|480:144,1,75,10|8,0:0|0:0,0:0:0:0:
400,128,73440,2,0,L|403:53,1,75,10|8,0:0|0:0,0:0:0:0:
328,16,73932,2,0,P|284:8|244:20,1,75,10|10,0:0|0:0,0:0:0:0:
200,80,74424,1,10,0:0:0:0:
140,24,74669,1,10,0:0:0:0:
100,96,74915,6,0,L|104:176,1,75,10|10,0:0|0:0,0:0:0:0:
184,192,75407,2,0,L|180:266,1,75,10|10,0:0|0:0,0:0:0:0:
216,340,75899,2,0,P|176:348|141:339,1,75,8|10,0:0|0:0,0:0:0:0:
68,372,76391,1,10,0:0:0:0:
32,296,76637,1,10,0:0:0:0:
104,260,76883,6,0,L|104:212,7,37.5,10|8|10|8|10|8|10|8,0:0|0:0|0:0|0:0|0:0|0:0|0:0|0:0,0:0:0:0:
180,266,77866,2,0,L|180:303,7,37.5,8|8|10|8|10|8|10|8,0:0|0:0|0:0|0:0|0:0|0:0|0:0|0:0,0:0:0:0:
256,192,78850,12,8,80325,0:0:0:0:
48,48,80817,6,0,B|28:100|48:128|68:152|36:228,1,150,6|10,1:2|1:2,0:0:0:0:
84,288,81555,1,0,0:0:0:0:
84,288,81678,1,2,0:0:0:0:
84,288,81801,2,0,B|116:300|184:284,1,75,2|0,1:0|0:0,0:0:0:0:
188,252,82169,2,0,B|220:240|288:256,1,75,2|0,0:0|0:0,0:0:0:0:
296,284,82538,1,2,0:0:0:0:
380,236,82784,6,0,L|384:160,1,75,2|0,1:0|0:0,0:0:0:0:
402,64,83276,1,10,1:2:0:0:
474,128,83522,1,2,0:0:0:0:
474,128,83645,2,0,L|478:204,1,75,2|0,0:0|0:0,0:0:0:0:
480,251,84014,1,0,0:0:0:0:
425,331,84260,1,8,1:2:0:0:
363,255,84506,1,0,0:0:0:0:
298,327,84751,6,0,B|224:318|224:318|134:331,1,150,2|10,1:0|1:2,0:0:0:0:
62,287,85489,1,2,0:0:0:0:
62,287,85612,1,0,0:0:0:0:
62,287,85735,2,0,B|50:255|66:187,1,75,2|2,1:2|0:0,0:0:0:0:
98,183,86104,2,0,B|110:151|94:83,1,75,2|0,0:0|0:0,0:0:0:0:
66,75,86473,1,2,0:0:0:0:
180,32,86719,6,0,L|260:36,1,75,2|0,1:0|0:0,0:0:0:0:
320,108,87210,2,0,L|395:105,1,75,10|2,1:2|0:0,0:0:0:0:
460,32,87702,2,0,P|488:112|448:189,1,150,0|8,1:2|1:2,0:0:0:0:
428,332,88686,6,0,B|376:352|348:332|324:312|248:344,1,150,2|10,1:0|1:2,0:0:0:0:
188,368,89424,1,2,0:0:0:0:
188,368,89547,1,2,0:0:0:0:
188,368,89669,2,0,B|176:336|192:268,1,75,2|0,1:0|0:0,0:0:0:0:
224,264,90038,2,0,B|236:232|220:164,1,75,2|0,0:0|0:0,0:0:0:0:
192,156,90407,1,2,0:0:0:0:
212,60,90653,6,0,L|128:52,1,75,2|0,1:0|0:0,0:0:0:0:
44,20,91145,1,10,1:2:0:0:
64,116,91391,1,2,0:0:0:0:
64,116,91514,6,0,L|56:200,1,75,2|0,0:0|0:0,0:0:0:0:
54,239,91883,1,0,0:0:0:0:
110,318,92129,1,8,1:2:0:0:
159,234,92374,1,0,0:0:0:0:
223,307,92620,6,0,P|275:295|379:315,1,150,2|10,1:0|1:2,0:0:0:0:
459,355,93358,1,2,0:0:0:0:
459,355,93481,1,2,0:0:0:0:
459,355,93604,2,0,B|471:323|455:255,1,75,2|0,1:0|0:0,0:0:0:0:
423,251,93973,2,0,B|411:219|427:151,1,75,2|0,0:0|0:0,0:0:0:0:
455,143,94342,1,2,0:0:0:0:
396,40,94588,6,0,P|360:48|316:44,1,75,2|2,0:0|0:0,0:0:0:0:
256,116,95079,2,0,P|216:108|181:113,1,75,2|0,0:0|0:0,0:0:0:0:
116,40,95571,2,0,P|88:120|128:197,1,150,0|0,0:0|0:0,0:0:0:0:
249,254,96555,6,0,P|277:174|237:97,1,150,2|14,1:2|1:2,0:0:0:0:
188,44,97292,1,0,0:0:0:0:
284,20,97538,2,0,L|364:16,1,75,2|2,1:2|0:0,0:0:0:0:
396,108,98030,2,0,L|476:112,1,75,10|2,1:2|0:0,0:0:0:0:
488,208,98522,2,0,P|516:288|476:365,2,150,2|10|2,1:2|1:2|1:2,0:0:0:0:
356,108,99997,2,0,L|281:104,1,75,8|0,1:2|0:0,0:0:0:0:
192,64,100489,6,0,B|172:116|192:144|212:168|180:244,1,150,2|10,1:2|1:2,0:0:0:0:
128,284,101227,1,0,0:0:0:0:
224,308,101473,2,0,L|304:312,1,75,2|2,1:2|0:0,0:0:0:0:
336,220,101965,2,0,L|416:216,1,75,10|2,1:2|0:0,0:0:0:0:
483,283,102456,2,0,P|504:212|476:144,2,150,2|10|2,1:2|1:2|1:2,0:0:0:0:
332,360,103932,2,0,L|257:363,1,75,8|0,1:2|0:0,0:0:0:0:
216,276,104424,6,0,B|156:272|156:272|120:284|120:284|56:280,1,150,2|14,1:2|1:2,0:0:0:0:
0,216,105161,1,0,0:0:0:0:
92,184,105407,2,0,P|96:144|88:104,1,75,2|2,1:2|0:0,0:0:0:0:
184,80,105899,2,0,P|179:42|186:5,1,75,10|2,1:2|0:0,0:0:0:0:
276,43,106391,2,0,P|304:110|282:181,2,150,2|10|2,1:2|1:2|1:2,0:0:0:0:
436,4,107866,2,0,L|440:79,1,75,8|0,1:2|0:0,0:0:0:0:
392,148,108358,6,0,L|382:319,1,150,2|10,1:2|1:2,0:0:0:0:
312,368,109096,1,0,0:0:0:0:
280,276,109342,2,0,L|284:196,1,75,2|2,1:2|0:0,0:0:0:0:
192,164,109833,2,0,L|188:84,1,75,10|2,1:2|0:0,0:0:0:0:
276,44,110325,2,0,P|343:15|414:37,2,150,2|10|2,1:2|1:2|1:2,0:0:0:0:
80,33,111801,2,0,L|83:107,1,75,8|0,1:2|0:0,0:0:0:0:
111,201,112292,5,4,0:0:0:0:
32,344,120161,6,0,P|112:332|192:348,1,150,0|0,0:0|0:0,0:0:0:0:
252,276,120899,1,0,0:0:0:0:
332,332,121145,2,0,B|364:356|364:356|440:360,2,112.5,0|0|0,0:0|0:0|0:0,0:0:0:0:
252,276,122129,6,0,P|244:240|252:196,1,75,2|0,0:0|0:0,0:0:0:0:
292,176,122497,2,0,P|298:139|290:102,1,75,2|0,0:0|0:0,0:0:0:0:
260,64,122866,1,2,0:0:0:0:
172,20,123112,1,2,0:0:0:0:
28,104,123604,2,0,L|32:188,1,75,2|2,0:0|0:0,0:0:0:0:
36,276,124096,5,2,0:0:0:0:
196,312,124588,2,0,L|280:308,1,75,2|2,0:0|0:0,0:0:0:0:
346,375,125079,2,0,P|367:304|339:236,1,150,2|2,0:0|0:0,0:0:0:0:
244,204,125817,1,2,0:0:0:0:
204,116,126063,6,0,P|240:108|284:116,1,75,2|0,0:0|0:0,0:0:0:0:
304,156,126432,2,0,P|341:162|378:154,1,75,2|0,0:0|0:0,0:0:0:0:
416,124,126801,1,2,0:0:0:0:
481,50,127047,2,0,P|410:28|342:56,1,150,2|10,0:0|0:0,0:0:0:0:
256,188,128030,5,6,0:0:0:0:
256,188,129014,2,0,P|187:215|117:193,2,150,0|0|0,0:0|0:0|0:0,0:0:0:0:
339,311,130489,2,0,L|343:227,1,75,2|2,0:0|0:0,0:0:0:0:
341,136,130981,1,2,0:0:0:0:
36,32,131965,5,0,0:0:0:0:
36,32,132948,2,0,P|106:9|174:37,2,150,0|0|0,0:0|0:0|0:0,0:0:0:0:
100,184,134424,2,0,L|96:268,1,75,2|2,0:0|0:0,0:0:0:0:
92,356,134915,1,2,0:0:0:0:
420,316,135899,6,0,B|440:264|420:236|400:212|432:136,1,150,10|8,0:0|0:0,0:0:0:0:
464,80,136637,1,8,0:0:0:0:
368,88,136883,2,0,P|299:60|230:83,2,150,10|10|10,0:0|0:0|0:0,0:0:0:0:
424,244,138358,1,10,0:0:0:0:
356,312,138604,1,10,0:0:0:0:
300,232,138850,2,0,L|216:228,1,75,10|8,0:0|0:0,0:0:0:0:
180,140,139342,2,0,L|254:136,1,75,8|8,0:0|0:0,0:0:0:0:
356,92,139833,6,0,P|366:127|361:164,1,75,10|8,0:0|0:0,0:0:0:0:
300,232,140325,1,8,0:0:0:0:
356,312,140571,1,8,0:0:0:0:
280,372,140817,2,0,P|244:382|207:377,1,75,10|8,0:0|0:0,0:0:0:0:
184,284,141309,2,0,P|147:279|111:289,1,75,10|8,0:0|0:0,0:0:0:0:
24,336,141801,6,0,P|13:300|18:263,1,75,10|8,0:0|0:0,0:0:0:0:
88,196,142292,1,10,0:0:0:0:
28,120,142538,1,10,0:0:0:0:
104,56,142784,2,0,P|139:45|176:50,1,75,10|8,0:0|0:0,0:0:0:0:
240,124,143276,1,8,0:0:0:0:
284,36,143522,1,8,0:0:0:0:
348,112,143768,5,4,0:0:0:0:
412,336,159506,5,10,0:0:0:0:
412,336,159997,1,10,0:0:0:0:
328,252,160489,1,10,0:0:0:0:
328,252,160981,1,8,0:0:0:0:
248,340,161473,1,10,0:0:0:0:
248,340,161965,1,10,0:0:0:0:
164,256,162456,1,8,0:0:0:0:
164,256,162948,1,8,0:0:0:0:
248,168,163440,5,10,0:0:0:0:
248,168,163932,1,10,0:0:0:0:
332,84,164424,1,10,0:0:0:0:
332,84,164915,1,8,0:0:0:0:
412,172,165407,1,10,0:0:0:0:
412,172,165899,1,10,0:0:0:0:
492,84,166391,1,10,0:0:0:0:
492,84,166883,1,10,0:0:0:0:
412,4,167374,6,0,L|328:8,1,75,10|8,0:0|0:0,0:0:0:0:
308,100,167866,2,0,L|224:96,1,75,8|8,0:0|0:0,0:0:0:0:
144,60,168358,2,0,P|136:100|145:135,1,75,8|8,0:0|0:0,0:0:0:0:
224,192,168850,1,8,0:0:0:0:
156,264,169096,1,10,0:0:0:0:
252,288,169342,6,0,L|336:284,1,75,10|8,0:0|0:0,0:0:0:0:
356,192,169833,2,0,L|440:196,1,75,8|8,0:0|0:0,0:0:0:0:
500,264,170325,2,0,P|507:300|499:336,1,75,8|10,0:0|0:0,0:0:0:0:
408,296,170817,1,10,0:0:0:0:
328,356,171063,1,10,0:0:0:0:
252,296,171309,6,0,L|252:248,7,37.5,10|8|8|8|8|8|8|8,0:0|0:0|0:0|0:0|0:0|0:0|0:0|0:0,0:0:0:0:
176,302,172292,2,0,L|176:339,7,37.5,8|8|8|8|8|8|10|10,0:0|0:0|0:0|0:0|0:0|0:0|0:0|0:0,0:0:0:0:
256,192,173276,12,8,174751,0:0:0:0:
140,376,175243,6,0,B|140:264|140:264|124:280|96:292,1,150,6|10,1:0|1:2,0:0:0:0:
24,240,175981,1,0,0:0:0:0:
24,240,176104,1,2,0:0:0:0:
24,240,176227,2,0,P|16:204|24:160,1,75,2|0,1:2|0:0,0:0:0:0:
64,143,176596,2,0,P|70:106|62:69,1,75,2|0,0:0|0:0,0:0:0:0:
34,29,176965,1,2,0:0:0:0:
132,8,177210,6,0,L|216:12,1,75,2|0,1:0|0:0,0:0:0:0:
276,80,177702,1,10,1:2:0:0:
216,156,177948,1,2,0:0:0:0:
216,156,178071,2,0,L|132:160,1,75,2|0,0:0|0:0,0:0:0:0:
92,163,178440,1,0,0:0:0:0:
17,225,178686,1,8,1:2:0:0:
78,300,178932,1,0,0:0:0:0:
157,244,179178,6,0,B|207:241|207:241|245:228|245:228|304:224,1,150,2|10,1:0|1:2,0:0:0:0:
416,260,179915,1,2,0:0:0:0:
416,260,180038,1,0,0:0:0:0:
416,260,180161,2,0,P|424:224|416:180,1,75,2|2,1:2|0:0,0:0:0:0:
376,160,180530,2,0,P|370:123|378:86,1,75,2|0,0:0|0:0,0:0:0:0:
408,48,180899,1,2,0:0:0:0:
312,28,181145,6,0,L|232:32,1,75,2|0,1:2|0:0,0:0:0:0:
172,104,181637,2,0,L|97:101,1,75,10|2,1:2|0:0,0:0:0:0:
32,28,182129,2,0,P|4:108|44:185,1,150,0|8,1:2|1:2,0:0:0:0:
178,242,183112,6,0,P|199:171|171:103,1,150,6|10,1:0|1:2,0:0:0:0:
200,16,183850,1,2,0:0:0:0:
200,16,183973,1,2,0:0:0:0:
200,16,184096,2,0,P|236:8|280:16,1,75,2|0,1:0|0:0,0:0:0:0:
300,56,184465,2,0,P|337:62|374:54,1,75,2|0,0:0|0:0,0:0:0:0:
412,24,184833,1,2,0:0:0:0:
464,108,185079,6,0,L|460:184,1,75,2|0,1:0|0:0,0:0:0:0:
400,256,185571,1,10,1:2:0:0:
332,184,185817,1,2,0:0:0:0:
332,184,185940,2,0,L|258:187,1,75,2|0,0:0|0:0,0:0:0:0:
207,188,186309,1,0,0:0:0:0:
134,122,186555,1,8,1:2:0:0:
228,96,186801,1,0,0:0:0:0:
160,32,187047,6,0,B|108:52|80:32|56:12|-20:44,1,150,2|10,1:2|1:2,0:0:0:0:
52,120,187784,1,0,0:0:0:0:
52,120,187907,1,2,0:0:0:0:
52,120,188030,2,0,P|44:156|52:200,1,75,2|0,1:2|0:0,0:0:0:0:
92,220,188399,2,0,P|98:257|90:294,1,75,2|0,0:0|0:0,0:0:0:0:
60,332,188768,1,2,0:0:0:0:
168,352,189014,5,2,1:2:0:0:
168,352,189137,1,2,0:0:0:0:
168,352,189260,2,0,P|204:360|248:352,1,75,2|10,0:0|1:2,0:0:0:0:
268,312,189629,2,0,P|305:306|342:314,1,75,2|2,0:0|0:0,0:0:0:0:
385,340,189997,1,0,1:2:0:0:
438,258,190243,2,0,L|518:254,2,75,2|10|2,0:0|1:2|0:0,0:0:0:0:
353,208,190981,6,0,P|364:123|338:45,1,150,6|14,1:2|1:2,0:0:0:0:
269,1,191719,1,0,0:0:0:0:
212,80,191965,2,0,L|131:78,1,75,2|2,1:2|0:0,0:0:0:0:
51,32,192456,2,0,P|41:76|48:118,1,75,10|2,1:2|0:0,0:0:0:0:
116,171,192948,2,0,L|291:175,2,150,2|10|2,1:2|1:2|1:2,0:0:0:0:
26,344,194424,2,0,L|107:342,1,75,8|2,1:2|0:0,0:0:0:0:
190,303,194915,6,0,P|275:292|353:318,1,150,2|10,1:2|1:2,0:0:0:0:
414,367,195653,1,0,0:0:0:0:
472,288,195899,2,0,L|476:207,1,75,2|2,1:2|0:0,0:0:0:0:
387,169,196391,2,0,L|383:88,1,75,10|2,1:2|0:0,0:0:0:0:
441,19,196883,2,0,P|361:2|297:52,2,150,2|10|2,1:2|1:2|1:2,0:0:0:0:
475,213,198358,2,0,L|472:288,1,75,8|2,1:2|0:0,0:0:0:0:
393,345,198850,6,0,B|319:357|319:357|241:345,1,150,2|14,1:2|1:2,0:0:0:0:
154,307,199588,1,0,0:0:0:0:
231,245,199833,2,0,L|229:164,1,75,2|2,1:2|0:0,0:0:0:0:
183,83,200325,2,0,P|227:73|269:80,1,75,10|2,1:2|0:0,0:0:0:0:
328,143,200817,2,0,P|402:159|473:148,2,150,2|10|2,1:2|1:2|1:2,0:0:0:0:
134,166,202292,2,0,L|132:247,1,75,8|2,1:2|0:0,0:0:0:0:
55,301,202784,6,0,P|119:337|190:319,1,150,2|10,1:2|1:2,0:0:0:0:
272,266,203522,1,0,0:0:0:0:
218,184,203768,2,0,L|219:109,1,75,2|2,1:2|0:0,0:0:0:0:
247,15,204260,2,0,P|209:12|173:21,1,75,10|2,1:2|0:0,0:0:0:0:
122,104,204751,2,0,L|117:267,2,150,2|10|2,1:2|1:2|1:2,0:0:0:0:
317,111,206227,1,8,1:2:0:0:
310,305,206719,6,0,P|269:299|219:310,1,75,0|0,1:2|0:0,0:0:0:0:
159,364,207210,2,0,P|139:297|182:224,1,150,0|0,1:2|1:2,0:0:0:0:
271,212,207948,1,0,0:0:0:0:
208,137,208194,2,0,L|207:61,1,75,0|0,1:2|0:0,0:0:0:0:
291,12,208686,6,0,B|380:37|359:-7|445:20,1,150,0|0,1:2|1:2,0:0:0:0:
496,204,209669,2,0,B|407:179|428:223|342:196,1,150,0|0,1:2|1:2,0:0:0:0:
276,131,210407,1,0,0:0:0:0:
226,215,210653,6,0,L|150:214,1,75,0|0,1:2|0:0,0:0:0:0:
88,138,211145,2,0,P|52:202|72:272,1,150,0|0,1:2|1:2,0:0:0:0:
139,343,211883,1,0,0:0:0:0:
214,280,212129,2,0,L|288:280,1,75,0|0,1:2|0:0,0:0:0:0:
366,339,212620,6,0,P|385:268|349:205,1,150,0|0,1:2|1:2,0:0:0:0:
230,50,213604,2,0,P|194:113|213:183,1,150,0|0,1:2|1:2,0:0:0:0:
81,327,214588,6,0,L|77:213,1,112.5,0|0,1:2|1:2,0:0:0:0:
73,165,215079,1,8,1:2:0:0:
1,98,215325,2,0,P|69:68|147:100,1,150,0|0,1:2|1:2,0:0:0:0:
205,161,216063,2,0,L|281:157,1,75,8|0,1:2|0:0,0:0:0:0:
351,90,216555,6,0,P|406:82|466:93,1,112.5,0|0,1:2|1:2,0:0:0:0:
504,115,217047,1,8,1:2:0:0:
450,196,217292,2,0,P|480:264|448:342,1,150,0|0,1:2|1:2,0:0:0:0:
368,373,218030,1,8,1:2:0:0:
375,270,218276,1,0,0:0:0:0:
286,314,218522,6,0,L|172:310,1,112.5,0|0,1:2|1:2,0:0:0:0:
124,306,219013,1,8,1:2:0:0:
56,377,219260,2,0,P|26:310|49:240,1,150,0|0,1:2|1:2,0:0:0:0:
143,214,219997,2,0,L|232:217,1,75,8|0,1:2|0:0,0:0:0:0:
311,186,220489,6,0,P|319:131|308:71,1,112.5,0|0,1:2|1:2,0:0:0:0:
286,33,220981,1,8,1:2:0:0:
195,70,221227,2,0,B|125:58|125:58|44:75,1,150,0|0,1:2|1:2,0:0:0:0:
2,161,221965,1,8,1:2:0:0:
129,308,222456,5,2,0:0:0:0:
