osu file format v14

[General]
AudioFilename: audio.mp3
AudioLeadIn: 0
PreviewTime: 143768
Countdown: 0
SampleSet: Soft
StackLeniency: 0.8
Mode: 0
LetterboxInBreaks: 0
WidescreenStoryboard: 0

[Editor]
Bookmarks: 9982,17851,33589,49327,96540,112278,120146,214573
DistanceSpacing: 1.1
BeatDivisor: 4
GridSize: 4
TimelineZoom: 1

[Metadata]
Title:Makuramoto ni Ghost
TitleUnicode:枕元にゴースト
Artist:Aiobahn & Yunomi
ArtistUnicode:Aiobahn & Yunomi
Creator:Mentai
Version:Normal
Source:
Tags:a ghost at the bedside nicamoq future house electronic snownino_
BeatmapID:1341922
BeatmapSetID:632102

[Difficulty]
HPDrainRate:3
CircleSize:3
OverallDifficulty:3
ApproachRate:5
SliderMultiplier:1.5
SliderTickRate:1

[Events]
//Background and Video events
0,0,"EYVv0i.jpg",0,0
//Break Periods
2,65279,71748
2,112277,118961
2,143968,158306
//Storyboard Layer 0 (Background)
//Storyboard Layer 1 (Fail)
//Storyboard Layer 2 (Pass)
//Storyboard Layer 3 (Foreground)
//Storyboard Sound Samples

[TimingPoints]
2129,491.803278688525,4,2,1,50,1,0
9997,-100,4,2,1,60,0,0
17375,-100,4,2,1,80,0,0
31637,-100,4,2,1,80,0,0
33604,-100,4,2,1,50,0,0
64588,-100,4,2,2,30,0,0
65079,-100,4,2,2,50,0,0
78850,-100,4,2,1,50,0,0
80325,-100,4,2,2,50,0,0
80817,-100,4,2,1,75,0,1
96555,-100,4,2,1,80,0,0
112293,-100,4,2,2,40,0,0
129014,-100,4,2,1,40,0,0
135899,-100,4,2,2,40,0,0
140817,-100,4,2,2,50,0,0
141309,-100,4,2,2,60,0,0
141801,-100,4,2,2,70,0,0
142293,-100,4,2,2,80,0,0
142784,-100,4,2,2,90,0,0
143768,-100,4,2,2,100,0,0
144014,-100,4,2,2,40,0,0
159506,-100,4,2,2,50,0,0
175243,-100,4,2,1,75,0,1
190981,-100,4,2,2,75,0,0
191227,-100,4,2,1,75,0,0
206719,-100,4,2,2,75,0,0
214588,-100,4,2,1,75,0,0

[Colours]
Combo1 : 168,37,218
Combo2 : 19,4,198
Combo3 : 125,27,245
Combo4 : 29,102,237

[HitObjects]
64,300,9997,6,0,P|132:276|224:304,1,150,0|0,0:0|0:0,0:0:0:0:
368,332,10981,2,0,P|389:256|365:181,2,150,0|0|0,0:0|0:0|0:0,0:0:0:0:
208,372,12456,2,0,L|128:376,2,75,2|2|2,0:0|0:0|0:0,0:0:0:0:
208,372,13932,6,0,L|216:208,1,150,0|0,0:0|0:0,0:0:0:0:
336,108,14915,2,0,P|411:86|486:110,2,150,0|0|0,0:0|0:0|0:0,0:0:0:0:
172,112,16391,2,0,L|92:108,1,75,2|0,0:0|0:0,0:0:0:0:
56,36,16883,2,0,P|16:92|56:180,1,150,2|0,0:0|0:0,0:0:0:0:
80,324,17866,6,0,B|152:336|152:336|240:316,1,150,6|14,1:0|1:2,0:0:0:0:
304,352,18604,1,0,0:0:0:0:
368,300,18850,2,0,B|372:252|372:252|388:208|388:208|388:148,1,150,2|10,1:0|1:2,0:0:0:0:
252,60,19834,2,0,P|180:41|109:62,2,150,2|10|2,1:0|1:2|1:2,0:0:0:0:
412,12,21309,1,8,1:2:0:0:
480,164,21801,6,0,B|464:228|480:244|496:264|480:324,1,150,2|10,1:0|1:2,0:0:0:0:
412,356,22538,1,0,0:0:0:0:
352,300,22784,2,0,P|288:280|196:304,1,150,2|10,1:0|1:2,0:0:0:0:
84,184,23768,2,0,P|64:120|88:28,2,150,2|10|2,1:0|1:2|1:0,0:0:0:0:
28,340,25243,1,8,1:2:0:0:
192,372,25735,6,0,B|212:300|212:300|195:222,1,150,6|14,1:0|1:2,0:0:0:0:
132,176,26473,1,0,0:0:0:0:
184,112,26719,2,0,B|240:112|240:112|280:124|280:124|332:124,1,150,2|10,1:0|1:2,0:0:0:0:
484,56,27702,2,0,P|508:116|484:200,1,150,2|10,1:0|1:2,0:0:0:0:
379,320,28686,2,0,P|307:340|235:323,1,150,2|8,1:0|1:2,0:0:0:0:
172,272,29424,1,0,0:0:0:0:
236,220,29670,6,0,L|248:64,1,150,2|10,1:0|1:2,0:0:0:0:
192,8,30407,1,0,0:0:0:0:
124,56,30653,2,0,B|118:113|118:113|123:150|123:150|116:207,1,150,2|10,1:0|1:2,0:0:0:0:
172,360,31637,2,0,B|248:348|248:348|340:360,1,150,2|10,1:0|1:2,0:0:0:0:
448,252,32620,2,0,B|375:261|375:261|299:249,1,150,2|8,1:2|1:2,0:0:0:0:
136,220,33604,6,0,P|120:120|140:76,1,150,2|2,1:0|1:0,0:0:0:0:
300,44,34588,2,0,B|344:32|344:32|436:48,2,112.5,2|2|2,1:0|0:0|0:0,0:0:0:0:
260,116,35571,2,0,B|276:192|276:192|260:268,1,150,2|0,1:0|1:2,0:0:0:0:
200,320,36309,1,2,0:0:0:0:
136,268,36555,2,0,B|121:197|121:197|137:121,1,150,2|0,1:0|1:0,0:0:0:0:
281,41,37538,6,0,P|352:19|423:39,1,150,0|0,1:0|1:0,0:0:0:0:
500,188,38522,2,0,P|429:210|358:190,1,150,0|2,1:0|1:0,0:0:0:0:
288,148,39260,1,0,0:0:0:0:
228,204,39506,2,0,B|216:268|236:288|256:308|228:380,1,150,2|0,1:0|1:2,0:0:0:0:
160,384,40243,1,2,0:0:0:0:
92,336,40489,2,0,B|104:272|84:252|64:232|92:160,1,150,2|0,1:0|1:0,0:0:0:0:
204,76,41473,6,0,P|220:176|200:220,1,150,2|2,1:0|1:0,0:0:0:0:
112,356,42456,2,0,B|68:368|68:368|-24:352,2,112.5,2|2|2,1:0|0:0|0:0,0:0:0:0:
176,304,43440,2,0,B|232:304|232:304|272:324|272:324|336:324,1,150,2|0,1:0|0:0,0:0:0:0:
400,352,44178,1,2,0:0:0:0:
448,284,44424,2,0,P|428:200|452:128,1,150,2|2,1:0|1:0,0:0:0:0:
356,0,45407,5,2,1:0:0:0:
232,108,45899,2,0,L|228:188,1,75,2|2,1:0|0:0,0:0:0:0:
289,240,46391,2,0,P|235:266|153:219,1,150,2|2,1:0|1:0,0:0:0:0:
4,172,47375,2,0,B|-12:104|-12:104|8:24,1,150,2|0,1:0|0:0,0:0:0:0:
88,52,48112,1,2,0:0:0:0:
164,16,48358,2,0,B|223:19|223:19|263:12|263:12|330:15,1,150,2|8,1:0|0:0,0:0:0:0:
432,124,49342,6,0,L|276:116,1,150,2|10,1:0|1:2,0:0:0:0:
122,153,50325,2,0,B|94:121|94:121|86:41,2,112.5,2|2|0,1:2|0:0|0:0,0:0:0:0:
180,212,51309,2,0,P|245:245|316:229,1,150,2|10,1:0|1:2,0:0:0:0:
452,136,52293,2,0,B|480:168|480:168|486:237,2,112.5,2|2|0,1:2|0:0|0:0,0:0:0:0:
388,80,53276,6,0,P|322:46|251:62,1,150,2|10,1:2|1:2,0:0:0:0:
276,232,54260,2,0,B|274:274|274:274|232:330,2,112.5,2|2|2,1:2|0:0|0:0,0:0:0:0:
252,152,55243,2,0,P|208:144|168:156,1,75,2|2,1:0|0:0,0:0:0:0:
140,80,55735,2,0,P|103:86|67:78,1,75,10|2,1:2|0:0,0:0:0:0:
10,139,56227,2,0,P|-16:85|31:3,1,150,0|8,1:2|1:2,0:0:0:0:
188,16,57211,6,0,B|264:28|264:28|356:16,1,150,2|10,1:0|1:2,0:0:0:0:
456,132,58194,2,0,B|489:157|489:157|511:224,2,112.5,2|2|0,1:0|0:0|0:0,0:0:0:0:
372,140,59178,2,0,P|303:113|233:136,1,150,2|10,1:0|1:2,0:0:0:0:
124,260,60161,2,0,B|90:285|90:285|68:352,2,112.5,2|2|0,1:2|0:0|0:0,0:0:0:0:
208,252,61145,6,0,L|364:264,2,150,2|10|2,1:2|1:2|1:0,0:0:0:0:
60,176,62620,1,8,1:2:0:0:
192,76,63112,2,0,B|228:55|228:55|298:61,2,112.5,2|2|2,0:0|0:0|0:0,0:0:0:0:
164,156,64096,2,0,P|137:224|160:294,1,150,2|8,0:0|0:0,0:0:0:0:
310,362,65079,5,8,0:0:0:0:
412,284,72948,6,0,B|428:208|428:208|408:136,2,150,10|10|10,0:0|0:0|0:0,0:0:0:0:
248,296,74424,2,0,L|172:292,1,75,10|10,0:0|0:0,0:0:0:0:
104,244,74915,2,0,B|104:192|104:192|120:152|120:152|120:96,2,150,10|10|8,0:0|0:0|0:0,0:0:0:0:
256,308,76391,2,0,L|330:311,1,75,10|10,0:0|0:0,0:0:0:0:
379,382,76883,6,0,P|415:319|389:251,1,150,10|10,0:0|0:0,0:0:0:0:
368,84,77866,2,0,B|304:80|304:80|268:64|268:64|216:60,1,150,8|10,0:0|0:0,0:0:0:0:
60,88,78850,2,8,P|68:132|56:172,1,75,10|10,0:0|0:0,0:0:0:0:
132,200,79342,2,0,P|126:237|134:273,1,75,10|10,0:0|0:0,0:0:0:0:
73,329,79834,2,0,P|127:355|209:308,1,150,0|8,1:0|0:0,0:0:0:0:
320,204,80817,6,0,B|376:188|400:200|424:212|476:192,1,150,6|10,1:2|1:2,0:0:0:0:
500,116,81555,1,0,0:0:0:0:
436,64,81801,2,8,B|380:80|356:68|332:56|280:76,1,150,2|8,1:0|1:2,0:0:0:0:
128,112,82784,2,0,L|132:268,1,150,2|10,1:0|1:2,0:0:0:0:
197,314,83522,2,0,P|111:344|63:311,1,150,2|0,0:0|0:0,0:0:0:0:
40,236,84260,2,0,L|38:159,1,75,8|0,1:2|0:0,0:0:0:0:
68,84,84752,6,0,P|152:60|212:80,1,150,2|10,1:0|1:2,0:0:0:0:
288,52,85489,1,2,0:0:0:0:
360,92,85735,2,0,B|412:96|412:96|484:68,2,112.5,2|2|2,1:2|0:0|0:0,0:0:0:0:
300,148,86719,2,0,P|276:232|296:292,1,150,2|10,1:0|1:2,0:0:0:0:
352,348,87456,1,2,0:0:0:0:
272,372,87702,2,0,B|212:368|212:368|172:348|172:348|128:344,1,150,0|8,1:2|1:2,0:0:0:0:
12,228,88686,6,0,B|0:148|0:148|28:56,1,150,2|10,1:0|1:2,0:0:0:0:
88,32,89424,1,2,0:0:0:0:
152,84,89670,2,0,B|164:164|164:164|136:256,1,150,2|8,1:0|1:2,0:0:0:0:
280,308,90653,2,0,L|436:312,1,150,2|10,1:0|1:2,0:0:0:0:
482,378,91391,2,0,P|512:292|479:244,1,150,2|0,0:0|0:0,0:0:0:0:
404,220,92129,2,0,L|327:218,1,75,8|0,1:2|0:0,0:0:0:0:
256,180,92620,6,0,P|236:100|276:32,1,150,2|10,1:0|1:2,0:0:0:0:
340,4,93358,1,2,0:0:0:0:
404,56,93604,2,0,B|456:60|456:60|528:32,2,112.5,2|2|2,1:0|0:0|0:0,0:0:0:0:
348,116,94588,2,0,P|277:137|210:107,2,150,2|2|0,0:0|0:0|0:0,0:0:0:0:
480,216,96063,1,0,0:0:0:0:
352,320,96555,6,0,B|292:320|292:320|248:340|248:340|206:340,1,150,2|14,1:2|1:2,0:0:0:0:
128,368,97293,1,0,0:0:0:0:
80,300,97538,2,0,P|101:229|71:162,1,150,2|10,1:2|1:2,0:0:0:0:
204,60,98522,2,0,L|368:40,2,150,2|10|2,1:2|1:2|1:2,0:0:0:0:
48,0,99997,1,8,1:2:0:0:
71,162,100489,6,0,B|55:226|71:242|87:262|71:322,1,150,2|10,1:2|1:2,0:0:0:0:
144,352,101227,1,0,0:0:0:0:
212,304,101473,2,0,B|284:292|284:292|368:303,1,150,2|10,1:2|1:2,0:0:0:0:
500,244,102456,2,0,P|521:315|491:382,2,150,2|10|2,1:2|1:2|1:2,0:0:0:0:
376,136,103932,1,8,1:2:0:0:
360,301,104424,6,0,P|289:280|222:310,1,150,2|14,1:2|1:2,0:0:0:0:
144,340,105161,1,0,0:0:0:0:
88,280,105407,2,0,B|88:220|88:220|68:176|68:176|68:134,1,150,2|10,1:2|1:2,0:0:0:0:
208,48,106391,2,0,P|279:27|346:57,1,150,2|10,1:2|1:2,0:0:0:0:
460,176,107375,2,0,P|389:197|322:167,1,150,2|8,1:2|1:2,0:0:0:0:
252,124,108112,1,0,0:0:0:0:
192,180,108358,6,0,L|184:332,1,150,2|10,1:2|1:2,0:0:0:0:
248,384,109096,1,0,0:0:0:0:
304,324,109342,2,0,B|306:274|306:274|321:232|321:232|325:172,1,150,2|10,1:2|1:2,0:0:0:0:
360,16,110325,2,0,B|284:28|284:28|192:16,1,150,2|10,1:2|1:2,0:0:0:0:
81,120,111309,2,0,B|154:111|154:111|237:124,1,150,2|8,1:2|1:2,0:0:0:0:
472,24,120161,6,0,P|496:84|456:168,1,150,0|0,0:0|0:0,0:0:0:0:
300,172,121145,2,0,B|256:160|256:160|164:176,2,112.5,0|0|0,0:0|0:0|0:0,0:0:0:0:
376,208,122129,2,0,P|400:268|360:352,1,150,2|0,0:0|0:0,0:0:0:0:
296,380,122866,1,2,0:0:0:0:
224,336,123112,2,0,B|160:336|160:336|128:324|128:324|76:324,1,150,2|2,0:0|0:0,0:0:0:0:
4,176,124096,5,2,0:0:0:0:
148,96,124588,2,0,L|232:96,1,75,2|2,0:0|0:0,0:0:0:0:
279,30,125079,2,0,P|307:90|263:174,1,150,2|2,0:0|0:0,0:0:0:0:
192,308,126063,2,0,B|262:316|262:316|348:300,1,150,2|0,0:0|0:0,0:0:0:0:
420,328,126801,1,2,0:0:0:0:
472,264,127047,2,0,B|472:200|472:200|484:168|484:168|484:116,1,150,2|10,0:0|0:0,0:0:0:0:
324,72,128030,6,0,P|264:48|180:88,1,150,6|0,0:0|0:0,0:0:0:0:
87,218,129014,2,0,L|67:370,2,150,0|0|0,0:0|0:0|0:0,0:0:0:0:
248,248,130489,2,0,L|324:264,2,75,2|2|2,0:0|0:0|0:0,0:0:0:0:
248,248,131965,6,0,L|267:99,1,150,0|0,0:0|0:0,0:0:0:0:
420,40,132948,2,0,P|444:100|404:184,2,150,0|0|0,0:0|0:0|0:0,0:0:0:0:
256,16,134424,2,0,L|182:0,2,75,2|2|2,0:0|0:0|0:0,0:0:0:0:
256,16,135899,6,0,L|236:164,1,150,10|8,0:0|0:0,0:0:0:0:
344,292,136883,2,0,P|404:316|488:276,2,150,10|10|10,0:0|0:0|0:0,0:0:0:0:
272,336,138112,1,8,0:0:0:0:
212,280,138358,2,0,L|132:268,2,75,10|10|10,0:0|0:0|0:0,0:0:0:0:
316,152,139342,2,0,L|390:163,1,75,8|8,0:0|0:0,0:0:0:0:
440,235,139834,6,0,P|474:178|439:90,1,150,10|8,0:0|0:0,0:0:0:0:
292,52,140817,2,0,L|143:32,2,150,10|10|10,0:0|0:0|0:0,0:0:0:0:
340,120,142047,1,8,0:0:0:0:
272,168,142293,2,0,L|260:242,2,75,10|10|10,0:0|0:0|0:0,0:0:0:0:
116,112,143276,2,0,L|127:37,1,75,8|8,0:0|0:0,0:0:0:0:
200,0,143768,5,4,0:0:0:0:
92,328,159506,6,0,P|156:352|248:324,1,150,10|10,0:0|0:0,0:0:0:0:
360,228,160489,2,0,P|296:204|204:232,1,150,10|8,0:0|0:0,0:0:0:0:
60,176,161473,2,0,B|40:104|40:104|64:12,1,150,10|10,0:0|0:0,0:0:0:0:
220,4,162456,2,8,B|272:4|272:4|304:20|304:20|384:20,1,150,8|8,0:0|0:0,0:0:0:0:
500,116,163440,6,0,P|524:180|496:272,1,150,10|10,0:0|0:0,0:0:0:0:
400,384,164423,2,8,P|376:320|404:228,1,150
332,88,165407,2,8,B|260:68|260:68|168:92,1,150,10|10,0:0|0:0,0:0:0:0:
120,136,166145,1,2,0:0:0:0:
56,81,166391,2,8,P|36:133|84:213,1,150,10|10,0:0|0:0,0:0:0:0:
212,316,167375,6,0,B|264:316|264:316|296:332|296:332|376:332,1,150,10|8,0:0|0:0,0:0:0:0:
476,216,168358,2,0,B|413:216|413:216|381:200|381:200|329:200,1,150,8|8,0:0|0:0,0:0:0:0:
256,236,169096,1,10,0:0:0:0:
192,184,169342,6,0,P|173:112|198:42,1,150,10|8,0:0|0:0,0:0:0:0:
272,8,170079,1,8,0:0:0:0:
340,56,170325,2,0,P|332:100|344:140,1,75,8|10,0:0|0:0,0:0:0:0:
405,177,170817,2,0,P|411:214|403:250,1,75,10|10,0:0|0:0,0:0:0:0:
457,313,171309,5,10,0:0:0:0:
256,192,171555,12,0,174260,0:0:0:0:
32,348,175243,6,0,P|56:272|32:196,1,150,6|10,1:0|1:2,0:0:0:0:
4,132,175981,1,0,0:0:0:0:
76,92,176227,2,0,B|128:91|128:91|160:108|160:108|222:106,1,150,2|8,1:2|1:2,0:0:0:0:
300,252,177211,2,0,L|456:248,1,150,2|10,1:0|1:2,0:0:0:0:
502,182,177949,2,0,P|532:268|499:316,1,150,2|0,0:0|0:0,0:0:0:0:
424,340,178687,2,0,L|347:342,1,75,8|0,1:2|0:0,0:0:0:0:
268,324,179178,6,0,P|250:252|274:182,1,150,2|10,1:0|1:2,0:0:0:0:
228,112,179915,1,2,0:0:0:0:
152,144,180161,2,0,B|100:148|100:148|28:120,2,112.5,2|2|2,1:2|0:0|0:0,0:0:0:0:
228,112,181145,2,0,P|300:94|370:118,1,150,2|10,1:2|1:2,0:0:0:0:
419,184,181883,1,2,0:0:0:0:
361,243,182129,2,0,P|289:261|219:237,1,150,0|8,1:2|1:2,0:0:0:0:
60,282,183112,6,0,B|44:226|56:202|68:178|48:126,1,150,6|10,1:0|1:2,0:0:0:0:
16,60,183850,1,2,0:0:0:0:
88,24,184096,2,0,B|140:23|140:23|172:40|172:40|234:38,1,150,2|8,1:0|1:2,0:0:0:0:
372,124,185079,2,0,L|376:280,1,150,2|10,1:0|1:2,0:0:0:0:
441,326,185817,2,0,P|355:356|307:323,1,150,2|0,0:0|0:0,0:0:0:0:
284,248,186555,2,0,L|282:171,1,75,8|0,1:2|0:0,0:0:0:0:
236,104,187047,6,0,P|170:73|105:105,1,150,2|10,1:2|1:2,0:0:0:0:
32,144,187784,1,0,0:0:0:0:
68,220,188030,2,0,B|64:272|64:272|92:344,2,112.5,2|2|2,1:2|0:0|0:0,0:0:0:0:
144,184,189014,2,0,L|304:180,1,150,2|10,1:2|1:2,0:0:0:0:
392,312,189997,1,0,1:2:0:0:
436,244,190243,2,0,L|547:242,2,75,2|10|2,0:0|1:2|0:0,0:0:0:0:
386,177,190981,6,0,P|371:86|392:29,1,150,6|14,1:2|1:2,0:0:0:0:
312,1,191719,1,0,0:0:0:0:
267,70,191965,2,0,L|107:66,1,150,2|10,1:2|1:2,0:0:0:0:
34,209,192948,2,0,B|53:276|53:276|29:363,2,150,2|10|2,1:2|1:2|1:2,0:0:0:0:
117,66,194424,1,8,1:2:0:0:
220,194,194915,6,0,B|279:196|279:196|311:188|311:188|378:190,1,150,2|10,1:2|1:2,0:0:0:0:
433,138,195653,1,0,0:0:0:0:
485,201,195899,2,0,P|500:292|479:349,1,150,2|10,1:2|1:2,0:0:0:0:
316,341,196883,2,0,L|155:335,2,150,2|10|2,1:2|1:2|1:2,0:0:0:0:
481,344,198358,1,8,1:2:0:0:
408,195,198850,6,0,L|398:44,1,150,2|14,1:2|1:2,0:0:0:0:
328,0,199588,1,0,0:0:0:0:
262,49,199833,2,0,L|252:200,1,150,2|10,1:2|1:2,0:0:0:0:
302,348,200817,2,0,P|214:356|152:320,1,150,2|10,1:2|1:2,0:0:0:0:
29,228,201801,2,0,P|96:197|169:208,1,150,2|8,1:2|1:2,0:0:0:0:
247,236,202538,1,2,0:0:0:0:
311,184,202784,6,0,L|462:194,1,150,2|10,1:2|1:2,0:0:0:0:
506,264,203522,1,0,0:0:0:0:
457,330,203768,2,0,L|306:340,1,150,2|10,1:2|1:2,0:0:0:0:
149,291,204751,2,0,B|137:215|137:215|149:123,1,150,2|10,1:2|1:2,0:0:0:0:
41,20,205735,2,0,B|50:93|50:93|38:169,1,150,2|8,1:2|1:2,0:0:0:0:
29,334,206719,6,0,P|106:318|183:338,1,150,0|0,1:2|1:2,0:0:0:0:
338,355,207702,2,0,L|325:201,1,150,0|0,1:2|1:2,0:0:0:0:
214,82,208686,2,0,L|201:236,1,150,0|0,1:2|1:2,0:0:0:0:
49,296,209669,2,0,B|54:241|54:241|51:208|51:208|59:115,1,150,0|0,1:2|1:2,0:0:0:0:
214,82,210653,6,0,P|291:66|368:86,1,150,0|0,1:2|1:2,0:0:0:0:
440,226,211637,2,0,P|363:242|286:222,1,150,0|0,1:2|1:2,0:0:0:0:
160,130,212620,2,0,B|148:206|148:206|160:298,1,150,0|0,1:2|1:2,0:0:0:0:
15,362,213604,2,0,B|24:289|24:289|12:213,1,150,0|0,1:2|1:2,0:0:0:0:
160,130,214588,6,0,B|152:78|152:78|175:4,2,112.5,0|0|0,1:2|1:2|1:2,0:0:0:0:
243,272,215817,1,0,1:2:0:0:
299,212,216063,2,0,L|389:215,1,75,8|0,1:2|0:0,0:0:0:0:
440,266,216555,6,0,P|457:206|436:159,2,112.5,0|0|0,1:2|1:2|1:2,0:0:0:0:
277,295,217784,1,0,1:2:0:0:
221,355,218030,2,0,L|131:352,1,75,8|0,1:2|0:0,0:0:0:0:
94,287,218522,6,0,B|86:235|86:235|109:161,2,112.5,0|0|0,1:2|1:2|1:2,0:0:0:0:
252,242,219751,1,0,1:2:0:0:
315,189,219997,2,0,L|405:192,1,75,8|0,1:2|0:0,0:0:0:0:
450,248,220489,6,0,B|457:299|457:299|439:357,2,112.5,0|0|0,1:2|1:2|1:2,0:0:0:0:
417,85,221719,1,0,1:2:0:0:
354,32,221965,2,0,L|264:35,1,75,8|0,1:2|0:0,0:0:0:0:
196,39,222456,5,2,0:0:0:0:
