osu file format v14

[General]
AudioFilename: audio.mp3
AudioLeadIn: 0
PreviewTime: 143768
Countdown: 0
SampleSet: Soft
StackLeniency: 0.6
Mode: 0
LetterboxInBreaks: 0
WidescreenStoryboard: 1

[Editor]
Bookmarks: 9982,17851,33589,49327,65064,96540,112278,120146,143753,159491,214573
DistanceSpacing: 1.8
BeatDivisor: 4
GridSize: 4
TimelineZoom: 1.4

[Metadata]
Title:Makuramoto ni Ghost
TitleUnicode:枕元にゴースト
Artist:Aiobahn & Yunomi
ArtistUnicode:Aiobahn & Yunomi
Creator:Mentai
Version:Hard
Source:
Tags:a ghost at the bedside nicamoq future house electronic snownino_
BeatmapID:1484153
BeatmapSetID:632102

[Difficulty]
HPDrainRate:5
CircleSize:3.8
OverallDifficulty:6
ApproachRate:8
SliderMultiplier:1.8
SliderTickRate:1

[Events]
//Background and Video events
0,0,"EYVv0i.jpg",0,0
//Break Periods
2,143999,158756
//Storyboard Layer 0 (Background)
//Storyboard Layer 1 (Fail)
//Storyboard Layer 2 (Pass)
//Storyboard Layer 3 (Foreground)
//Storyboard Sound Samples

[TimingPoints]
2129,491.803278688525,4,2,1,50,1,0
9997,-100,4,2,1,60,0,0
17375,-100,4,2,1,80,0,0
31637,-100,4,2,1,80,0,0
33604,-100,4,2,1,50,0,0
64588,-100,4,2,2,30,0,0
65079,-100,4,2,2,50,0,0
78850,-100,4,2,1,50,0,0
80325,-100,4,2,2,50,0,0
80817,-86.9565217391304,4,2,1,75,0,1
96555,-100,4,2,1,80,0,0
112292,-117.647058823529,4,2,1,80,0,0
112293,-117.647058823529,4,2,2,40,0,0
129014,-117.647058823529,4,2,1,40,0,0
135899,-117.647058823529,4,2,2,40,0,0
140817,-117.647058823529,4,2,2,50,0,0
141309,-117.647058823529,4,2,2,60,0,0
141801,-117.647058823529,4,2,2,70,0,0
142293,-117.647058823529,4,2,2,80,0,0
142784,-117.647058823529,4,2,2,90,0,0
143768,-117.647058823529,4,2,2,100,0,0
144014,-117.647058823529,4,2,2,40,0,0
159506,-100,4,2,2,50,0,0
175243,-86.9565217391304,4,2,1,75,0,1
190981,-100,4,2,2,75,0,0
191227,-100,4,2,1,75,0,0
206719,-100,4,2,2,75,0,0
214588,-100,4,2,1,75,0,0

[Colours]
Combo1 : 168,37,218
Combo2 : 19,4,198
Combo3 : 125,27,245
Combo4 : 29,102,237

[HitObjects]
60,328,9997,5,0,0:0:0:0:
60,328,10981,1,0,0:0:0:0:
128,272,11473,1,0,0:0:0:0:
192,336,11965,1,0,0:0:0:0:
260,276,12456,2,0,L|352:272,2,90,2|2|2,0:0|0:0|0:0,0:0:0:0:
260,276,13932,5,0,0:0:0:0:
260,276,14915,1,0,0:0:0:0:
316,208,15407,1,0,0:0:0:0:
252,144,15899,1,0,0:0:0:0:
312,76,16391,2,0,L|312:16,2,60,2|0|0,0:0|0:0|0:0,0:0:0:0:
252,144,16883,1,2,0:0:0:0:
99,255,17866,6,0,L|104:312,2,45,6|0|0,1:0|0:0|0:0,0:0:0:0:
59,183,18235,1,0,0:0:0:0:
127,139,18358,2,0,P|179:119|251:143,1,135,14|2,1:2|0:0,0:0:0:0:
308,200,18850,2,0,L|365:205,3,45,2|0|2|0,1:0|0:0|0:0|0:0,0:0:0:0:
380,128,19342,2,0,L|437:123,3,45,10|0|2|0,1:2|0:0|0:0|0:0,0:0:0:0:
468,192,19833,6,0,P|488:244|464:316,1,135,2|0,1:0|0:0,0:0:0:0:
388,348,20325,2,0,B|280:352|280:352|312:324|320:300,1,135,10|0,1:2|0:0,0:0:0:0:
352,272,20817,2,0,P|280:240|182:277,1,180,2|8,1:2|1:2,0:0:0:0:
60,228,21555,2,0,L|52:284,1,45,0|0,0:0|0:0,0:0:0:0:
124,316,21801,6,0,L|130:360,2,45,2|0|2,1:0|0:0|0:0,0:0:0:0:
188,271,22169,1,0,0:0:0:0:
244,336,22292,2,0,P|269:274|248:211,1,135,10|2,1:2|0:0,0:0:0:0:
176,176,22784,2,0,L|181:119,3,45,2|0|2|0,1:0|0:0|0:0|0:0,0:0:0:0:
104,104,23276,2,0,L|99:47,3,45,10|0|2|0,1:2|0:0|0:0|0:0,0:0:0:0:
176,32,23768,6,0,P|238:8|301:28,1,135,2|0,1:0|0:0,0:0:0:0:
360,84,24260,1,10,1:2:0:0:
284,196,24506,1,2,0:0:0:0:
284,196,24629,1,2,0:0:0:0:
284,196,24751,2,0,B|257:286|318:283|286:374,1,180,2|8,1:0|1:2,0:0:0:0:
416,368,25489,2,0,L|460:364,1,45,0|0,0:0|0:0,0:0:0:0:
472,284,25735,6,0,L|403:280,2,45,6|0|2,1:0|0:0|0:0,0:0:0:0:
512,212,26104,1,0,0:0:0:0:
444,172,26227,2,0,B|440:120|440:120|448:92|448:92|440:12,1,135,14|2,1:2|0:0,0:0:0:0:
368,76,26719,2,0,L|311:71,3,45,2|0|2|0,1:0|0:0|0:0|0:0,0:0:0:0:
296,148,27210,2,0,L|239:153,3,45,10|0|2|0,1:2|0:0|0:0|0:0,0:0:0:0:
188,92,27702,6,0,P|168:155|192:216,1,135,2|0,1:0|0:0,0:0:0:0:
252,272,28194,2,0,P|190:248|127:268,1,135,10|0,1:2|0:0,0:0:0:0:
88,348,28686,2,0,B|144:364|188:332|188:332|220:360|276:356,1,180,2|8,1:0|1:2,0:0:0:0:
364,296,29424,2,0,L|372:240,1,45,0|0,0:0|0:0,0:0:0:0:
300,208,29669,6,0,L|294:164,2,45,2|0|2,1:0|0:0|0:0,0:0:0:0:
252,272,30038,1,0,0:0:0:0:
192,216,30161,2,0,P|130:240|67:220,1,135,10|2,1:2|0:0,0:0:0:0:
100,144,30653,2,0,L|103:99,3,45,2|0|2|0,1:0|0:0|0:0|0:0,0:0:0:0:
28,72,31145,2,0,L|24:27,3,45,10|0|2|0,1:2|0:0|0:0|0:0,0:0:0:0:
104,4,31637,6,0,B|156:8|156:8|196:24|196:24|256:24,1,135,2|0,1:0|0:0,0:0:0:0:
316,24,32129,1,10,1:2:0:0:
424,112,32374,1,2,0:0:0:0:
424,112,32497,1,2,0:0:0:0:
424,112,32620,2,0,B|448:176|440:248|440:248|380:192,1,180,2|8,1:2|1:2,0:0:0:0:
240,160,33604,5,2,1:0:0:0:
156,240,33850,2,0,L|108:256,2,45,0|0|2,0:0|0:0|1:0,0:0:0:0:
276,284,34342,1,0,0:0:0:0:
276,284,34465,1,0,0:0:0:0:
276,284,34588,2,0,B|344:272|344:272|400:236,2,135,2|2|2,1:0|0:0|0:0,0:0:0:0:
179,350,35571,6,0,P|159:302|167:254,1,90,2|0,1:0|0:0,0:0:0:0:
220,204,35940,2,0,P|172:184|124:192,1,90,2|0,0:0|0:0,0:0:0:0:
60,224,36309,1,2,0:0:0:0:
60,224,36555,2,0,B|40:168|64:136|88:100|56:40,1,180,2|0,1:0|1:0,0:0:0:0:
236,0,37538,5,0,1:0:0:0:
216,114,37784,2,0,L|220:210,1,90,2|0,0:0|1:0,0:0:0:0:
328,252,38276,2,0,L|332:156,1,90,2|0,0:0|1:0,0:0:0:0:
416,80,38768,2,0,L|412:24,2,45,0|0|2,0:0|0:0|1:0,0:0:0:0:
484,176,39260,1,0,0:0:0:0:
484,176,39383,1,0,0:0:0:0:
484,176,39506,6,0,L|480:265,1,90,2|0,1:0|0:0,0:0:0:0:
440,336,39874,2,0,P|388:344|352:332,1,90,2|0,0:0|0:0,0:0:0:0:
284,288,40243,1,2,0:0:0:0:
284,288,40489,2,0,B|256:264|256:264|316:195|247:122,1,180,2|0,1:0|1:0,0:0:0:0:
132,24,41473,5,2,1:0:0:0:
56,112,41719,2,0,L|8:132,2,45,0|0|2,0:0|0:0|1:0,0:0:0:0:
172,132,42210,1,0,0:0:0:0:
172,132,42333,1,0,0:0:0:0:
172,132,42456,2,0,B|240:120|240:120|296:84,2,135,2|2|2,1:0|0:0|0:0,0:0:0:0:
88,216,43440,6,0,P|112:252|117:297,1,90,2|0,1:0|0:0,0:0:0:0:
71,365,43809,2,0,P|113:377|157:367,1,90,2|0,0:0|0:0,0:0:0:0:
225,320,44178,1,2,0:0:0:0:
225,320,44424,1,2,1:0:0:0:
400,360,44915,2,0,L|404:268,1,90,2|2,1:0|0:0,0:0:0:0:
412,152,45407,5,2,1:0:0:0:
252,240,45899,2,0,L|248:148,1,90,2|2,1:0|0:0,0:0:0:0:
240,32,46391,2,0,P|184:16|64:40,1,180,2|2,1:0|1:0,0:0:0:0:
16,112,47129,1,2,0:0:0:0:
104,124,47374,6,0,L|100:216,1,90,2|0,1:0|0:0,0:0:0:0:
48,276,47743,2,0,P|100:296|140:284,1,90,2|0,0:0|0:0,0:0:0:0:
200,244,48112,1,2,0:0:0:0:
200,244,48358,2,0,B|236:256|236:256|256:232|256:232|324:268|384:220,1,180,2|8,1:0|0:0,0:0:0:0:
484,324,49342,6,0,L|480:376,2,45,2|0|2,1:0|0:0|0:0,0:0:0:0:
440,256,49710,1,0,0:0:0:0:
496,196,49833,2,0,P|504:140|488:88,1,90,10|0,1:2|0:0,0:0:0:0:
376,44,50325,1,2,1:2:0:0:
320,104,50448,2,0,P|264:112|212:96,1,90,2|2,0:0|0:0,0:0:0:0:
156,72,50817,1,8,1:2:0:0:
96,204,51309,6,0,L|44:200,2,45,2|0|2,1:0|0:0|0:0,0:0:0:0:
164,160,51678,1,0,0:0:0:0:
224,216,51801,2,0,P|280:224|332:208,1,90,10|0,1:2|0:0,0:0:0:0:
408,120,52292,1,2,1:2:0:0:
468,176,52415,2,0,P|476:232|460:284,1,90,2|2,0:0|0:0,0:0:0:0:
436,340,52784,1,8,1:2:0:0:
312,216,53276,5,2,1:2:0:0:
228,136,53522,2,0,L|172:140,2,45,0|0|10,0:0|0:0|1:2,0:0:0:0:
348,92,54014,1,0,0:0:0:0:
348,92,54137,1,0,0:0:0:0:
348,92,54260,2,0,L|440:88,1,90,2|0,1:2|0:0,0:0:0:0:
500,36,54629,2,0,P|520:88|508:128,1,90,2|0,0:0|0:0,0:0:0:0:
460,180,54997,2,0,L|456:236,1,45,2|0,0:0|0:0,0:0:0:0:
384,292,55243,6,0,L|380:247,1,45,2|0,1:0|0:0,0:0:0:0:
304,164,55489,2,0,L|307:208,1,45,2|0,0:0|0:0,0:0:0:0:
248,320,55735,2,0,L|244:275,2,45,10|0|2,1:2|0:0|0:0,0:0:0:0:
160,336,56104,2,0,B|89:362|-4:356|-4:356|72:287,1,225,2|8,0:0|1:2,0:0:0:0:
176,196,57210,6,0,L|221:192,2,45,2|0|2,1:0|0:0|0:0,0:0:0:0:
104,232,57579,1,0,0:0:0:0:
44,176,57702,2,0,P|36:120|52:68,1,90,10|0,1:2|0:0,0:0:0:0:
168,32,58194,2,0,L|213:28,1,45,2|0,1:0|0:0,0:0:0:0:
280,72,58440,1,2,0:0:0:0:
352,12,58563,2,0,P|372:80|336:148,1,135,2|0,0:0|0:0,0:0:0:0:
220,192,59178,6,0,L|224:147,2,45,2|0|2,1:0|0:0|0:0,0:0:0:0:
184,264,59547,1,0,0:0:0:0:
240,324,59669,2,0,P|296:332|348:316,1,90,10|2,1:2|0:0,0:0:0:0:
488,288,60161,2,0,L|492:243,1,45,2|0,1:2|0:0,0:0:0:0:
448,176,60407,1,2,0:0:0:0:
505,112,60530,2,0,P|437:92|369:128,1,135,2|0,0:0|0:0,0:0:0:0:
276,204,61145,6,0,P|248:140|260:64,1,135,2|0,1:2|0:0,0:0:0:0:
212,8,61637,2,0,L|116:0,1,90,10|0,1:2|0:0,0:0:0:0:
40,108,62129,2,0,B|67:159|43:195|19:227|39:283,1,180,2|8,1:0|1:2,0:0:0:0:
140,372,62866,1,2,0:0:0:0:
244,284,63112,6,0,L|336:288,1,90,2|0,0:0|0:0,0:0:0:0:
396,340,63481,2,0,P|416:288|404:248,1,90,2|0,0:0|0:0,0:0:0:0:
364,188,63850,1,2,0:0:0:0:
364,188,64096,2,0,B|336:164|336:164|386:99|339:19,1,180,2|8,0:0|0:0,0:0:0:0:
160,80,65079,5,8,0:0:0:0:
160,80,65571,1,8,0:0:0:0:
160,80,66063,1,8,0:0:0:0:
160,80,66555,1,8,0:0:0:0:
64,188,67047,1,8,0:0:0:0:
64,188,67538,1,8,0:0:0:0:
64,188,68030,1,8,0:0:0:0:
64,188,68522,1,8,0:0:0:0:
204,216,69014,5,8,0:0:0:0:
204,216,69506,1,8,0:0:0:0:
204,216,69997,1,8,0:0:0:0:
204,216,70489,1,8,0:0:0:0:
108,324,70981,1,8,0:0:0:0:
108,324,71473,1,8,0:0:0:0:
108,324,71965,1,8,0:0:0:0:
108,324,72456,1,8,0:0:0:0:
248,348,72948,5,10,0:0:0:0:
248,348,73194,1,8,0:0:0:0:
324,272,73440,1,10,0:0:0:0:
324,272,73686,1,8,0:0:0:0:
404,344,73932,1,10,0:0:0:0:
404,344,74178,1,10,0:0:0:0:
484,268,74424,2,0,L|480:176,1,90,10|10,0:0|0:0,0:0:0:0:
416,92,74915,5,10,0:0:0:0:
416,92,75161,1,10,0:0:0:0:
340,168,75407,1,10,0:0:0:0:
340,168,75653,1,10,0:0:0:0:
260,96,75899,1,8,0:0:0:0:
260,96,76145,1,10,0:0:0:0:
184,176,76391,2,0,L|92:180,1,90,10|10,0:0|0:0,0:0:0:0:
96,288,76883,6,0,L|178:291,3,45,10|8|10|8,0:0|0:0|0:0|0:0,0:0:0:0:
188,360,77374,2,0,L|270:356,3,45,10|8|10|8,0:0|0:0|0:0|0:0,0:0:0:0:
252,276,77866,2,0,L|334:279,1,45,8|8,0:0|0:0,0:0:0:0:
392,224,78112,2,0,L|347:214,1,45,10|8,0:0|0:0,0:0:0:0:
240,172,78358,2,0,L|281:155,1,45,10|8,0:0|0:0,0:0:0:0:
392,112,78604,2,0,L|353:88,1,45,10|8,0:0|0:0,0:0:0:0:
284,32,78850,5,10,0:0:0:0:
256,192,78973,12,8,80325,0:0:0:0:
413,83,80817,6,0,L|417:15,2,51.7500009870529,6|0|2,1:2|0:0|0:0,0:0:0:0:
472,156,81186,1,2,0:0:0:0:
380,172,81309,2,0,P|320:188|272:160,1,103.500001974106,10|0,1:2|0:0,0:0:0:0:
212,112,81678,1,2,0:0:0:0:
184,200,81801,2,0,L|188:304,1,103.500001974106,2|0,1:0|0:0,0:0:0:0:
235,367,82169,2,0,P|187:384|140:368,1,103.500001974106,2|0,0:0|0:0,0:0:0:0:
84,292,82538,2,0,L|84:216,1,51.7500009870529,2|0,0:0|0:0,0:0:0:0:
20,172,82784,5,2,1:0:0:0:
108,144,82907,2,0,P|208:124|268:156,1,155.250002961159,2|10,0:0|1:2,0:0:0:0:
308,220,83399,1,2,0:0:0:0:
364,148,83522,1,2,0:0:0:0:
429,220,83645,2,0,P|457:166|439:93,1,103.500001974106,2|0,0:0|0:0,0:0:0:0:
403,51,84014,1,2,0:0:0:0:
314,68,84137,2,0,L|206:64,2,103.500001974106,2|2|2,0:0|0:0|0:0,0:0:0:0:
403,51,84751,6,0,P|403:-1|395:-21,2,51.7500009870529,2|0|0,1:0|0:0|0:0,0:0:0:0:
481,216,85243,2,0,L|421:224,1,51.7500009870529,10|0,1:2|0:0,0:0:0:0:
363,161,85489,2,0,L|303:153,1,51.7500009870529,2|0,0:0|0:0,0:0:0:0:
272,240,85735,2,0,L|212:248,1,51.7500009870529,2|2,1:2|0:0,0:0:0:0:
140,200,85981,1,2,0:0:0:0:
80,272,86104,2,0,P|78:323|105:366,1,103.500001974106,2|0,0:0|0:0,0:0:0:0:
200,368,86473,2,0,L|251:361,1,51.7500009870529,2|0,0:0|0:0,0:0:0:0:
340,333,86719,5,2,1:0:0:0:
415,239,86842,2,0,P|389:235|363:238,1,51.7500009870529,2|0,0:0|0:0,0:0:0:0:
272,264,87088,2,0,P|268:238|272:212,2,51.7500009870529,0|10|0,0:0|1:2|0:0,0:0:0:0:
251,361,87456,1,2,0:0:0:0:
180,288,87579,2,0,B|128:284|128:284|92:300|92:300|28:296,1,155.250002961159,2|0,0:0|0:0,0:0:0:0:
12,152,88194,1,8,1:2:0:0:
12,152,88686,6,0,L|8:88,2,51.7500009870529,2|0|0,1:0|0:0|0:0,0:0:0:0:
72,224,89055,1,0,0:0:0:0:
112,140,89178,2,0,P|168:128|244:152,1,103.500001974106,10|2,1:2|0:0,0:0:0:0:
272,208,89547,1,2,0:0:0:0:
316,124,89669,2,0,L|420:128,1,103.500001974106,2|0,1:0|0:0,0:0:0:0:
482,175,90038,2,0,P|499:127|482:79,1,103.500001974106,2|0,0:0|0:0,0:0:0:0:
424,8,90407,2,0,L|368:5,1,51.7500009870529,2|0,0:0|0:0,0:0:0:0:
292,48,90653,5,2,1:0:0:0:
216,8,90776,2,0,B|140:4|140:4|60:20,1,155.250002961159,2|10,0:0|1:2,0:0:0:0:
0,92,91268,1,2,0:0:0:0:
56,164,91391,1,2,0:0:0:0:
148,140,91514,2,0,B|256:145,1,103.500001974106,2|0,0:0|0:0,0:0:0:0:
339,117,91883,1,2,0:0:0:0:
414,163,92006,2,0,P|422:95|402:55,2,103.500001974106,2|2|2,0:0|0:0|0:0,0:0:0:0:
339,117,92620,6,0,P|330:141|330:169,2,51.7500009870529,2|0|0,1:0|0:0|0:0,0:0:0:0:
236,300,93112,2,0,P|284:315|334:305,1,103.500001974106,10|2,1:2|0:0,0:0:0:0:
424,328,93481,1,2,0:0:0:0:
423,239,93604,2,0,L|427:135,1,103.500001974106,2|0,1:0|0:0,0:0:0:0:
474,73,93973,2,0,P|426:55|378:72,1,103.500001974106,2|0,0:0|0:0,0:0:0:0:
307,131,94342,2,0,L|304:187,1,51.7500009870529,2|0,0:0|0:0,0:0:0:0:
280,276,94588,6,0,P|305:280|330:276,2,51.7500009870529,2|2|2,0:0|0:0|0:0,0:0:0:0:
160,136,95079,2,0,L|162:84,2,51.7500009870529,2|2|0,0:0|0:0|0:0,0:0:0:0:
84,188,95448,2,0,B|35:280|84:368|84:368|96:345|132:314,1,258.750004935265,2|0,0:0|0:0,0:0:0:0:
400,324,96555,6,0,L|457:319,2,45,2|0|2,1:2|0:0|0:0,0:0:0:0:
328,360,96924,1,0,0:0:0:0:
276,300,97047,2,0,P|260:232|280:160,1,135,14|2,1:2|0:0,0:0:0:0:
356,144,97538,2,0,L|361:87,3,45,2|0|2|0,1:2|0:0|0:0|0:0,0:0:0:0:
280,76,98030,2,0,L|276:31,3,45,10|0|2|0,1:2|0:0|0:0|0:0,0:0:0:0:
356,8,98522,6,0,B|464:4|464:4|432:32|424:56,1,135,2|0,1:2|0:0,0:0:0:0:
443,102,99014,2,0,P|431:166|459:230,1,135,10|0,1:2|0:0,0:0:0:0:
390,271,99506,2,0,P|350:181|368:84,1,180,2|8,1:2|1:2,0:0:0:0:
244,32,100243,2,0,L|199:35,1,45,0|0,0:0|0:0,0:0:0:0:
136,88,100489,6,0,L|91:84,2,45,2|0|2,1:2|0:0|0:0,0:0:0:0:
196,140,100858,1,0,0:0:0:0:
132,192,100981,2,0,B|128:240|128:240|140:280|140:280|132:352,1,135,10|2,1:2|0:0,0:0:0:0:
208,360,101473,2,0,L|265:365,3,45,2|0|2|0,1:2|0:0|0:0|0:0,0:0:0:0:
276,284,101965,2,0,L|320:280,3,45,10|0|2|0,1:2|0:0|0:0|0:0,0:0:0:0:
381,338,102456,6,0,P|401:274|369:210,1,135,2|0,1:2|0:0,0:0:0:0:
308,160,102948,1,10,1:2:0:0:
176,196,103194,1,2,0:0:0:0:
176,196,103317,1,2,0:0:0:0:
176,196,103440,2,0,B|144:152|174:116|208:80|172:20,1,180,2|8,1:2|1:2,0:0:0:0:
308,24,104178,2,0,L|352:28,1,45,0|0,0:0|0:0,0:0:0:0:
404,92,104424,6,0,L|461:87,2,45,2|0|2,1:2|0:0|0:0,0:0:0:0:
348,152,104792,1,0,0:0:0:0:
424,180,104915,2,0,P|438:245|422:310,1,135,14|2,1:2|0:0,0:0:0:0:
348,344,105407,2,0,L|303:347,3,45,2|0|2|0,1:2|0:0|0:0|0:0,0:0:0:0:
260,280,105899,2,0,L|215:276,3,45,10|0|2|0,1:2|0:0|0:0|0:0,0:0:0:0:
168,340,106391,6,0,P|102:354|37:338,1,135,2|0,1:2|0:0,0:0:0:0:
56,260,106883,2,0,P|70:194|54:129,1,135,10|0,1:2|0:0,0:0:0:0:
128,92,107374,2,0,B|158:165|148:236|148:236|160:216|176:200,1,180,2|8,1:2|1:2,0:0:0:0:
260,280,108112,2,0,L|304:283,1,45,0|0,0:0|0:0,0:0:0:0:
348,216,108358,6,0,L|392:212,2,45,2|0|2,1:2|0:0|0:0,0:0:0:0:
280,172,108727,1,0,0:0:0:0:
352,132,108850,2,0,B|364:64|364:64|332:4,1,135,10|2,1:2|0:0,0:0:0:0:
252,0,109342,2,0,L|207:3,3,45,2|0|2|0,1:2|0:0|0:0|0:0,0:0:0:0:
176,80,109833,2,0,L|131:76,3,45,10|0|2|0,1:2|0:0|0:0|0:0,0:0:0:0:
79,12,110325,6,0,P|52:72|72:135,1,135,2|0,1:2|0:0,0:0:0:0:
128,196,110817,1,10,1:2:0:0:
68,316,111063,1,2,0:0:0:0:
68,316,111186,1,2,0:0:0:0:
68,316,111309,2,0,B|104:328|104:328|124:304|124:304|192:340|252:292,1,180,2|8,1:2|1:2,0:0:0:0:
460,340,112292,6,0,P|476:266|449:195,1,153.000002918243,4|0,0:0|0:0,0:0:0:0:
316,76,113276,2,0,P|289:146|305:220,1,153.000002918243,0|0,0:0|0:0,0:0:0:0:
252,296,114014,1,0,0:0:0:0:
252,296,114137,1,0,0:0:0:0:
252,296,114260,2,0,P|188:308|108:288,2,114.750002188683,2|2|2,0:0|0:0|0:0,0:0:0:0:
344,312,115243,2,0,P|414:285|488:301,1,153.000002918243,2|0,0:0|0:0,0:0:0:0:
480,120,116227,6,0,P|408:104|328:136,1,153.000002918243,0|0,0:0|0:0,0:0:0:0:
252,296,117210,2,0,P|181:322|107:306,1,153.000002918243,0|0,0:0|0:0,0:0:0:0:
56,232,117948,1,0,0:0:0:0:
56,232,118071,1,0,0:0:0:0:
56,232,118194,2,0,P|48:175|60:119,2,114.750002188683,2|2|2,0:0|0:0|0:0,0:0:0:0:
148,216,119178,2,0,P|221:200|292:226,1,153.000002918243,2|0,0:0|0:0,0:0:0:0:
468,328,120161,6,0,P|484:255|458:184,1,153.000002918243,0|0,0:0|0:0,0:0:0:0:
372,105,120899,1,0,0:0:0:0:
372,105,121022,1,0,0:0:0:0:
372,105,121145,2,0,P|355:52|368:-7,2,114.750002188683,0|0|0,0:0|0:0|0:0,0:0:0:0:
363,219,122129,6,0,P|311:224|267:202,1,76.5000014591217,2|0,0:0|0:0,0:0:0:0:
219,183,122497,2,0,P|213:234|235:278,1,76.5000014591217,2|0,0:0|0:0,0:0:0:0:
263,327,122866,1,2,0:0:0:0:
263,327,123112,1,2,0:0:0:0:
112,318,123604,1,2,0:0:0:0:
23,271,123850,1,2,0:0:0:0:
110,216,124096,6,0,P|134:164|114:72,1,153.000002918243,2|2,0:0|0:0,0:0:0:0:
192,15,124833,1,2,0:0:0:0:
259,85,125079,2,0,B|311:81|311:81|339:89|339:89|419:81,1,153.000002918243,2|2,0:0|0:0,0:0:0:0:
483,155,125817,1,2,0:0:0:0:
431,239,126063,6,0,L|339:249,1,76.5000014591217,2|0,0:0|0:0,0:0:0:0:
303,303,126432,2,0,P|279:252|288:211,1,76.5000014591217,2|0,0:0|0:0,0:0:0:0:
319,163,126801,1,2,0:0:0:0:
319,163,127047,2,0,P|247:159|200:217,1,153.000002918243,2|10,0:0|0:0,0:0:0:0:
356,320,128030,5,6,0:0:0:0:
356,320,129014,1,0,0:0:0:0:
288,376,129506,1,0,0:0:0:0:
224,312,129997,1,0,0:0:0:0:
156,372,130489,2,0,L|64:376,2,76.5000014591217,2|2|2,0:0|0:0|0:0,0:0:0:0:
156,372,131965,5,0,0:0:0:0:
156,372,132948,1,0,0:0:0:0:
100,304,133440,1,0,0:0:0:0:
164,240,133932,1,0,0:0:0:0:
104,172,134424,2,0,L|100:80,2,76.5000014591217,2|2|2,0:0|0:0|0:0,0:0:0:0:
104,172,135899,5,10,0:0:0:0:
104,172,136145,1,8,0:0:0:0:
104,172,136391,1,8,0:0:0:0:
104,172,136637,1,8,0:0:0:0:
172,228,136883,1,10,0:0:0:0:
172,228,137129,1,8,0:0:0:0:
236,164,137374,1,10,0:0:0:0:
236,164,137620,1,8,0:0:0:0:
304,224,137866,5,10,0:0:0:0:
304,224,138112,1,8,0:0:0:0:
361,161,138358,1,10,0:0:0:0:
421,225,138604,1,10,0:0:0:0:
472,152,138850,2,0,L|476:72,1,76.5000014591217,10|8,0:0|0:0,0:0:0:0:
400,12,139342,2,0,P|364:4|324:9,1,76.5000014591217,8|8,0:0|0:0,0:0:0:0:
196,56,139833,6,0,L|192:112,7,38.2500007295609,10|8|8|8|8|8|8|8,0:0|0:0|0:0|0:0|0:0|0:0|0:0|0:0,0:0:0:0:
136,144,140817,2,0,L|140:200,3,38.2500007295609,10|8|8|8,0:0|0:0|0:0|0:0,0:0:0:0:
208,212,141309,2,0,L|204:268,3,38.2500007295609,10|8|8|8,0:0|0:0|0:0|0:0,0:0:0:0:
148,300,141801,2,0,L|152:356,3,38.2500007295609,10|8|8|8,0:0|0:0|0:0|0:0,0:0:0:0:
220,372,142292,6,0,L|276:368,1,38.2500007295609,10|8,0:0|0:0,0:0:0:0:
336,276,142538,2,0,L|297:278,1,38.2500007295609,10|8,0:0|0:0,0:0:0:0:
208,212,142784,2,0,P|200:136|228:64,1,153.000002918243,10|8,0:0|0:0,0:0:0:0:
420,12,143768,5,4,0:0:0:0:
128,352,159506,5,10,0:0:0:0:
128,352,159997,1,10,0:0:0:0:
128,352,160489,1,10,0:0:0:0:
128,352,160981,1,8,0:0:0:0:
32,244,161473,1,10,0:0:0:0:
32,244,161965,1,10,0:0:0:0:
32,244,162456,1,8,0:0:0:0:
32,244,162948,1,8,0:0:0:0:
172,216,163440,5,10,0:0:0:0:
172,216,163932,1,10,0:0:0:0:
172,216,164424,1,10,0:0:0:0:
172,216,164915,1,8,0:0:0:0:
76,108,165407,1,10,0:0:0:0:
76,108,165899,1,10,0:0:0:0:
76,108,166391,1,10,0:0:0:0:
76,108,166883,1,10,0:0:0:0:
216,84,167374,5,10,0:0:0:0:
216,84,167620,1,8,0:0:0:0:
292,160,167866,1,8,0:0:0:0:
292,160,168112,1,8,0:0:0:0:
372,88,168358,1,8,0:0:0:0:
372,88,168604,1,8,0:0:0:0:
452,164,168850,1,8,0:0:0:0:
448,253,169096,1,10,0:0:0:0:
372,324,169342,5,10,0:0:0:0:
372,324,169588,1,8,0:0:0:0:
296,248,169833,1,8,0:0:0:0:
296,248,170079,1,8,0:0:0:0:
216,320,170325,1,8,0:0:0:0:
216,320,170571,1,10,0:0:0:0:
139,244,170817,1,10,0:0:0:0:
143,154,171063,1,10,0:0:0:0:
207,79,171309,6,0,L|289:76,3,45,10|8|8|8,0:0|0:0|0:0|0:0,0:0:0:0:
299,7,171801,2,0,L|381:11,3,45,8|8|8|8,0:0|0:0|0:0|0:0,0:0:0:0:
371,87,172292,2,0,L|453:84,1,45,8|8,0:0|0:0,0:0:0:0:
511,139,172538,2,0,L|466:148,1,45,8|8,0:0|0:0,0:0:0:0:
359,191,172784,2,0,L|400:207,1,45,8|8,0:0|0:0,0:0:0:0:
511,251,173030,2,0,L|472:274,1,45,10|10,0:0|0:0,0:0:0:0:
403,331,173276,5,10,0:0:0:0:
256,192,173399,12,8,174751,0:0:0:0:
40,300,175243,6,0,L|32:360,2,51.7500009870529,6|0|2,1:0|0:0|0:0,0:0:0:0:
116,248,175612,1,2,0:0:0:0:
36,200,175735,2,0,P|27:153|56:94,1,103.500001974106,10|0,1:2|0:0,0:0:0:0:
128,56,176104,1,2,0:0:0:0:
200,116,176227,2,0,L|304:120,1,103.500001974106,2|0,1:2|0:0,0:0:0:0:
368,72,176596,2,0,P|351:120|367:167,1,103.500001974106,2|0,0:0|0:0,0:0:0:0:
400,256,176965,2,0,L|324:256,1,51.7500009870529,2|0,0:0|0:0,0:0:0:0:
268,308,177210,5,2,1:0:0:0:
195,254,177333,2,0,P|167:194|207:110,1,155.250002961159,2|10,0:0|1:2,0:0:0:0:
284,76,177825,1,2,0:0:0:0:
344,148,177948,1,2,0:0:0:0:
403,77,178071,2,0,P|430:116|422:194,1,103.500001974106,2|0,0:0|0:0,0:0:0:0:
400,256,178440,1,2,0:0:0:0:
446,339,178563,2,0,P|395:349|346:334,2,103.500001974106,2|2|2,0:0|0:0|0:0,0:0:0:0:
400,256,179178,6,0,P|420:233|425:205,2,51.7500009870529,2|0|0,1:0|0:0|0:0,0:0:0:0:
404,78,179669,2,0,L|344:86,1,51.7500009870529,10|0,1:2|0:0,0:0:0:0:
285,23,179915,2,0,L|225:15,1,51.7500009870529,2|0,0:0|0:0,0:0:0:0:
194,102,180161,2,0,L|134:110,1,51.7500009870529,2|2,1:2|0:0,0:0:0:0:
76,44,180407,1,2,0:0:0:0:
44,132,180530,2,0,P|64:178|55:229,1,103.500001974106,2|0,0:0|0:0,0:0:0:0:
4,308,180899,2,0,L|12:368,1,51.7500009870529,2|0,0:0|0:0,0:0:0:0:
115,355,181145,5,2,1:2:0:0:
212,312,181268,2,0,P|216:286|212:260,1,51.7500009870529,2|0,0:0|0:0,0:0:0:0:
105,229,181514,2,0,P|79:225|53:229,2,51.7500009870529,0|10|0,0:0|1:2|0:0,0:0:0:0:
166,144,181883,1,2,0:0:0:0:
258,175,182006,2,0,B|322:179|322:179|358:163|358:163|410:167,1,155.250002961159,2|0,0:0|0:0,0:0:0:0:
480,300,182620,1,8,1:2:0:0:
480,300,183112,6,0,L|488:360,2,51.7500009870529,6|0|0,1:0|0:0|0:0,0:0:0:0:
396,256,183481,1,0,0:0:0:0:
476,208,183604,2,0,P|485:161|456:102,1,103.500001974106,10|2,1:2|0:0,0:0:0:0:
380,68,183973,1,2,0:0:0:0:
316,132,184096,2,0,L|212:136,1,103.500001974106,2|0,1:0|0:0,0:0:0:0:
148,88,184465,2,0,P|165:136|149:183,1,103.500001974106,2|0,0:0|0:0,0:0:0:0:
116,272,184833,2,0,L|192:272,1,51.7500009870529,2|0,0:0|0:0,0:0:0:0:
232,336,185079,5,2,1:0:0:0:
257,251,185202,2,0,P|317:223|401:263,1,155.250002961159,2|10,0:0|1:2,0:0:0:0:
444,336,185694,1,2,0:0:0:0:
492,256,185817,1,2,0:0:0:0:
448,176,185940,2,0,P|435:113|451:48,1,103.500001974106,2|0,0:0|0:0,0:0:0:0:
484,0,186309,1,2,0:0:0:0:
390,3,186432,2,0,L|282:7,2,103.500001974106,2|2|2,0:0|0:0|0:0,0:0:0:0:
484,0,187047,6,0,P|476:24|458:43,2,51.7500009870529,2|0|0,1:2|0:0|0:0,0:0:0:0:
419,177,187538,2,0,P|371:168|327:120,1,103.500001974106,10|0,1:2|0:0,0:0:0:0:
264,60,187907,1,2,0:0:0:0:
216,140,188030,2,0,L|212:244,1,103.500001974106,2|0,1:2|0:0,0:0:0:0:
260,308,188399,2,0,P|212:291|165:307,1,103.500001974106,2|0,0:0|0:0,0:0:0:0:
76,340,188768,2,0,L|76:264,1,51.7500009870529,2|0,0:0|0:0,0:0:0:0:
100,196,189014,6,0,P|74:191|49:195,2,51.7500009870529,2|2|2,1:2|0:0|0:0,0:0:0:0:
260,308,189506,2,0,L|260:359,2,51.7500009870529,10|2|0,1:2|0:0|0:0,0:0:0:0:
316,232,189874,2,0,B|346:156|260:151|324:58,1,155.250002961159,2|2,0:0|0:0,0:0:0:0:
450,43,190489,2,0,P|463:92|444:143,1,103.500001974106,10|2,1:2|0:0,0:0:0:0:
462,302,190981,6,0,L|455:360,2,45,6|0|2,1:2|0:0|0:0,0:0:0:0:
407,240,191350,1,0,0:0:0:0:
343,290,191473,2,0,P|281:314|218:294,1,135,14|2,1:2|0:0,0:0:0:0:
166,231,191965,2,0,L|159:172,3,45,2|0|2|0,1:2|0:0|0:0|0:0,0:0:0:0:
225,137,192456,2,0,L|231:78,3,45,10|0|2|0,1:2|0:0|0:0|0:0,0:0:0:0:
170,34,192948,6,0,P|234:9|294:38,1,135,2|0,1:2|0:0,0:0:0:0:
317,112,193440,2,0,B|305:212|305:212|354:182,1,135,10|0,1:2|0:0,0:0:0:0:
411,168,193932,2,0,P|436:228|396:333,1,180,2|8,1:2|1:2,0:0:0:0:
236,346,194669,2,0,L|180:354,1,45,2|2,0:0|0:0,0:0:0:0:
148,282,194915,6,0,L|104:276,2,45,2|0|2,1:2|0:0|0:0,0:0:0:0:
212,234,195283,1,0,0:0:0:0:
156,174,195407,2,0,P|180:112|160:49,1,135,10|2,1:2|0:0,0:0:0:0:
84,16,195899,2,0,L|40:22,3,45,2|0|2|0,1:2|0:0|0:0|0:0,0:0:0:0:
15,100,196391,2,0,L|59:106,3,45,10|0|2|0,1:2|0:0|0:0|0:0,0:0:0:0:
92,180,196883,6,0,P|116:242|96:305,1,135,2|0,1:2|0:0,0:0:0:0:
40,364,197375,1,10,1:2:0:0:
201,355,197621,1,2,0:0:0:0:
201,355,197744,1,2,0:0:0:0:
201,355,197866,2,0,B|291:328|288:389|379:357,1,180,2|8,1:2|1:2,0:0:0:0:
501,253,198604,2,0,L|509:197,1,45,2|2,0:0|0:0,0:0:0:0:
437,165,198850,6,0,L|431:121,2,45,2|0|2,1:2|0:0|0:0,0:0:0:0:
366,207,199219,1,0,0:0:0:0:
295,166,199342,2,0,B|243:162|243:162|215:170|215:170|135:162,1,135,14|0,1:2|0:0,0:0:0:0:
82,181,199833,2,0,L|76:225,3,45,2|0|2|0,1:2|0:0|0:0|0:0,0:0:0:0:
8,271,200325,2,0,L|14:315,3,45,10|0|2|0,1:2|0:0|0:0|0:0,0:0:0:0:
89,347,200817,6,0,P|147:315|211:327,1,135,2|0,1:2|0:0,0:0:0:0:
278,375,201309,2,0,P|242:318|250:253,1,135,10|0,1:2|0:0,0:0:0:0:
321,200,201801,2,0,B|347:251|324:301|324:301|357:327|364:383,1,180,2|8,1:2|1:2,0:0:0:0:
443,229,202538,2,0,L|451:173,1,45,2|2,0:0|0:0,0:0:0:0:
379,141,202784,6,0,L|373:97,2,45,2|0|2,1:2|0:0|0:0,0:0:0:0:
321,200,203153,1,0,0:0:0:0:
253,147,203276,2,0,P|238:218|270:270,1,135,10|2,1:2|0:0,0:0:0:0:
286,348,203768,2,0,L|242:354,3,45,2|0|2|0,1:2|0:0|0:0|0:0,0:0:0:0:
178,302,204260,2,0,L|134:296,3,45,10|0|2|0,1:2|0:0|0:0|0:0,0:0:0:0:
66,250,204751,6,0,P|42:171|78:74,1,180,2|10,1:2|1:2,0:0:0:0:
226,29,205489,1,2,0:0:0:0:
226,29,205612,1,2,0:0:0:0:
226,29,205735,2,0,L|426:25,1,180,2|8,1:2|1:2,0:0:0:0:
472,239,206719,6,0,L|412:241,3,45,0|0|0|0,1:2|0:0|0:0|0:0,0:0:0:0:
364,187,207210,2,0,P|349:258|381:310,1,135,0|0,1:2|0:0,0:0:0:0:
332,375,207702,2,0,L|272:377,3,45,0|0|0|0,1:2|0:0|0:0|0:0,0:0:0:0:
232,316,208194,2,0,L|172:314,3,45,0|0|0|0,1:2|0:0|0:0|0:0,0:0:0:0:
114,276,208686,6,0,P|90:197|126:100,1,180,0|0,1:2|1:2,0:0:0:0:
428,207,209669,2,0,L|228:200,1,180,0|0,1:2|1:2,0:0:0:0:
482,35,210653,6,0,L|480:88,3,45,0|0|0|0,1:2|0:0|0:0|0:0,0:0:0:0:
424,139,211145,2,0,L|430:310,1,135,0|0,1:2|0:0,0:0:0:0:
384,342,211637,2,0,L|331:340,3,45,0|0|0|0,1:2|0:0|0:0|0:0,0:0:0:0:
295,271,212129,2,0,L|242:273,3,45,0|0|0|0,1:2|0:0|0:0|0:0,0:0:0:0:
204,340,212620,6,0,L|3:331,1,180,0|0,1:2|1:2,0:0:0:0:
205,153,213604,2,0,L|384:144,1,180,0|0,1:2|1:2,0:0:0:0:
96,98,214588,6,0,P|90:193|113:231,1,135,0|0,1:2|1:2,0:0:0:0:
157,289,215079,2,0,L|225:292,1,45,8|0,1:2|0:0,0:0:0:0:
267,242,215325,2,0,L|434:234,1,135,0|0,1:2|0:0,0:0:0:0:
476,268,215817,2,0,P|481:242|477:213,1,45,0|0,1:2|0:0,0:0:0:0:
428,159,216063,2,0,P|423:95|439:69,1,90,8|0,1:2|0:0,0:0:0:0:
272,107,216555,6,0,L|264:274,1,135,0|0,1:2|1:2,0:0:0:0:
294,318,217047,2,0,P|268:323|239:319,1,45,8|0,1:2|0:0,0:0:0:0:
188,267,217292,2,0,P|93:261|55:284,1,135,0|0,1:2|0:0,0:0:0:0:
1,223,217784,2,0,L|-2:166,1,45,0|0,1:2|0:0,0:0:0:0:
60,125,218030,2,0,L|66:1,1,90,8|0,1:2|0:0,0:0:0:0:
225,13,218522,6,0,L|231:154,1,135,0|0,1:2|1:2,0:0:0:0:
206,225,219014,2,0,P|232:230|261:226,1,45,8|0,1:2|0:0,0:0:0:0:
310,173,219260,2,0,P|405:167|443:190,1,135,0|0,1:2|0:0,0:0:0:0:
486,249,219751,2,0,L|487:323,1,45,0|0,1:2|0:0,0:0:0:0:
431,353,219997,2,0,P|367:357|341:341,1,90,8|0,1:2|0:0,0:0:0:0:
201,289,220489,6,0,L|207:154,1,135,0|0,1:2|1:2,0:0:0:0:
220,73,220981,2,0,P|197:71|175:76,1,45,8|0,1:2|0:0,0:0:0:0:
122,139,221227,2,0,L|115:273,1,135,0|0,1:2|0:0,0:0:0:0:
126,354,221719,2,0,P|103:355|81:350,1,45,0|0,1:2|0:0,0:0:0:0:
27,285,221965,2,0,L|31:189,1,90,8|0,1:2|0:0,0:0:0:0:
39,33,222456,5,2,0:0:0:0:
