osu file format v14

[General]
AudioFilename: audio.mp3
AudioLeadIn: 0
PreviewTime: -1
Countdown: 1
SampleSet: Soft
StackLeniency: 0.7
Mode: 0
LetterboxInBreaks: 0
WidescreenStoryboard: 0

[Editor]
DistanceSpacing: 2
BeatDivisor: 4
GridSize: 16
TimelineZoom: 1

[Metadata]
Title:Ginga Tetsudou no Penguin ft. nicamoq (Stripe.P Remix) (Short.Ver)
TitleUnicode:銀河鉄道のペンギン ft. nicamoq (Stripe.P Remix) (Short ver.)
Artist:Aiobahn & Yunomi
ArtistUnicode:Aiobahn & Yunomi
Creator:H i r o k i
Version:Calm Down
Source:
Tags:
BeatmapID:1902595
BeatmapSetID:911465

[Difficulty]
HPDrainRate:5
CircleSize:6
OverallDifficulty:6
ApproachRate:8.5
SliderMultiplier:1.5
SliderTickRate:1

[Events]
//Background and Video events
0,0,"vocaloid_kagamine_rin_kagamine_len_water_reflection_sky_102188_1920x1080.jpg",0,0
//Break Periods
2,70423,77654
//Storyboard Layer 0 (Background)
//Storyboard Layer 1 (Fail)
//Storyboard Layer 2 (Pass)
//Storyboard Layer 3 (Foreground)
//Storyboard Sound Samples

[TimingPoints]
18132.1931557548,545.454545454546,4,2,0,20,1,0
35586,-133.333333333333,4,2,0,50,0,0
37768,-181.818181818181,4,2,0,50,0,0
38041,-117.647058823529,4,2,0,50,0,0
40768,-133.333333333333,4,2,0,50,0,0
52768,-100,4,2,0,50,0,0
53314,-111.111111111111,4,2,0,50,0,0
53859,-125,4,2,0,50,0,0
54404,-142.857142857143,4,2,0,50,0,0
54950,-100,4,2,0,50,0,0
57677,-111.111111111111,4,2,0,50,0,0
58223,-125,4,2,0,50,0,0
58768,-142.857142857143,4,2,0,50,0,0
60132,-100,4,2,0,50,0,0
61495,-125,4,2,0,50,0,0
64768,-142.857142857143,4,2,0,50,0,0
65314,-100,4,2,0,50,0,0
87677,-166.666666666667,4,2,0,50,0,1
88223,-100,4,2,0,50,0,1
88632,-142.857142857143,4,2,0,50,0,1
89859,-111.111111111111,4,2,0,50,0,1
90132,-90.909090909091,4,2,0,50,0,1
90404,-125,4,2,0,50,0,1
92932,-100,4,2,0,50,0,1
94223,-111.111111111111,4,2,0,50,0,1
94768,-166.666666666667,4,2,0,50,0,1
96268,-100,4,2,0,50,0,1
96677,-142.857142857143,4,2,0,50,0,1
96950,-90.9090909090909,4,2,0,50,0,1
98859,-111.111111111111,4,2,0,50,0,1
99132,-100,4,2,0,50,0,1
101041,-83.3333333333333,4,2,0,50,0,1
101314,-100,4,2,0,50,0,1
103223,-125,4,2,0,50,0,1
103495,-100,4,2,0,50,0,1
107586,-111.111111111111,4,2,0,50,0,1
107859,-100,4,2,0,50,0,1
109768,-111.111111111111,4,2,0,50,0,1
109904,-100,4,2,0,50,0,1
111132,-111.111111111111,4,2,0,50,0,1
111404,-100,4,2,0,50,0,1

[Colours]
Combo1 : 217,108,0
Combo2 : 230,110,150
Combo3 : 240,150,255
Combo4 : 100,200,200
Combo5 : 130,120,255

[HitObjects]
180,161,18132,6,0,P|206:154|237:161,1,37.5
307,204,18677,2,0,P|281:210|250:204,1,37.5
147,191,19223,6,0,P|172:184|203:191,1,37.5
275,225,19768,2,0,P|249:231|218:225,1,37.5
179,154,20314,6,0,P|204:147|235:154,1,37.5
311,179,20859,2,0,P|285:185|254:179,1,37.5
176,234,21404,6,0,P|201:227|232:234,1,37.5
314,266,21949,2,0,P|288:272|257:266,1,37.5
165,248,22495,6,0,P|160:275|164:296,1,37.5
231,209,23041,2,0,P|234:186|228:159,1,37.5
155,265,23586,6,0,P|151:287|156:313,1,37.5
229,246,24132,2,0,P|232:223|226:195,1,37.5
158,178,24677,6,0,P|154:204|157:226,1,37.5
232,164,25223,2,0,P|236:142|232:115,1,37.5
145,104,25768,6,0,P|142:127|146:155,1,37.5
236,60,26314,2,0,P|240:38|236:11,1,37.5
180,161,26859,5,0,0:0:0:0:
221,155,26995,1,0,0:0:0:0:
316,197,27404,5,0,0:0:0:0:
273,202,27540,1,0,0:0:0:0:
160,189,27950,5,0,0:0:0:0:
194,183,28086,1,0,0:0:0:0:
301,237,28495,5,0,0:0:0:0:
268,243,28631,1,0,0:0:0:0:
181,174,29041,5,0,0:0:0:0:
222,167,29177,1,0,0:0:0:0:
332,210,29586,5,0,0:0:0:0:
290,215,29722,1,0,0:0:0:0:
187,252,30131,5,0,0:0:0:0:
207,248,30267,1,0,0:0:0:0:
304,282,30677,5,0,0:0:0:0:
283,285,30813,1,0,0:0:0:0:
156,205,31222,5,0,0:0:0:0:
155,247,31358,1,0,0:0:0:0:
231,187,31768,5,0,0:0:0:0:
231,144,31904,1,0,0:0:0:0:
148,247,32313,5,0,0:0:0:0:
148,282,32449,1,0,0:0:0:0:
239,220,32859,5,0,0:0:0:0:
239,184,32995,1,0,0:0:0:0:
157,177,33404,5,0,0:0:0:0:
155,228,33540,1,0,0:0:0:0:
253,145,33950,5,0,0:0:0:0:
254,94,34086,1,0,0:0:0:0:
313,149,35586,6,0,P|322:184|314:224,1,56.2500021457673
279,259,36132,2,0,P|269:232|270:220,1,28.1250010728836
275,153,36404,1,0,0:0:0:0:
297,117,36541,1,0,0:0:0:0:
310,156,36677,1,0,0:0:0:0:
333,120,36814,1,0,0:0:0:0:
359,86,36950,6,0,P|347:49|323:24,1,56.2500021457673
294,32,37359,1,0,0:0:0:0:
255,49,37495,2,0,P|243:64|240:78,1,28.1250010728836
181,95,37768,2,0,P|192:110|195:123,1,20.6250006294251
196,204,38041,5,0,0:0:0:0:
196,204,38314,2,0,P|231:215|263:207,1,63.7500012159348
347,134,38859,2,0,P|312:123|280:131,1,63.7500012159348
191,161,39404,5,0,0:0:0:0:
191,128,39541,5,0,0:0:0:0:
242,249,39950,5,0,0:0:0:0:
242,204,40086,1,0,0:0:0:0:
280,227,40223,1,0,0:0:0:0:
276,182,40359,1,0,0:0:0:0:
313,206,40495,1,0,0:0:0:0:
313,161,40632,1,0,0:0:0:0:
357,164,40768,6,0,P|356:145|354:132,1,28.1250010728836
302,99,41041,2,0,P|300:85|299:71,1,28.1250010728836
359,19,41314,2,0,P|360:32|361:46,1,28.1250010728836
393,92,41586,1,0,0:0:0:0:
425,68,41723,1,0,0:0:0:0:
430,106,41859,2,0,P|431:121|431:133,1,28.1250010728836
411,218,42132,5,0,0:0:0:0:
450,219,42268,1,0,0:0:0:0:
311,273,42677,6,0,P|279:267|250:274,1,56.2500021457673
217,337,43223,2,0,P|185:343|156:336,1,56.2500021457673
135,310,43632,1,0,0:0:0:0:
106,303,43768,1,0,0:0:0:0:
79,307,43904,1,0,0:0:0:0:
54,321,44041,1,0,0:0:0:0:
70,172,44314,5,0,0:0:0:0:
91,204,44450,1,0,0:0:0:0:
110,169,44586,2,0,P|121:156|134:146,1,28.1250010728836
175,112,44859,1,0,0:0:0:0:
208,161,44995,1,0,0:0:0:0:
240,105,45132,5,0,0:0:0:0:
276,156,45268,1,0,0:0:0:0:
254,97,45404,1,0,0:0:0:0:
265,162,45541,1,0,0:0:0:0:
317,104,45677,2,0,P|344:93|359:93,1,28.1250010728836
407,85,45950,1,0,0:0:0:0:
382,138,46086,1,0,0:0:0:0:
424,74,46223,2,0,P|465:79|481:91,1,56.2500021457673
431,175,46768,6,0,P|413:148|411:134,1,28.1250010728836
412,115,47041,2,0,P|379:99|340:109,1,56.2500021457673
260,148,47586,2,0,P|244:115|254:76,1,56.2500021457673
154,143,48132,5,0,0:0:0:0:
190,144,48268,5,0,0:0:0:0:
87,257,48677,6,0,P|86:239|91:222,1,28.1250010728836
156,183,48950,2,0,P|156:200|152:218,1,28.1250010728836
87,257,49223,2,0,P|86:239|91:222,1,28.1250010728836
107,168,49495,1,0,0:0:0:0:
161,260,49632,1,0,0:0:0:0:
156,200,49768,1,0,0:0:0:0:
214,222,49904,1,0,0:0:0:0:
214,222,50041,6,0,P|226:216|242:213,1,28.1250010728836
309,226,50314,1,0,0:0:0:0:
265,273,50450,1,0,0:0:0:0:
309,226,50586,1,0,0:0:0:0:
347,238,52223,5,0,0:0:0:0:
316,194,52359,1,0,0:0:0:0:
287,224,52495,1,0,0:0:0:0:
251,183,52632,1,0,0:0:0:0:
218,256,52768,6,0,L|146:249,1,56.25
151,237,53041,1,0,0:0:0:0:
119,304,53177,1,0,0:0:0:0:
218,318,53314,6,0,L|284:324,1,50.6249984550477
285,337,53587,1,0,0:0:0:0:
317,270,53723,1,0,0:0:0:0:
218,256,53859,6,0,L|162:252,1,45
151,237,54132,1,0,0:0:0:0:
119,304,54268,1,0,0:0:0:0:
218,318,54404,6,0,L|265:321,1,39.3749987983704
285,337,54677,1,0,0:0:0:0:
317,270,54813,1,0,0:0:0:0:
216,182,54950,6,0,P|188:206|181:243,1,75
276,110,55495,2,0,P|304:134|312:171,1,75
175,128,56041,6,0,P|184:90|218:65,1,75
272,3,56586,2,0,P|289:11|300:27,1,37.5
278,132,56859,5,0,0:0:0:0:
233,132,56995,5,0,0:0:0:0:
289,202,57132,6,0,L|296:275,1,56.25
280,278,57404,1,0,0:0:0:0:
380,247,57541,1,0,0:0:0:0:
370,173,57677,6,0,L|377:100,1,56.25
361,97,57949,1,0,0:0:0:0:
451,123,58086,1,0,0:0:0:0:
289,202,58223,6,0,L|282:260,1,45
298,278,58495,1,0,0:0:0:0:
220,256,58632,1,0,0:0:0:0:
370,173,58768,6,0,L|375:124,1,39.3749987983704
361,97,59040,1,0,0:0:0:0:
428,117,59177,1,0,0:0:0:0:
263,143,59314,2,0,L|262:117,1,26.2499991989136
186,159,59586,2,0,L|188:186,1,26.2499991989136
268,205,59859,1,0,0:0:0:0:
36,236,60132,6,0,P|54:226|72:223,1,37.5
69,150,60404,2,0,P|88:143|106:143,1,37.5
137,73,60677,2,0,P|157:69|175:73,1,37.5
214,5,60950,2,0,P|234:5|251:11,1,37.5
336,69,61223,1,0,0:0:0:0:
309,84,61359,1,0,0:0:0:0:
279,89,61495,6,0,P|250:88|226:75,1,45
231,61,61768,2,0,L|220:93,1,30
199,173,62041,6,0,P|228:174|252:187,1,45
256,172,62314,2,0,L|247:201,1,30
223,267,62586,6,0,P|194:266|170:253,1,45
174,238,62859,2,0,L|164:266,1,30
151,352,63132,6,0,P|180:353|204:366,1,45
208,351,63405,2,0,L|198:379,1,30
288,344,63677,6,0,L|297:315,1,30
379,265,63950,2,0,L|369:236,1,30
268,191,64223,2,0,L|277:162,1,30
388,117,64496,2,0,L|378:88,1,30
253,57,64768,6,0,L|271:7,1,52.4999983978272
378,88,65314,1,0,0:0:0:0:
346,147,65450,1,0,0:0:0:0:
329,231,65586,5,0,0:0:0:0:
366,231,65723,5,0,0:0:0:0:
427,230,65859,6,0,P|444:268|436:311,1,75
366,231,66404,2,0,P|349:193|357:150,1,75
427,230,66950,6,0,P|444:268|436:311,1,75
366,231,67495,2,0,P|349:193|357:150,1,75
365,36,68041,1,0,0:0:0:0:
320,177,69677,5,0,0:0:0:0:
326,120,69814,1,0,0:0:0:0:
300,69,69950,1,0,0:0:0:0:
268,117,70086,1,0,0:0:0:0:
320,177,70223,1,0,0:0:0:0:
172,213,78404,5,0,0:0:0:0:
224,273,78541,1,0,0:0:0:0:
192,321,78677,1,0,0:0:0:0:
166,270,78813,1,0,0:0:0:0:
244,205,78950,1,0,0:0:0:0:
326,143,79495,5,0,0:0:0:0:
310,122,80041,5,0,0:0:0:0:
295,101,80586,5,0,0:0:0:0:
283,87,80859,5,0,0:0:0:0:
273,75,81132,5,0,0:0:0:0:
243,96,81677,5,0,0:0:0:0:
219,77,82223,5,0,0:0:0:0:
197,56,82768,5,0,0:0:0:0:
197,56,83041,5,0,0:0:0:0:
167,105,83177,1,0,0:0:0:0:
139,38,83314,5,0,0:0:0:0:
115,84,83586,1,0,0:0:0:0:
139,28,83859,5,0,0:0:0:0:
101,84,84131,1,0,0:0:0:0:
139,17,84404,5,0,0:0:0:0:
88,78,84676,1,0,0:0:0:0:
139,4,84950,5,0,0:0:0:0:
72,70,85222,1,0,0:0:0:0:
175,64,85495,5,0,0:0:0:0:
207,119,85632,1,0,0:0:0:0:
239,64,85768,1,0,0:0:0:0:
175,174,85904,5,0,0:0:0:0:
208,9,86041,1,0,0:0:0:0:
239,174,86177,1,0,0:0:0:0:
144,9,86314,5,0,0:0:0:0:
111,174,86450,1,0,0:0:0:0:
256,73,86586,6,0,L|247:90,1,18.75
298,107,86723,2,0,L|281:117,1,18.75
307,154,86859,6,0,L|323:143,1,18.75
349,188,86995,2,0,L|358:170,1,18.75
409,95,87132,5,0,0:0:0:0:
424,170,87268,1,0,0:0:0:0:
433,67,87404,1,0,0:0:0:0:
404,157,87541,1,0,0:0:0:0:
415,42,87677,6,0,L|415:-9,1,44.999998626709
387,2,88086,1,0,0:0:0:0:
353,57,88223,2,0,P|321:51|303:56,2,37.5
427,88,88632,2,0,L|431:127,1,26.2499991989136
374,126,88904,2,0,L|370:165,1,26.2499991989136
427,194,89177,1,0,0:0:0:0:
366,233,89314,6,0,L|339:236,1,26.2499991989136
269,237,89586,1,0,0:0:0:0:
306,293,89723,1,0,0:0:0:0:
339,235,89859,6,0,L|336:179,1,33.7499989700318
267,124,90132,2,0,L|270:183,1,41.2500012588501
215,232,90404,1,0,0:0:0:0:
215,232,90677,2,0,L|181:232,2,30
266,291,91086,1,0,0:0:0:0:
209,317,91223,1,0,0:0:0:0:
155,290,91359,1,0,0:0:0:0:
255,319,91495,5,0,0:0:0:0:
208,342,91632,1,0,0:0:0:0:
160,323,91768,1,0,0:0:0:0:
111,343,91904,1,0,0:0:0:0:
168,316,92041,6,0,P|178:282|176:262,1,30
135,210,92314,2,0,P|125:176|127:156,1,30
188,240,92586,1,0,0:0:0:0:
147,157,92723,1,0,0:0:0:0:
215,187,92859,1,0,0:0:0:0:
135,210,92995,6,0,P|105:205|84:211,1,37.5
24,278,93268,2,0,P|53:282|75:277,1,37.5
153,296,93541,1,0,0:0:0:0:
153,296,93677,2,0,P|161:259|157:240,1,37.5
137,162,93950,1,0,0:0:0:0:
146,239,94086,1,0,0:0:0:0:
206,183,94223,6,0,P|237:173|266:181,1,33.7499989700318
310,230,94495,2,0,P|341:240|370:232,1,33.7499989700318
446,204,94768,2,0,P|448:228|445:242,2,22.4999993133545
415,115,95177,1,0,0:0:0:0:
377,192,95314,1,0,0:0:0:0:
402,108,95450,2,0,P|397:85|388:73,2,22.4999993133545
377,192,95859,5,0,0:0:0:0:
326,157,95995,1,0,0:0:0:0:
274,217,96132,1,0,0:0:0:0:
237,140,96268,1,0,0:0:0:0:
174,261,96404,6,0,P|192:258|209:250,1,37.5
139,201,96677,2,0,P|120:203|105:212,1,26.2499991989136
35,305,96950,2,0,P|74:285|90:285,1,41.2500012588501
197,281,97223,1,0,0:0:0:0:
197,281,97359,2,0,P|200:235|207:221,1,41.2500012588501
291,191,97632,2,0,P|288:145|281:131,2,41.2500012588501
276,290,98041,6,0,P|318:279|343:285,1,41.2500012588501
431,289,98314,1,0,0:0:0:0:
369,344,98450,1,0,0:0:0:0:
371,250,98586,2,0,P|373:208|377:194,1,41.2500012588501
394,117,98859,2,0,P|431:119|445:127,1,33.7499989700318
487,47,99132,6,0,P|470:44|449:47,1,37.5
346,76,99404,1,0,0:0:0:0:
390,33,99541,2,0,P|366:5|353:1,1,37.5
307,29,99814,1,0,0:0:0:0:
250,55,99951,1,0,0:0:0:0:
196,28,100087,1,0,0:0:0:0:
296,57,100223,5,0,0:0:0:0:
249,80,100360,1,0,0:0:0:0:
201,61,100496,1,0,0:0:0:0:
152,81,100632,1,0,0:0:0:0:
213,52,100768,6,0,P|224:91|225:122,1,37.5
166,183,101041,2,0,P|155:160|154:113,1,44.999998626709
176,59,101314,2,0,P|219:52|235:57,1,37.5
290,86,101586,1,0,0:0:0:0:
275,22,101723,2,0,P|312:5|327:6,1,37.5
411,47,101995,2,0,P|374:64|359:63,1,37.5
271,68,102268,5,0,0:0:0:0:
271,68,102404,2,0,L|271:127,1,37.5
249,197,102677,1,0,0:0:0:0:
311,143,102814,1,0,0:0:0:0:
216,113,102950,2,0,P|176:102|158:103,1,37.5
57,103,103223,6,0,P|54:138|56:155,1,30
146,200,103495,2,0,P|149:165|147:146,1,37.5
50,209,103768,1,0,0:0:0:0:
50,209,103904,2,0,P|47:244|49:265,1,37.5
100,301,104177,5,0,0:0:0:0:
100,266,104314,1,0,0:0:0:0:
175,303,104450,5,0,0:0:0:0:
176,254,104586,1,0,0:0:0:0:
271,301,104723,5,0,0:0:0:0:
272,240,104859,1,0,0:0:0:0:
379,298,104995,5,0,0:0:0:0:
381,198,105132,1,0,0:0:0:0:
286,114,105677,6,0,P|262:109|237:116,1,37.5
154,137,105950,1,0,0:0:0:0:
184,153,106086,2,0,L|205:153,1,18.75
129,172,106223,1,0,0:0:0:0:
203,196,106359,2,0,L|227:196,1,18.75
103,216,106495,1,0,0:0:0:0:
227,238,106632,1,0,0:0:0:0:
115,308,106768,6,0,P|148:303|163:307,1,37.5
294,315,107041,1,0,0:0:0:0:
202,338,107177,1,0,0:0:0:0:
299,289,107314,2,0,P|329:278|343:278,1,37.5
419,229,107586,6,0,P|423:250|423:265,1,33.7499989700318
347,185,107859,2,0,P|326:181|308:181,1,37.5
401,112,108132,1,0,0:0:0:0:
471,178,108268,2,0,P|495:170|514:168,1,37.5
389,217,108541,5,0,0:0:0:0:
371,187,108677,1,0,0:0:0:0:
356,218,108814,1,0,0:0:0:0:
280,257,108950,5,0,0:0:0:0:
298,161,109086,1,0,0:0:0:0:
208,247,109223,5,0,0:0:0:0:
220,182,109359,1,0,0:0:0:0:
136,244,109495,6,0,P|130:219|117:200,1,37.5
46,166,109768,2,0,P|52:141|62:124,1,33.7499989700318
121,63,110041,1,0,0:0:0:0:
47,120,110177,1,0,0:0:0:0:
144,80,110314,1,0,0:0:0:0:
37,104,110450,6,0,P|16:108|2:113,1,18.75
145,116,110586,1,0,0:0:0:0:
43,129,110723,2,0,P|22:133|8:138,2,18.75
119,182,110995,1,0,0:0:0:0:
231,90,111132,6,0,P|196:91|176:96,1,33.7499989700318
117,122,111404,1,0,0:0:0:0:
175,154,111541,1,0,0:0:0:0:
145,75,111677,2,0,P|143:38|152:10,1,37.5
