osu file format v14

[General]
AudioFilename: audio.ogg
AudioLeadIn: 0
PreviewTime: 159877
Countdown: 0
SampleSet: Soft
StackLeniency: 0.4
Mode: 0
LetterboxInBreaks: 0
WidescreenStoryboard: 1

[Editor]
Bookmarks: 971,4930,11596,18263,24930,31596,38263,41180,41596,54930,64930,68263,74930,79930,81596,88263,94930,101596,104513,104930,118263,128263,131596,144930,151596,158263,161180,161596,174930,184930,188263,194930,195346,198263,199930
DistanceSpacing: 1
BeatDivisor: 4
GridSize: 8
TimelineZoom: 2.500002

[Metadata]
Title:"Kimirashiku" Sore dake de Ii yo (feat. Matsushita)
TitleUnicode:「君らしく」それだけでいいよ (feat. 松下)
Artist:Aintops
ArtistUnicode:Aintops
Creator:pnky
Version:gazimal's Extra
Source:
Tags:lasse gazimal Japanese Rock J-rock Jrock 往古来今 female vocals vocalist 吉田省吾
BeatmapID:4058642
BeatmapSetID:1956399

[Difficulty]
HPDrainRate:6
CircleSize:4
OverallDifficulty:8.5
ApproachRate:9.2
SliderMultiplier:1.6
SliderTickRate:1

[Events]
//Background and Video events
0,0,"aoku.jpg",0,0
//Break Periods
//Storyboard Layer 0 (Background)
//Storyboard Layer 1 (Fail)
//Storyboard Layer 2 (Pass)
//Storyboard Layer 3 (Foreground)
//Storyboard Layer 4 (Overlay)
//Storyboard Sound Samples

[TimingPoints]
-70,416.666666666667,4,2,1,65,1,0
1180,-500,4,2,1,65,0,0
1596,-83.3333333333333,4,2,1,65,0,0
2430,-66.6666666666667,4,2,1,65,0,0
4513,-500,4,2,1,65,0,0
4930,-55.5555555555556,4,2,1,75,0,0
5242,-100,4,2,1,75,0,0
5763,-55.5555555555556,4,2,1,75,0,0
6075,-100,4,2,1,75,0,0
7430,-83.3333333333333,4,2,1,75,0,0
8263,-55.5555555555556,4,2,1,75,0,0
8575,-100,4,2,1,75,0,0
9096,-55.5555555555556,4,2,1,75,0,0
9409,-100,4,2,1,75,0,0
11596,-58.8235294117647,4,2,1,50,0,0
11909,-133.333333333333,4,2,1,50,0,0
16596,-55.5555555555556,4,2,1,60,0,0
18263,-71.4285714285714,4,2,1,65,0,0
24096,-133.333333333333,4,2,1,65,0,0
24930,-133.333333333333,4,2,1,55,0,0
25763,-133.333333333333,4,2,1,55,0,0
26596,-83.3333333333333,4,2,1,55,0,0
31596,-71.4285714285714,4,2,1,65,0,0
32638,-133.333333333333,4,2,1,65,0,0
33263,-71.4285714285714,4,2,1,65,0,0
34305,-133.333333333333,4,2,1,65,0,0
34930,-71.4285714285714,4,2,1,65,0,0
38263,-200,4,2,1,75,0,0
39513,-500,4,2,1,75,0,0
39930,-52.6315789473684,4,2,1,75,0,0
40555,-100,4,2,1,75,0,0
41596,-66.6666666666667,4,2,1,65,0,0
44513,-100,4,2,1,65,0,0
44930,-66.6666666666667,4,2,1,65,0,0
47846,-133.333333333333,4,2,1,65,0,0
48263,-71.4285714285714,4,2,1,65,0,0
48680,-100,4,2,1,65,0,0
49096,-76.9230769230769,4,2,1,65,0,0
49513,-100,4,2,1,65,0,0
50763,-200,4,2,1,65,0,0
51596,-66.6666666666667,4,2,1,65,0,0
52013,-100,4,2,1,65,0,0
53263,-66.6666666666667,4,2,1,65,0,0
53680,-100,4,2,1,65,0,0
54930,-45.4545454545455,4,2,1,80,0,1
55346,-66.6666666666667,4,2,1,80,0,1
55763,-45.4545454545455,4,2,1,80,0,1
56180,-66.6666666666667,4,2,1,80,0,1
56596,-45.4545454545455,4,2,1,80,0,1
57013,-66.6666666666667,4,2,1,80,0,1
58263,-45.4545454545455,4,2,1,80,0,1
58680,-66.6666666666667,4,2,1,80,0,1
59096,-45.4545454545455,4,2,1,80,0,1
59409,-66.6666666666667,4,2,1,80,0,1
60242,-83.3333333333333,4,2,1,80,0,1
61596,-66.6666666666667,4,2,1,80,0,1
63263,-50,4,2,1,80,0,1
63680,-66.6666666666667,4,2,1,80,0,1
64930,-66.6666666666667,4,2,1,65,0,1
65763,-50,4,2,1,65,0,1
66388,-50,4,2,1,65,0,0
67846,-500,4,2,1,65,0,0
68263,-55.5555555555556,4,2,1,75,0,0
68575,-100,4,2,1,75,0,0
69096,-55.5555555555556,4,2,1,75,0,0
69409,-100,4,2,1,75,0,0
71596,-55.5555555555556,4,2,1,75,0,0
71909,-100,4,2,1,75,0,0
72430,-55.5555555555556,4,2,1,75,0,0
72742,-100,4,2,1,75,0,0
74930,-58.8235294117647,4,2,1,50,0,0
75242,-133.333333333333,4,2,1,50,0,0
79930,-500,4,2,1,35,0,0
81180,-100,4,2,1,60,0,0
81596,-71.4285714285714,4,2,1,65,0,0
87430,-133.333333333333,4,2,1,65,0,0
88263,-133.333333333333,4,2,1,55,0,0
89096,-83.3333333333333,4,2,1,55,0,0
94930,-71.4285714285714,4,2,1,65,0,0
95971,-133.333333333333,4,2,1,65,0,0
96596,-71.4285714285714,4,2,1,65,0,0
97638,-133.333333333333,4,2,1,65,0,0
98263,-71.4285714285714,4,2,1,65,0,0
101596,-200,4,2,1,75,0,0
102846,-500,4,2,1,75,0,0
103263,-50,4,2,1,75,0,0
103888,-100,4,2,1,75,0,0
104930,-66.6666666666667,4,2,1,65,0,0
107846,-100,4,2,1,65,0,0
108263,-66.6666666666667,4,2,1,65,0,0
111180,-133.333333333333,4,2,1,65,0,0
111596,-71.4285714285714,4,2,1,65,0,0
112013,-100,4,2,1,65,0,0
112430,-76.9230769230769,4,2,1,65,0,0
112846,-100,4,2,1,65,0,0
114096,-200,4,2,1,65,0,0
114930,-66.6666666666667,4,2,1,65,0,0
115242,-100,4,2,1,65,0,0
116596,-66.6666666666667,4,2,1,65,0,0
117013,-100,4,2,1,65,0,0
118263,-45.4545454545455,4,2,1,80,0,1
118575,-66.6666666666667,4,2,1,80,0,1
119096,-45.4545454545455,4,2,1,80,0,1
119409,-66.6666666666667,4,2,1,80,0,1
120242,-45.4545454545455,4,2,1,80,0,1
120555,-66.6666666666667,4,2,1,80,0,1
121596,-45.4545454545455,4,2,1,80,0,1
121909,-66.6666666666667,4,2,1,80,0,1
122430,-45.4545454545455,4,2,1,80,0,1
122742,-66.6666666666667,4,2,1,80,0,1
123471,-83.3333333333333,4,2,1,80,0,1
124513,-66.6666666666667,4,2,1,80,0,1
126596,-45.4545454545455,4,2,1,80,0,1
126909,-66.6666666666667,4,2,1,80,0,1
128263,-66.6666666666667,4,2,1,65,0,1
129096,-50,4,2,1,65,0,1
129721,-50,4,2,1,65,0,0
131180,-500,4,2,1,65,0,0
131596,-58.8235294117647,4,2,1,75,0,0
134930,-41.6666666666667,4,2,1,75,0,0
135242,-58.8235294117647,4,2,1,75,0,0
141596,-41.6666666666667,4,2,1,75,0,0
141909,-58.8235294117647,4,2,1,75,0,0
142430,-45.4545454545455,4,2,1,75,0,0
142742,-66.6666666666667,4,2,1,75,0,0
144930,-133.333333333333,4,2,1,55,0,0
145763,-83.3333333333333,4,2,1,55,0,0
150763,-100,4,2,1,55,0,0
151596,-71.4285714285714,4,2,1,65,0,0
152638,-133.333333333333,4,2,1,65,0,0
153263,-71.4285714285714,4,2,1,65,0,0
154305,-133.333333333333,4,2,1,65,0,0
154930,-71.4285714285714,4,2,1,65,0,0
158263,-200,4,2,1,75,0,0
159513,-500,4,2,1,75,0,0
159930,-28.5714285714286,4,2,1,75,0,0
160555,-50,4,2,1,75,0,0
161596,-58.8235294117647,4,2,1,65,0,0
164513,-100,4,2,1,65,0,0
164930,-58.8235294117647,4,2,1,65,0,0
167846,-133.333333333333,4,2,1,65,0,0
168263,-58.8235294117647,4,2,1,65,0,0
168680,-100,4,2,1,65,0,0
169096,-58.8235294117647,4,2,1,65,0,0
169513,-100,4,2,1,65,0,0
170763,-200,4,2,1,65,0,0
171596,-58.8235294117647,4,2,1,65,0,0
172013,-100,4,2,1,65,0,0
172430,-66.6666666666667,4,2,1,65,0,0
173575,-100,4,2,1,65,0,0
174930,-58.8235294117647,4,2,1,80,0,1
184930,-58.8235294117647,4,2,1,65,0,1
185763,-45.4545454545455,4,2,1,65,0,1
186388,-45.4545454545455,4,2,1,65,0,0
187846,-500,4,2,1,65,0,0
188263,-55.5555555555556,4,2,1,75,0,0
188575,-100,4,2,1,75,0,0
189096,-55.5555555555556,4,2,1,75,0,0
189513,-100,4,2,1,75,0,0
191596,-55.5555555555556,4,2,1,75,0,0
191909,-100,4,2,1,75,0,0
192430,-55.5555555555556,4,2,1,75,0,0
192742,-100,4,2,1,75,0,0
194825,-100,4,2,1,55,0,0
195346,-133.333333333333,4,2,1,75,0,0
198263,-333.333333333333,4,2,1,75,0,0
199930,-333.333333333333,4,2,1,30,0,0

[Colours]
Combo1 : 250,180,240
Combo2 : 120,200,230
Combo3 : 255,230,130
Combo4 : 160,230,150

[HitObjects]
299,176,971,6,0,L|307:136,1,40,0|0,3:2|3:2,0:0:0:0:
239,233,1180,6,0,L|243:256,1,24,8|0,0:0|0:0,0:0:0:0:
273,362,1596,6,0,P|333:324|404:320,1,143.999995605469,10|0,0:0|0:0,0:0:0:0:
333,262,2013,2,0,P|360:300|404:319,1,95.9999970703126,10|0,0:0|0:0,0:0:0:0:
217,152,2430,6,0,L|13:195,2,180.000006866455,2|2|10,3:2|3:2|0:0,0:0:0:0:
488,72,4305,5,2,3:2:0:0:
488,72,4409,1,2,3:2:0:0:
488,72,4513,2,0,L|492:48,1,24,10|0,0:0|0:0,0:0:0:0:
421,0,4930,6,0,L|391:140,1,143.999995605469,6|8,3:2|0:0,0:0:0:0:
470,160,5242,1,2,0:0:0:0:
470,160,5346,2,0,L|509:151,1,40,0|0,3:2|3:2,0:0:0:0:
423,249,5555,2,0,L|462:240,1,40,10|0,0:0|0:0,0:0:0:0:
310,147,5763,2,0,B|256:132|229:219|184:198,1,143.999995605469,2|8,3:2|0:0,0:0:0:0:
111,228,6075,1,2,0:0:0:0:
111,228,6180,2,0,L|102:188,1,40,0|0,3:2|3:2,0:0:0:0:
18,185,6388,2,0,L|27:225,1,40,10|0,0:0|0:0,0:0:0:0:
115,302,6596,5,2,3:2:0:0:
77,374,6735,5,2,0:0:0:0:
2,363,6874,5,2,0:0:0:0:
142,292,7013,5,2,3:2:0:0:
223,288,7152,5,2,0:0:0:0:
251,359,7291,5,2,0:0:0:0:
120,274,7430,6,0,L|110:227,1,47.9999985351563,2|0,3:2|0:0,0:0:0:0:
212,134,7638,2,0,L|202:181,1,47.9999985351563,8|0,0:0|0:0,0:0:0:0:
63,125,7846,1,0,3:2:0:0:
63,125,7950,1,0,3:2:0:0:
63,125,8055,2,0,P|40:117|23:100,1,47.9999985351563,8|0,0:0|0:0,0:0:0:0:
28,4,8263,6,0,B|137:27|137:27|144:50|167:70,1,143.999995605469,2|8,3:2|0:0,0:0:0:0:
255,18,8575,1,2,0:0:0:0:
255,18,8680,2,0,L|215:9,1,40,0|0,3:2|3:2,0:0:0:0:
284,108,8888,2,0,L|244:99,1,40,10|0,0:0|0:0,0:0:0:0:
446,96,9096,6,0,B|509:69|487:9|487:9|479:47|458:55,1,143.999995605469,2|8,3:2|0:0,0:0:0:0:
374,132,9409,1,2,0:0:0:0:
374,132,9513,2,0,P|381:150|395:164,1,40,0|0,3:2|3:2,0:0:0:0:
392,249,9721,2,0,P|411:251|431:246,1,40,10|0,0:0|0:0,0:0:0:0:
318,203,9930,5,2,3:2:0:0:
241,237,10068,5,2,0:0:0:0:
241,319,10207,5,2,0:0:0:0:
310,177,10346,6,0,P|289:160|263:152,2,53.3333333333333,2|2|2,3:2|0:0|0:0,0:0:0:0:
465,349,10764,5,10,0:0:0:0:
509,287,10868,1,8,0:0:0:0:
465,226,10972,1,8,0:0:0:0:
392,249,11076,1,8,0:0:0:0:
392,325,11180,1,8,0:0:0:0:
400,322,11284,1,8,3:0:0:0:
408,319,11388,1,4,3:0:0:0:
241,237,11596,6,0,L|107:265,1,136.000002593994,4|2,3:2|0:0,0:0:0:0:
30,276,11909,2,0,L|36:246,1,30.0000011444092,0|2,0:0|3:2,0:0:0:0:
91,189,12117,1,0,0:0:0:0:
91,189,12221,2,0,L|84:159,1,30.0000011444092,2|0,1:2|0:0,0:0:0:0:
153,114,12430,2,0,L|160:144,2,30.0000011444092,2|0|0,3:2|0:0|1:2,0:0:0:0:
31,76,12846,1,0,3:2:0:0:
31,76,12950,2,0,L|60:69,1,30.0000011444092,0|0,0:0|1:2,0:0:0:0:
194,38,13159,5,0,0:0:0:0:
194,38,13263,2,0,P|165:30|140:13,1,60.0000022888184,0|2,3:2|1:2,0:0:0:0:
280,24,13575,2,0,P|291:33|300:45,1,30.0000011444092,0|2,0:0|3:2,0:0:0:0:
384,57,13784,1,0,0:0:0:0:
384,57,13888,2,0,P|375:85|362:107,1,30.0000011444092,2|0,1:2|0:0,0:0:0:0:
307,154,14096,2,0,L|300:124,2,30.0000011444092,2|0|0,3:2|0:0|1:2,0:0:0:0:
450,153,14513,1,0,3:2:0:0:
450,153,14617,2,0,L|479:146,1,30.0000011444092,0|0,0:0|1:2,0:0:0:0:
407,238,14825,5,0,0:0:0:0:
407,238,14929,2,0,L|436:231,1,30.0000011444092,2|0,3:2|0:0,0:0:0:0:
331,302,15138,2,0,L|301:295,2,30.0000011444092,0|2|0,1:2|0:0|3:2,0:0:0:0:
484,383,15450,2,0,L|490:353,1,30.0000011444092,0|0,0:0|1:2,0:0:0:0:
420,315,15659,1,0,0:0:0:0:
420,315,15763,2,0,L|413:344,2,30.0000011444092,2|0|2,3:2|0:0|1:2,0:0:0:0:
256,192,16180,5,8,2:2:0:0:
176,213,16284,1,8,2:2:0:0:
96,234,16388,1,0,3:2:0:0:
337,222,16596,6,0,B|397:212|435:157|423:77|319:85|316:130|334:171,1,215.999993408203,10|0,3:2|0:0,0:0:0:0:
256,192,17013,2,0,P|359:221|459:262,1,215.999993408203,8|0,3:2|0:0,0:0:0:0:
211,281,17430,2,0,B|133:267|112:388|25:369,1,215.999993408203,10|0,3:2|0:0,0:0:0:0:
96,234,17846,1,8,0:0:0:0:
147,177,17950,1,8,0:0:0:0:
108,110,18055,1,8,0:0:0:0:
32,126,18159,1,8,0:0:0:0:
23,203,18263,6,0,L|101:186,1,55.9999982910157,0|0,3:2|0:0,0:0:0:0:
242,118,18471,2,0,L|164:101,1,55.9999982910157,10|0,2:2|0:0,0:0:0:0:
171,21,18680,1,2,3:2:0:0:
171,21,18784,1,0,3:2:0:0:
171,21,18888,2,0,L|249:38,1,55.9999982910157,10|0,0:0|0:0,0:0:0:0:
400,97,19096,2,0,P|428:85|447:52,1,55.9999982910157,2|0,3:2|0:0,0:0:0:0:
376,19,19305,1,10,0:0:0:0:
326,139,19513,1,0,3:2:0:0:
326,139,19617,1,0,3:2:0:0:
326,139,19721,2,0,L|337:193,1,55.9999982910157,8|0,0:0|0:0,0:0:0:0:
471,144,19930,5,0,3:2:0:0:
386,262,20138,2,0,P|404:242|431:234,1,55.9999982910157,10|0,0:0|0:0,0:0:0:0:
423,384,20346,1,2,3:2:0:0:
423,384,20450,1,0,3:2:0:0:
423,384,20555,2,0,P|396:377|375:358,1,55.9999982910157,10|0,0:0|0:0,0:0:0:0:
510,291,20763,2,0,P|518:317|511:344,1,55.9999982910157,2|0,3:2|0:0,0:0:0:0:
512,210,20971,1,8,0:0:0:0:
300,305,21180,1,0,3:2:0:0:
286,302,21284,1,0,3:2:0:0:
272,299,21388,1,8,0:0:0:0:
258,296,21492,1,0,0:0:0:0:
245,293,21596,1,0,3:2:0:0:
471,144,21805,6,0,L|482:89,1,55.9999982910157,10|0,0:0|0:0,0:0:0:0:
408,26,22013,1,2,3:2:0:0:
408,26,22117,1,0,3:2:0:0:
408,26,22221,2,0,L|396:80,1,55.9999982910157,10|0,0:0|0:0,0:0:0:0:
309,156,22430,2,0,P|289:138|256:127,1,55.9999982910157,2|0,3:2|3:2,0:0:0:0:
167,157,22638,1,8,0:0:0:0:
235,42,22846,1,0,3:2:0:0:
235,42,22950,1,0,3:2:0:0:
235,42,23055,2,0,P|209:50|183:73,1,55.9999982910157,10|0,0:0|0:0,0:0:0:0:
91,190,23263,5,2,3:2:0:0:
18,161,23402,5,2,0:0:0:0:
21,84,23541,5,2,0:0:0:0:
132,123,23680,5,2,3:2:0:0:
129,167,23818,5,2,0:0:0:0:
91,190,23957,5,2,0:0:0:0:
103,132,24096,6,0,P|117:125|137:122,3,30.0000011444092,2|0|8|0,3:2|3:2|0:0|3:2,0:0:0:0:
29,239,24513,5,10,2:1:0:0:
62,308,24617,1,8,0:0:0:0:
135,323,24721,1,10,0:0:0:0:
198,284,24825,1,8,0:0:0:0:
208,207,24930,6,0,L|189:118,2,90.0000034332277,6|0|2,3:2|3:2|3:2,0:0:0:0:
300,270,25659,1,0,3:2:0:0:
300,270,25763,2,0,B|366:232|383:369|449:337,1,180.000006866455,10|2,1:2|1:2,0:0:0:0:
196,312,26596,6,0,P|152:332|115:362,1,95.9999970703126,2|0,3:2|0:0,0:0:0:0:
90,273,26909,2,0,P|50:245|6:227,1,95.9999970703126,2|0,3:2|0:0,0:0:0:0:
85,158,27221,1,2,3:2:0:0:
85,158,27325,1,0,3:2:0:0:
85,158,27430,2,0,P|101:48|17:120,1,287.999991210938,10|0,1:2|1:2,0:0:0:0:
215,134,28263,6,0,P|255:109|302:98,1,95.9999970703126,2|0,3:2|0:0,0:0:0:0:
367,10,28575,2,0,P|408:33|441:68,1,95.9999970703126,0|0,3:2|0:0,0:0:0:0:
480,240,28888,1,2,3:2:0:0:
480,240,28992,1,0,3:2:0:0:
480,240,29096,2,0,B|402:252|357:305|357:305|399:250|382:164,1,287.999991210938,10|2,1:2|1:2,0:0:0:0:
492,321,29930,6,0,P|446:339|411:372,1,95.9999970703126,2|2,3:2|0:0,0:0:0:0:
281,269,30242,2,0,P|303:227|307:179,1,95.9999970703126,2|0,3:2|0:0,0:0:0:0:
203,73,30555,1,2,3:2:0:0:
203,73,30659,1,0,0:0:0:0:
203,73,30763,2,0,L|156:82,1,47.9999985351563,8|0,0:0|0:0,0:0:0:0:
44,105,30971,1,2,3:2:0:0:
162,289,31180,5,10,0:0:0:0:
213,232,31284,1,8,0:0:0:0:
174,165,31389,1,8,0:0:0:0:
98,181,31493,1,8,0:0:0:0:
89,258,31596,6,0,L|100:312,1,55.9999982910157,0|0,3:2|0:0,0:0:0:0:
26,383,31805,2,0,L|15:329,1,55.9999982910157,10|0,0:0|0:0,0:0:0:0:
217,236,32013,1,2,3:2:0:0:
217,236,32117,2,0,P|244:239|268:253,1,55.9999982910157,0|10,3:2|2:2,0:0:0:0:
332,384,32325,2,0,P|321:358|321:330,2,55.9999982910157,2|0|0,0:0|3:2|0:0,0:0:0:0:
483,211,32638,6,0,L|512:204,1,30.0000011444092,10|0,0:0|0:0,0:0:0:0:
432,133,32846,1,2,3:2:0:0:
432,133,32950,1,0,3:2:0:0:
432,133,33055,2,0,L|461:126,1,30.0000011444092,10|0,0:0|0:0,0:0:0:0:
402,216,33263,6,0,P|385:237|361:251,1,55.9999982910157,0|0,3:2|0:0,0:0:0:0:
221,240,33471,2,0,L|232:185,1,55.9999982910157,10|0,0:0|0:0,0:0:0:0:
127,101,33680,1,2,3:2:0:0:
127,101,33784,2,0,L|138:155,1,55.9999982910157,0|10,3:2|0:0,0:0:0:0:
109,266,33992,2,0,P|87:248|59:243,2,55.9999982910157,2|0|0,0:0|3:2|0:0,0:0:0:0:
274,358,34305,6,0,L|282:318,1,30.0000011444092,10|0,0:0|0:0,0:0:0:0:
185,380,34513,1,2,3:2:0:0:
185,380,34617,1,0,3:2:0:0:
185,380,34721,2,0,L|193:340,1,30.0000011444092,10|0,0:0|0:0,0:0:0:0:
48,328,34930,6,0,P|26:346|0:352,1,55.9999982910157,0|0,3:2|0:0,0:0:0:0:
15,213,35138,2,0,P|41:222|60:242,1,55.9999982910157,10|0,0:0|0:0,0:0:0:0:
221,240,35346,1,2,3:2:0:0:
221,240,35450,1,0,3:2:0:0:
221,240,35555,2,0,L|237:161,1,55.9999982910157,10|0,0:0|0:0,0:0:0:0:
268,81,35763,2,0,P|289:99|316:105,1,55.9999982910157,2|0,3:2|0:0,0:0:0:0:
512,26,35971,1,8,0:0:0:0:
512,26,36075,2,0,L|500:80,1,55.9999982910157,2|0,0:0|3:2,0:0:0:0:
411,104,36284,2,0,L|422:49,2,55.9999982910157,0|10|0,3:2|0:0|0:0,0:0:0:0:
458,235,36596,6,0,P|484:227|512:223,1,55.9999982910157,2|0,3:2|0:0,0:0:0:0:
314,185,36805,1,8,0:0:0:0:
314,185,36909,2,0,P|340:193|368:196,1,55.9999982910157,2|0,0:0|3:2,0:0:0:0:
189,257,37117,1,0,3:2:0:0:
189,257,37221,2,0,P|215:249|243:245,1,55.9999982910157,10|0,0:0|0:0,0:0:0:0:
84,194,37430,1,2,3:2:0:0:
71,190,37534,1,0,3:2:0:0:
58,186,37638,2,0,P|84:194|112:198,1,55.9999982910157,8|0,0:0|3:2,0:0:0:0:
311,112,37846,5,8,2:2:0:0:
314,72,37950,1,8,2:2:0:0:
289,39,38054,1,8,0:0:0:0:
248,32,38158,1,8,0:0:0:0:
213,53,38263,2,0,L|217:72,1,20,4|0,3:2|0:0,0:0:0:0:
315,162,38472,5,8,0:0:0:0:
311,112,38576,1,8,0:0:0:0:
341,73,38680,1,8,0:0:0:0:
390,64,38784,1,8,0:0:0:0:
432,89,38888,2,0,L|427:108,1,20,4|0,3:2|0:0,0:0:0:0:
311,222,39097,5,8,0:0:0:0:
315,162,39201,1,8,0:0:0:0:
279,115,39305,1,8,0:0:0:0:
220,104,39409,1,8,0:0:0:0:
169,130,39513,6,0,L|173:153,1,24,4|0,3:2|0:0,0:0:0:0:
216,287,39930,6,0,B|189:239|132:243|132:243|114:272|81:278,1,151.999995941162,8|0,3:2|0:0,0:0:0:0:
15,245,40242,2,0,B|21:201|-5:175|-5:175|21:201|72:204,1,151.999995941162,8|0,3:2|0:0,0:0:0:0:
148,330,40555,2,0,P|131:341|113:348,1,40,8|0,3:2|0:0,0:0:0:0:
311,222,40763,6,0,B|365:201|394:314|443:289,1,160,8|0,3:2|0:0,0:0:0:0:
488,41,41596,6,0,P|429:35|382:70,1,120.000004577637,6|0,3:2|1:2,0:0:0:0:
382,70,41909,1,2,1:2:0:0:
382,70,42013,1,8,0:0:0:0:
260,1,42221,1,2,1:2:0:0:
331,150,42430,2,0,P|272:155|225:120,1,120.000004577637,2|0,3:2|1:2,0:0:0:0:
225,120,42743,1,2,1:2:0:0:
225,120,42847,1,8,0:0:0:0:
91,199,43055,1,2,1:2:0:0:
7,19,43263,6,0,P|20:76|31:136,1,120.000004577637,2|2,3:2|1:2,0:0:0:0:
122,117,43575,1,2,0:0:0:0:
122,117,43680,2,0,P|108:59|97:0,1,120.000004577637,8|2,0:0|1:2,0:0:0:0:
201,246,44096,2,0,B|149:231|115:281|122:284|99:341|55:327,1,180.000006866455,2|0,3:2|1:2,0:0:0:0:
39,323,44513,2,0,L|117:339,1,80,8|2,0:0|1:2,0:0:0:0:
343,384,44930,6,0,P|378:337|435:323,1,120.000004577637,2|0,3:2|1:2,0:0:0:0:
435,323,45242,1,2,0:0:0:0:
435,323,45346,1,8,0:0:0:0:
239,227,45555,1,2,1:2:0:0:
314,146,45763,2,0,L|338:263,1,120.000004577637,2|0,3:2|1:2,0:0:0:0:
338,263,46075,1,2,1:2:0:0:
338,263,46180,1,8,0:0:0:0:
483,165,46388,1,2,1:2:0:0:
327,15,46596,5,2,3:2:0:0:
402,2,46735,5,0,0:0:0:0:
443,65,46874,5,0,0:0:0:0:
416,77,47013,5,8,0:0:0:0:
389,36,47152,5,0,0:0:0:0:
338,42,47291,5,0,0:0:0:0:
346,59,47430,5,2,3:2:0:0:
378,56,47568,5,0,0:0:0:0:
396,85,47707,5,0,0:0:0:0:
314,146,47846,6,0,P|286:134|258:124,1,60.0000022888184,10|2,2:1|1:2,0:0:0:0:
33,102,48263,6,0,B|96:113|102:12|174:31,1,167.999994873047,2|0,3:2|0:0,0:0:0:0:
187,35,48680,2,0,L|108:18,1,80,8|2,0:0|1:2,0:0:0:0:
20,194,49096,2,0,P|94:217|146:274,1,155.999992858887,2|0,3:2|1:2,0:0:0:0:
155,289,49513,2,0,P|122:312|99:344,1,80,8|2,0:0|1:2,0:0:0:0:
343,365,49930,6,0,P|377:344|414:328,1,80,2|0,3:2|1:2,0:0:0:0:
375,252,50242,1,2,0:0:0:0:
375,252,50346,2,0,P|338:268|304:289,1,80,8|2,0:0|1:2,0:0:0:0:
465,238,50763,6,0,L|458:269,1,20,2|0,3:2|0:0,0:0:0:0:
414,158,50971,2,0,L|415:189,1,20,2|0,1:2|1:2,0:0:0:0:
344,93,51180,2,0,L|353:123,1,20,10|0,0:0|0:0,0:0:0:0:
259,48,51388,2,0,L|276:74,1,20,2|0,1:2|0:0,0:0:0:0:
62,40,51596,6,0,P|120:47|188:89,1,120.000004577637,2|0,3:2|1:2,0:0:0:0:
181,82,51909,1,2,0:0:0:0:
181,82,52013,2,0,L|172:42,1,40,8|0,0:0|0:0,0:0:0:0:
21,187,52221,1,2,1:2:0:0:
114,205,52430,2,0,L|97:126,1,80,2|0,3:2|1:2,0:0:0:0:
97,126,52742,1,2,1:2:0:0:
97,126,52846,1,8,0:0:0:0:
212,249,53055,5,2,1:2:0:0:
212,249,53159,1,8,0:0:0:0:
212,249,53263,2,0,B|188:283|150:285|150:285|182:271|187:235,1,120.000004577637,2|0,3:2|1:2,0:0:0:0:
215,166,53575,1,2,3:2:0:0:
215,166,53680,2,0,P|235:167|258:182,1,40,8|0,0:0|0:0,0:0:0:0:
331,361,53888,1,2,3:2:0:0:
325,366,53992,1,8,0:0:0:0:
319,372,54096,5,2,3:2:0:0:
275,305,54200,1,8,0:0:0:0:
325,242,54305,1,10,0:0:0:0:
401,271,54409,1,8,0:0:0:0:
396,352,54513,1,10,0:0:0:0:
386,349,54618,1,8,3:0:0:0:
376,347,54722,1,6,3:0:0:0:
366,345,54826,1,12,3:0:0:0:
356,343,54930,6,0,B|321:294|364:252|364:252|412:250|423:207,1,176.000005371094,6|8,3:2|0:0,0:0:0:0:
503,175,55242,1,2,0:0:0:0:
503,175,55346,2,0,P|486:149|462:131,1,60.0000022888184,0|0,3:2|3:2,0:0:0:0:
474,39,55555,2,0,P|444:40|416:51,1,60.0000022888184,10|0,0:0|0:0,0:0:0:0:
354,172,55763,2,0,B|315:126|245:128|245:128|230:161|198:167,1,176.000005371094,2|8,3:2|0:0,0:0:0:0:
169,98,56075,1,2,0:0:0:0:
169,98,56180,2,0,P|162:70|156:39,1,60.0000022888184,0|0,3:2|3:2,0:0:0:0:
63,22,56388,2,0,P|69:49|75:80,1,60.0000022888184,10|0,0:0|0:0,0:0:0:0:
162,259,56596,6,0,P|110:188|22:163,1,176.000005371094,2|8,3:2|0:0,0:0:0:0:
211,168,56909,1,2,0:0:0:0:
211,168,57013,2,0,P|234:198|250:250,1,60.0000022888184,0|0,3:2|3:2,0:0:0:0:
356,241,57221,2,0,P|341:275|304:315,1,60.0000022888184,10|0,0:0|0:0,0:0:0:0:
112,384,57430,2,0,L|53:371,1,60.0000022888184,2|0,3:2|0:0,0:0:0:0:
33,278,57638,2,0,L|91:290,1,60.0000022888184,8|0,0:0|0:0,0:0:0:0:
250,368,57846,1,0,3:2:0:0:
250,368,57950,1,0,3:2:0:0:
250,368,58055,2,0,L|237:309,1,60.0000022888184,10|0,0:0|0:0,0:0:0:0:
198,87,58263,6,0,B|178:19|100:38|100:38|146:50|154:89,1,176.000005371094,2|8,3:2|0:0,0:0:0:0:
211,168,58575,1,2,0:0:0:0:
211,168,58680,2,0,P|239:158|262:139,1,60.0000022888184,0|0,3:2|3:2,0:0:0:0:
83,115,58888,2,0,L|95:173,1,60.0000022888184,10|0,0:0|0:0,0:0:0:0:
83,326,59096,2,0,B|32:323|-1:353|-1:353|33:322|32:276,1,176.000005371094,2|8,3:2|0:0,0:0:0:0:
154,265,59409,1,2,0:0:0:0:
154,265,59513,2,0,P|182:275|214:299,1,60.0000022888184,0|0,3:2|3:2,0:0:0:0:
274,384,59721,2,0,P|298:367|326:356,1,60.0000022888184,10|0,0:0|0:0,0:0:0:0:
476,373,59930,6,0,P|448:360|425:341,1,60.0000022888184,2|0,3:2|0:0,0:0:0:0:
366,272,60138,1,8,0:0:0:0:
366,272,60242,2,0,P|370:250|375:225,1,47.9999985351563,2|0,0:0|3:0,0:0:0:0:
298,185,60450,1,0,3:0:0:0:
298,185,60554,2,0,P|293:206|288:231,1,47.9999985351563,10|0,0:0|0:0,0:0:0:0:
469,132,60763,1,2,3:2:0:0:
469,132,60867,1,0,3:2:0:0:
469,132,60971,2,0,P|464:110|459:85,1,47.9999985351563,8|0,0:0|0:0,0:0:0:0:
460,259,61180,5,10,0:0:0:0:
412,198,61284,1,8,0:0:0:0:
340,174,61388,1,10,0:0:0:0:
262,190,61492,1,8,2:2:0:0:
218,255,61596,6,0,L|232:325,1,60.0000022888184,6|0,3:2|0:0,0:0:0:0:
341,372,61805,2,0,L|326:301,1,60.0000022888184,8|0,0:0|0:0,0:0:0:0:
144,310,62013,1,0,3:2:0:0:
144,310,62117,1,0,3:2:0:0:
144,310,62221,2,0,P|116:320|95:342,1,60.0000022888184,10|0,0:0|0:0,0:0:0:0:
15,208,62430,2,0,P|43:218|64:240,1,60.0000022888184,2|0,3:2|0:0,0:0:0:0:
197,138,62638,2,0,L|138:150,1,60.0000022888184,8|0,0:0|0:0,0:0:0:0:
31,56,62846,1,0,3:2:0:0:
31,56,62950,1,0,3:2:0:0:
31,56,63055,2,0,L|89:68,1,60.0000022888184,10|0,0:0|0:0,0:0:0:0:
289,135,63263,6,0,B|409:109|409:109|414:82|438:65,1,160,2|8,3:2|0:0,0:0:0:0:
397,4,63575,1,2,0:0:0:0:
397,4,63680,2,0,P|368:19|352:44,1,60.0000022888184,0|0,3:2|3:2,0:0:0:0:
474,186,63888,2,0,L|486:127,1,60.0000022888184,10|0,0:0|0:0,0:0:0:0:
336,213,64096,5,10,0:0:0:0:
287,276,64200,1,8,0:0:0:0:
312,344,64305,1,8,0:0:0:0:
389,360,64409,1,8,0:0:0:0:
446,305,64513,1,8,0:0:0:0:
443,296,64617,1,8,3:0:0:0:
440,287,64721,1,4,3:0:0:0:
256,202,64930,6,0,B|198:169|154:209|154:209|133:259|81:250,1,180.000006866455,10|0,0:0|0:0,0:0:0:0:
52,169,65346,2,0,B|31:149|-1:159|-1:159|16:121|88:117|84:198,1,180.000006866455,10|0,0:0|0:0,0:0:0:0:
195,336,65763,6,0,L|244:101,2,240,10|10|10,3:2|0:0|0:0,0:0:0:0:
67,105,67638,5,2,3:2:0:0:
67,105,67742,1,2,3:2:0:0:
67,105,67846,2,0,L|43:100,1,24,10|0,0:0|0:0,0:0:0:0:
12,12,68263,6,0,L|152:41,1,143.999995605469,6|8,3:2|0:0,0:0:0:0:
236,61,68575,1,2,0:0:0:0:
236,61,68680,2,0,L|227:21,1,40,0|0,3:2|3:2,0:0:0:0:
163,157,68888,2,0,L|172:117,1,40,10|0,0:0|0:0,0:0:0:0:
314,0,69096,2,0,L|343:140,1,143.999995605469,2|8,3:2|0:0,0:0:0:0:
417,48,69409,1,2,0:0:0:0:
417,48,69513,2,0,L|456:39,1,40,0|0,3:2|3:2,0:0:0:0:
508,112,69721,2,0,L|468:120,1,40,10|0,0:0|0:0,0:0:0:0:
374,276,69930,5,2,3:2:0:0:
403,345,70068,5,2,0:0:0:0:
480,341,70207,5,2,0:0:0:0:
386,252,70347,5,2,3:2:0:0:
311,242,70485,5,2,0:0:0:0:
276,311,70624,5,2,0:0:0:0:
407,274,70763,6,0,P|424:263|438:249,1,40,2|0,3:2|0:0,0:0:0:0:
508,112,70971,2,0,L|468:120,1,40,8|0,0:0|0:0,0:0:0:0:
288,157,71180,1,0,3:2:0:0:
288,157,71284,1,0,3:2:0:0:
288,157,71388,2,0,P|270:146|256:132,1,40,8|0,0:0|0:0,0:0:0:0:
205,33,71596,6,0,B|100:54|100:54|92:78|76:92,1,143.999995605469,2|8,3:2|0:0,0:0:0:0:
18,39,71909,1,2,0:0:0:0:
18,39,72013,2,0,L|9:0,1,40,0|0,3:2|3:2,0:0:0:0:
151,127,72221,2,0,L|142:166,1,40,10|0,0:0|0:0,0:0:0:0:
30,251,72430,2,0,B|21:298|72:304|74:301|73:299|128:295|116:340,1,143.999995605469,2|8,3:2|0:0,0:0:0:0:
188,384,72742,1,2,0:0:0:0:
188,384,72846,2,0,P|197:361|201:332,1,40,0|0,3:2|3:2,0:0:0:0:
282,294,73055,2,0,P|266:274|243:256,1,40,10|0,0:0|0:0,0:0:0:0:
151,127,73263,5,2,3:2:0:0:
204,187,73402,5,2,0:0:0:0:
283,162,73541,5,2,0:0:0:0:
140,101,73680,6,0,P|114:93|88:94,2,53.3333333333333,2|2|2,3:2|0:0|0:0,0:0:0:0:
358,134,74096,5,10,0:0:0:0:
421,91,74200,1,8,0:0:0:0:
402,19,74304,1,8,0:0:0:0:
325,14,74408,1,8,0:0:0:0:
298,85,74512,1,8,0:0:0:0:
306,85,74616,1,8,3:0:0:0:
315,85,74720,1,4,3:0:0:0:
512,23,74930,6,0,L|478:179,1,136.000002593994,4|2,3:2|0:0,0:0:0:0:
478,236,75242,2,0,L|507:229,1,30.0000011444092,0|2,0:0|3:2,0:0:0:0:
379,198,75450,1,0,0:0:0:0:
379,198,75555,2,0,L|408:191,1,30.0000011444092,2|0,1:2|0:0,0:0:0:0:
434,304,75763,2,0,P|420:297|410:286,2,30.0000011444092,2|0|0,3:2|0:0|1:2,0:0:0:0:
338,380,76180,1,0,3:2:0:0:
338,380,76284,2,0,P|336:365|341:351,1,30.0000011444092,0|0,0:0|1:2,0:0:0:0:
292,266,76492,5,0,0:0:0:0:
292,266,76596,2,0,P|269:290|231:300,1,60.0000022888184,0|2,3:2|1:2,0:0:0:0:
186,368,76909,2,0,P|175:357|162:349,1,30.0000011444092,0|2,0:0|3:2,0:0:0:0:
141,270,77117,1,0,0:0:0:0:
141,270,77221,2,0,P|126:273|113:280,1,30.0000011444092,2|0,1:2|0:0,0:0:0:0:
26,365,77430,2,0,L|19:335,2,30.0000011444092,2|0|2,3:2|0:0|1:2,0:0:0:0:
186,368,77846,1,0,3:2:0:0:
186,368,77950,2,0,P|175:357|162:349,1,30.0000011444092,0|0,0:0|1:2,0:0:0:0:
292,362,78159,5,0,0:0:0:0:
292,362,78263,2,0,P|281:351|268:343,1,30.0000011444092,2|0,3:2|0:0,0:0:0:0:
385,306,78471,2,0,P|396:295|409:287,2,30.0000011444092,2|2|0,1:2|0:0|3:2,0:0:0:0:
436,207,78784,2,0,P|451:211|464:218,1,30.0000011444092,0|0,0:0|1:2,0:0:0:0:
341,225,78992,1,0,0:0:0:0:
341,225,79096,2,0,L|334:195,2,30.0000011444092,2|0|2,3:2|0:0|1:2,0:0:0:0:
28,59,79513,5,8,2:2:0:0:
28,59,79930,6,0,L|21:27,2,32,2|0|2,0:0|0:0|0:0,0:0:0:0:
494,156,81180,5,8,0:0:0:0:
488,77,81284,1,8,0:0:0:0:
432,21,81388,1,8,0:0:0:0:
354,14,81492,1,8,0:0:0:0:
290,60,81596,6,0,L|301:114,1,55.9999982910157,0|0,3:2|0:0,0:0:0:0:
359,239,81805,2,0,P|377:219|404:211,1,55.9999982910157,10|0,2:2|0:0,0:0:0:0:
465,321,82013,1,2,3:2:0:0:
465,321,82117,1,0,3:2:0:0:
465,321,82221,2,0,P|446:341|419:349,1,55.9999982910157,10|0,0:0|0:0,0:0:0:0:
277,384,82430,2,0,L|288:330,1,55.9999982910157,2|0,3:2|0:0,0:0:0:0:
117,214,82638,1,10,0:0:0:0:
209,294,82846,1,0,3:2:0:0:
209,294,82950,1,0,3:2:0:0:
209,294,83055,2,0,L|198:240,1,55.9999982910157,8|0,0:0|0:0,0:0:0:0:
301,114,83263,5,0,3:2:0:0:
65,41,83471,2,0,P|38:48|19:68,1,55.9999982910157,10|0,0:0|0:0,0:0:0:0:
150,142,83680,1,2,3:2:0:0:
150,142,83784,1,0,3:2:0:0:
150,142,83888,2,0,P|156:115|149:88,1,55.9999982910157,10|0,0:0|0:0,0:0:0:0:
20,165,84097,2,0,P|39:184|66:190,1,55.9999982910157,2|0,3:2|0:0,0:0:0:0:
150,0,84305,1,8,0:0:0:0:
301,114,84513,1,0,3:2:0:0:
304,100,84617,1,0,3:2:0:0:
307,86,84721,1,8,0:0:0:0:
310,72,84825,1,0,0:0:0:0:
313,59,84929,1,0,3:2:0:0:
411,191,85138,6,0,L|466:180,1,55.9999982910157,10|0,0:0|0:0,0:0:0:0:
496,78,85346,1,2,3:2:0:0:
496,78,85450,1,0,3:2:0:0:
496,78,85555,2,0,L|441:89,1,55.9999982910157,10|0,0:0|0:0,0:0:0:0:
293,208,85763,2,0,P|316:222|334:244,1,55.9999982910157,2|0,3:2|3:2,0:0:0:0:
388,357,85971,1,8,0:0:0:0:
210,347,86180,1,0,3:2:0:0:
210,347,86284,1,0,3:2:0:0:
210,347,86388,2,0,L|264:335,1,55.9999982910157,10|0,0:0|0:0,0:0:0:0:
161,236,86596,5,2,3:2:0:0:
104,181,86735,5,2,0:0:0:0:
32,205,86874,5,2,0:0:0:0:
111,288,87013,5,2,3:2:0:0:
148,279,87152,5,2,0:0:0:0:
161,236,87291,5,2,0:0:0:0:
94,263,87430,6,0,P|103:280|118:293,3,30.0000011444092,2|0|8|0,3:2|3:2|0:0|3:2,0:0:0:0:
42,117,87846,5,10,2:1:0:0:
64,47,87950,1,8,0:0:0:0:
126,7,88054,1,10,0:0:0:0:
199,17,88158,1,8,0:0:0:0:
248,72,88263,6,0,L|229:160,2,90.0000034332277,6|0|2,3:2|3:2|3:2,0:0:0:0:
347,132,88992,1,0,3:2:0:0:
347,132,89096,2,0,B|452:140|501:65|481:-27|380:-17|361:9|376:61,1,287.999991210938,10|2,1:2|1:2,0:0:0:0:
399,219,89930,6,0,P|431:253|476:270,1,95.9999970703126,2|0,3:2|0:0,0:0:0:0:
415,363,90242,2,0,P|382:328|337:311,1,95.9999970703126,2|0,3:2|0:0,0:0:0:0:
278,218,90555,1,2,3:2:0:0:
278,218,90659,1,0,3:2:0:0:
278,218,90763,2,0,P|166:306|27:341,1,287.999991210938,10|0,1:2|1:2,0:0:0:0:
81,169,91596,6,0,P|43:140|22:97,1,95.9999970703126,2|0,3:2|0:0,0:0:0:0:
114,23,91909,2,0,P|151:51|172:94,1,95.9999970703126,0|0,3:2|0:0,0:0:0:0:
305,141,92221,1,2,3:2:0:0:
305,141,92325,1,0,3:2:0:0:
305,141,92430,2,0,B|362:27|491:49|491:49|450:55|429:86,1,287.999991210938,10|2,1:2|1:2,0:0:0:0:
404,202,93263,6,0,P|438:236|462:278,1,95.9999970703126,2|2,3:2|0:0,0:0:0:0:
265,306,93575,2,0,P|311:294|359:294,1,95.9999970703126,2|0,3:2|0:0,0:0:0:0:
208,384,93888,1,2,3:2:0:0:
208,384,93992,1,0,0:0:0:0:
208,384,94096,2,0,P|188:368|177:348,1,47.9999985351563,8|0,0:0|0:0,0:0:0:0:
137,208,94305,1,2,3:2:0:0:
374,121,94513,5,10,0:0:0:0:
438,79,94617,1,8,0:0:0:0:
417,4,94722,1,8,0:0:0:0:
340,0,94826,1,8,0:0:0:0:
311,72,94930,6,0,L|389:55,1,55.9999982910157,0|0,3:2|0:0,0:0:0:0:
500,170,95138,2,0,L|422:153,1,55.9999982910157,10|0,0:0|0:0,0:0:0:0:
253,147,95346,1,2,3:2:0:0:
253,147,95450,2,0,P|233:127|221:101,1,55.9999982910157,0|10,3:2|2:2,0:0:0:0:
148,0,95659,2,0,P|140:27|124:50,2,55.9999982910157,2|0|0,0:0|3:2|0:0,0:0:0:0:
29,201,95971,6,0,L|0:194,1,30.0000011444092,10|0,0:0|0:0,0:0:0:0:
104,134,96180,1,2,3:2:0:0:
104,134,96284,1,0,3:2:0:0:
104,134,96388,2,0,L|74:127,1,30.0000011444092,10|0,0:0|0:0,0:0:0:0:
236,238,96596,6,0,L|290:226,1,55.9999982910157,0|0,3:2|0:0,0:0:0:0:
437,360,96805,2,0,P|410:350|391:331,1,55.9999982910157,10|0,0:0|0:0,0:0:0:0:
459,219,97013,1,2,3:2:0:0:
459,219,97117,2,0,P|485:228|504:247,1,55.9999982910157,0|10,3:2|0:0,0:0:0:0:
314,358,97325,2,0,P|309:329|316:303,2,55.9999982910157,2|0|0,0:0|3:2|0:0,0:0:0:0:
371,202,97638,6,0,L|364:172,1,30.0000011444092,10|0,0:0|0:0,0:0:0:0:
451,96,97846,1,2,3:2:0:0:
451,96,97950,1,0,3:2:0:0:
451,96,98055,2,0,L|444:125,1,30.0000011444092,10|0,0:0|0:0,0:0:0:0:
287,131,98263,6,0,P|301:107|329:93,1,55.9999982910157,0|0,3:2|0:0,0:0:0:0:
236,238,98471,2,0,P|208:237|182:220,1,55.9999982910157,10|0,0:0|0:0,0:0:0:0:
41,165,98680,1,2,3:2:0:0:
41,165,98784,1,0,3:2:0:0:
41,165,98888,2,0,L|52:110,1,55.9999982910157,10|0,0:0|0:0,0:0:0:0:
159,39,99096,2,0,L|148:94,1,55.9999982910157,2|0,3:2|0:0,0:0:0:0:
100,290,99305,1,8,0:0:0:0:
100,290,99409,2,0,P|79:308|54:321,1,55.9999982910157,2|0,0:0|3:2,0:0:0:0:
184,222,99617,2,0,P|212:223|238:240,2,55.9999982910157,0|10|0,3:2|0:0|0:0,0:0:0:0:
276,347,99930,6,0,P|290:323|318:309,1,55.9999982910157,2|0,3:2|0:0,0:0:0:0:
461,316,100138,1,8,0:0:0:0:
461,316,100242,2,0,P|433:315|407:298,1,55.9999982910157,2|0,0:0|3:2,0:0:0:0:
334,207,100450,1,0,3:2:0:0:
334,207,100555,2,0,L|345:152,1,55.9999982910157,10|0,0:0|0:0,0:0:0:0:
468,81,100763,1,2,3:2:0:0:
468,81,100867,1,0,3:2:0:0:
468,81,100971,2,0,L|456:135,1,55.9999982910157,8|0,0:0|3:2,0:0:0:0:
260,80,101180,5,8,2:2:0:0:
268,41,101284,1,8,2:2:0:0:
252,12,101388,1,8,0:0:0:0:
291,27,101492,1,8,0:0:0:0:
331,29,101596,2,0,L|335:48,1,20,4|0,3:2|0:0,0:0:0:0:
357,211,101805,5,8,0:0:0:0:
311,226,101909,1,8,0:0:0:0:
276,255,102013,1,8,0:0:0:0:
284,207,102117,1,8,0:0:0:0:
261,167,102221,2,0,L|275:153,1,20,4|0,3:2|0:0,0:0:0:0:
416,45,102430,5,8,0:0:0:0:
459,83,102534,1,8,0:0:0:0:
512,95,102638,1,8,0:0:0:0:
455,123,102742,1,8,0:0:0:0:
427,171,102846,6,0,L|405:161,1,24,4|0,3:2|0:0,0:0:0:0:
341,122,103263,6,0,L|375:286,1,160,8|0,3:2|0:0,0:0:0:0:
397,351,103575,2,0,B|442:340|472:369|472:369|442:340|452:275,1,160,8|0,3:2|0:0,0:0:0:0:
276,255,103888,2,0,L|284:294,1,40,8|0,3:2|0:0,0:0:0:0:
129,379,104096,6,0,B|103:310|37:313|37:313|54:317|82:351,1,160,8|0,3:2|0:0,0:0:0:0:
284,294,104930,2,0,L|255:160,1,120.000004577637,6|0,3:2|1:2,0:0:0:0:
259,176,105242,1,2,1:2:0:0:
259,176,105346,1,8,0:0:0:0:
397,249,105555,1,2,1:2:0:0:
136,144,105763,2,0,L|164:10,1,120.000004577637,2|0,3:2|1:2,0:0:0:0:
160,26,106075,1,2,1:2:0:0:
160,26,106179,1,8,0:0:0:0:
23,99,106388,1,2,1:2:0:0:
60,291,106596,6,0,P|104:251|162:238,1,120.000004577637,2|2,3:2|1:2,0:0:0:0:
236,120,106909,1,2,1:2:0:0:
236,120,107013,2,0,P|292:139|332:182,1,120.000004577637,8|2,0:0|1:2,0:0:0:0:
467,356,107430,2,0,B|401:316|407:251|407:251|412:284|438:293,1,180.000006866455,2|0,3:2|1:2,0:0:0:0:
371,329,107846,2,0,P|334:350|298:374,1,80,8|2,0:0|1:2,0:0:0:0:
161,237,108263,6,0,P|218:253|272:278,1,120.000004577637,2|0,3:2|1:2,0:0:0:0:
272,278,108575,1,2,1:2:0:0:
272,278,108680,1,8,0:0:0:0:
142,366,108888,1,2,1:2:0:0:
34,214,109096,2,0,P|76:172|126:137,1,120.000004577637,2|0,3:2|1:2,0:0:0:0:
126,137,109409,1,2,1:2:0:0:
126,137,109513,1,8,0:0:0:0:
67,310,109721,1,2,1:2:0:0:
256,192,109930,5,2,3:2:0:0:
297,124,110068,5,0,0:0:0:0:
258,54,110207,5,0,0:0:0:0:
242,36,110346,5,8,0:0:0:0:
268,84,110484,5,0,0:0:0:0:
324,85,110623,5,0,0:0:0:0:
340,71,110763,5,2,3:2:0:0:
301,69,110901,5,0,0:0:0:0:
281,103,111040,5,0,0:0:0:0:
340,197,111180,6,0,P|364:213|384:236,1,60.0000022888184,10|2,2:1|1:2,0:0:0:0:
480,308,111596,6,0,L|315:342,1,167.999994873047,2|0,3:2|1:2,0:0:0:0:
299,339,112013,2,0,L|377:355,1,80,8|2,0:0|1:2,0:0:0:0:
190,236,112430,2,0,P|116:261|57:311,1,155.999992858887,2|0,3:2|1:2,0:0:0:0:
49,326,112846,2,0,P|64:289|65:249,1,80,8|2,0:0|1:2,0:0:0:0:
92,83,113263,6,0,P|61:110|25:126,1,80,2|0,3:2|1:2,0:0:0:0:
161,25,113575,1,2,1:2:0:0:
161,25,113680,2,0,P|200:37|232:61,1,80,8|2,0:0|1:2,0:0:0:0:
475,53,114096,6,0,L|470:33,1,20,2|0,3:2|0:0,0:0:0:0:
492,152,114305,2,0,L|493:132,1,20,2|0,1:2|1:2,0:0:0:0:
482,252,114513,2,0,L|488:232,1,20,10|0,0:0|0:0,0:0:0:0:
446,346,114721,2,0,L|456:329,1,20,2|0,1:2|0:0,0:0:0:0:
239,356,114930,6,0,P|297:345|349:315,1,120.000004577637,2|2,3:2|1:2,0:0:0:0:
356,321,115242,1,2,1:2:0:0:
356,321,115346,2,0,L|364:360,1,40,8|0,0:0|0:0,0:0:0:0:
192,194,115555,1,2,1:2:0:0:
268,257,115763,2,0,L|284:178,1,80,2|0,3:2|1:2,0:0:0:0:
284,178,116075,1,2,1:2:0:0:
284,178,116180,1,8,0:0:0:0:
187,324,116388,5,2,1:2:0:0:
187,324,116492,1,8,0:0:0:0:
187,324,116596,2,0,B|149:359|111:350|111:350|144:342|155:306,1,120.000004577637,2|0,3:2|1:2,0:0:0:0:
95,272,116909,1,2,3:2:0:0:
95,272,117013,2,0,L|106:218,1,40,8|0,0:0|0:0,0:0:0:0:
143,52,117221,1,2,3:2:0:0:
146,42,117325,1,8,0:0:0:0:
149,32,117429,5,2,3:2:0:0:
69,39,117533,1,8,0:0:0:0:
51,118,117638,1,10,0:0:0:0:
122,159,117742,1,8,0:0:0:0:
181,104,117846,1,10,0:0:0:0:
171,107,117951,1,8,3:0:0:0:
161,109,118055,1,6,3:0:0:0:
151,111,118159,1,12,3:0:0:0:
141,113,118263,6,0,B|176:57|251:61|251:61|271:89|311:92,1,176.000005371094,6|8,3:2|0:0,0:0:0:0:
315,170,118575,1,2,0:0:0:0:
315,170,118680,2,0,P|341:156|361:133,1,60.0000022888184,0|0,3:2|3:2,0:0:0:0:
436,35,118888,2,0,P|434:64|444:93,1,60.0000022888184,10|0,0:0|0:0,0:0:0:0:
478,313,119096,2,0,B|442:306|401:348|401:348|437:304|428:260,1,176.000005371094,2|8,3:2|0:0,0:0:0:0:
354,246,119409,1,2,0:0:0:0:
354,246,119513,2,0,P|348:275|331:299,1,60.0000022888184,0|0,3:2|3:2,0:0:0:0:
236,384,119721,2,0,P|215:362|187:352,1,60.0000022888184,10|0,0:0|0:0,0:0:0:0:
22,319,119930,6,0,P|50:311|73:293,1,60.0000022888184,2|0,3:2|0:0,0:0:0:0:
168,143,120138,1,10,0:0:0:0:
168,143,120242,2,0,B|151:72|68:64|68:64|101:87|94:120,1,176.000005371094,2|0,0:0|3:2,0:0:0:0:
180,221,120555,2,0,P|212:214|236:191,1,60.0000022888184,10|0,0:0|0:0,0:0:0:0:
317,119,120763,2,0,P|294:94|263:85,1,60.0000022888184,2|0,3:2|0:0,0:0:0:0:
27,133,120971,2,0,L|39:191,1,60.0000022888184,8|0,0:0|0:0,0:0:0:0:
74,346,121180,1,0,3:2:0:0:
74,346,121284,1,0,3:2:0:0:
74,346,121388,2,0,P|49:328|21:318,1,60.0000022888184,10|0,0:0|0:0,0:0:0:0:
236,384,121596,6,0,B|258:324|326:316|326:316|350:340|386:336,1,176.000005371094,2|8,3:2|0:0,0:0:0:0:
455,374,121909,1,2,0:0:0:0:
455,374,122013,2,0,L|467:315,1,60.0000022888184,0|0,3:2|3:2,0:0:0:0:
393,200,122221,2,0,L|380:258,1,60.0000022888184,10|0,0:0|0:0,0:0:0:0:
496,185,122430,2,0,B|510:131|464:105|464:105|398:116|386:68,1,176.000005371094,2|8,3:2|0:0,0:0:0:0:
298,62,122742,1,2,0:0:0:0:
298,62,122846,2,0,P|307:33|327:11,1,60.0000022888184,0|0,3:2|3:2,0:0:0:0:
316,157,123055,2,0,P|286:163|257:157,1,60.0000022888184,10|0,0:0|0:0,0:0:0:0:
169,31,123263,6,0,P|189:53|198:82,1,60.0000022888184,2|0,3:2|0:0,0:0:0:0:
55,116,123471,1,8,0:0:0:0:
55,116,123575,2,0,L|8:106,1,47.9999985351563,2|0,0:0|3:2,0:0:0:0:
4,20,123784,1,0,3:2:0:0:
4,20,123888,2,0,L|50:29,1,47.9999985351563,10|0,0:0|0:0,0:0:0:0:
206,89,124096,1,2,3:2:0:0:
206,89,124200,1,0,3:2:0:0:
206,89,124305,2,0,P|187:104|173:123,1,47.9999985351563,8|0,0:0|0:0,0:0:0:0:
63,283,124513,5,10,0:0:0:0:
110,222,124617,1,8,0:0:0:0:
182,198,124721,1,10,0:0:0:0:
260,214,124825,1,8,2:2:0:0:
304,279,124929,6,0,L|290:349,1,60.0000022888184,6|0,3:2|0:0,0:0:0:0:
393,384,125138,2,0,L|407:314,1,60.0000022888184,8|0,0:0|0:0,0:0:0:0:
512,168,125346,1,0,3:2:0:0:
512,168,125450,1,0,3:2:0:0:
512,168,125555,2,0,P|489:187|462:200,1,60.0000022888184,10|0,0:0|0:0,0:0:0:0:
389,69,125763,2,0,P|412:50|439:37,1,60.0000022888184,2|0,3:2|0:0,0:0:0:0:
292,159,125971,2,0,P|264:148|239:131,1,60.0000022888184,8|0,0:0|0:0,0:0:0:0:
109,38,126180,1,0,3:2:0:0:
109,38,126284,1,0,3:2:0:0:
109,38,126388,2,0,L|121:96,1,60.0000022888184,10|0,0:0|0:0,0:0:0:0:
170,258,126596,6,0,B|147:279|112:276|95:240|95:236|97:234|96:200|64:178|32:201,1,176.000005371094,2|8,3:2|0:0,0:0:0:0:
159,353,126909,1,2,0:0:0:0:
159,353,127013,2,0,P|185:348|218:323,1,60.0000022888184,0|0,3:2|3:2,0:0:0:0:
352,353,127221,2,0,P|360:327|355:286,1,60.0000022888184,10|0,0:0|0:0,0:0:0:0:
239,131,127430,5,10,0:0:0:0:
215,54,127534,1,8,0:0:0:0:
262,0,127639,1,8,0:0:0:0:
340,12,127743,1,8,0:0:0:0:
374,83,127847,1,8,0:0:0:0:
367,91,127951,1,8,3:0:0:0:
360,99,128055,1,4,3:0:0:0:
161,114,128263,6,0,B|103:95|63:208|8:192,1,180.000006866455,10|0,0:0|0:0,0:0:0:0:
0,127,128680,2,0,P|88:143|172:175,1,180.000006866455,10|0,0:0|0:0,0:0:0:0:
279,294,129096,6,0,P|364:213|481:211,2,240,10|10|10,3:2|0:0|0:0,0:0:0:0:
35,298,130971,5,2,3:2:0:0:
35,298,131075,1,2,3:2:0:0:
35,298,131180,2,0,L|30:321,1,24,10|0,0:0|0:0,0:0:0:0:
97,384,131596,6,0,P|122:360|176:342,1,68.0000012969971,6|0,3:2|0:0,0:0:0:0:
301,296,131805,1,10,0:0:0:0:
297,379,131909,2,0,P|263:369|221:331,1,68.0000012969971,2|0,0:0|3:2,0:0:0:0:
118,246,132117,1,2,3:2:0:0:
192,208,132221,2,0,P|200:242|188:297,1,68.0000012969971,10|0,0:0|0:0,0:0:0:0:
41,204,132430,2,0,P|66:179|120:162,1,68.0000012969971,0|0,3:2|0:0,0:0:0:0:
245,117,132638,2,0,L|178:102,1,68.0000012969971,8|0,0:0|0:0,0:0:0:0:
167,8,132846,1,0,3:2:0:0:
167,8,132950,1,0,3:2:0:0:
167,8,133055,2,0,L|233:23,1,68.0000012969971,10|0,0:0|0:0,0:0:0:0:
351,95,133263,6,0,P|376:72|406:57,1,68.0000012969971,2|0,3:2|0:0,0:0:0:0:
506,264,133471,1,10,0:0:0:0:
449,204,133575,2,0,P|424:186|381:173,1,68.0000012969971,2|0,0:0|3:2,0:0:0:0:
494,138,133784,1,2,3:2:0:0:
378,260,133888,2,0,P|353:277|310:291,1,68.0000012969971,10|0,0:0|0:0,0:0:0:0:
155,353,134096,2,0,P|183:333|199:303,1,68.0000012969971,0|0,3:2|0:0,0:0:0:0:
101,222,134305,2,0,P|73:241|57:271,1,68.0000012969971,8|0,0:0|0:0,0:0:0:0:
229,186,134513,1,0,3:2:0:0:
229,186,134617,1,0,3:2:0:0:
229,186,134721,2,0,L|220:118,1,68.0000012969971,10|0,0:0|0:0,0:0:0:0:
22,40,134930,6,0,P|28:134|81:97,1,191.999994140625,2|8,3:2|0:0,0:0:0:0:
180,42,135242,1,2,0:0:0:0:
180,42,135346,2,0,L|113:27,1,68.0000012969971,0|0,3:2|3:2,0:0:0:0:
331,134,135555,2,0,P|363:125|398:119,1,68.0000012969971,10|0,0:0|0:0,0:0:0:0:
420,20,135763,2,0,P|386:28|353:35,1,68.0000012969971,0|0,3:2|0:0,0:0:0:0:
77,107,135971,2,0,P|106:123|124:151,1,68.0000012969971,8|0,0:0|0:0,0:0:0:0:
119,324,136180,1,2,3:2:0:0:
119,324,136284,1,0,3:2:0:0:
119,324,136388,2,0,P|118:290|133:260,1,68.0000012969971,8|0,0:0|0:0,0:0:0:0:
293,342,136596,6,0,P|259:341|231:322,1,68.0000012969971,2|0,3:2|0:0,0:0:0:0:
262,205,136805,2,0,P|295:205|323:224,1,68.0000012969971,8|0,0:0|0:0,0:0:0:0:
416,326,137013,1,0,3:2:0:0:
416,326,137117,1,0,3:2:0:0:
416,326,137221,2,0,P|420:292|432:247,1,68.0000012969971,8|0,0:0|0:0,0:0:0:0:
512,82,137430,5,8,0:0:0:0:
459,29,137534,1,8,0:0:0:0:
388,9,137638,1,8,0:0:0:0:
316,24,137742,1,8,0:0:0:0:
259,73,137846,1,8,0:0:0:0:
203,120,137951,1,8,0:0:0:0:
131,136,138055,1,8,0:0:0:0:
59,115,138159,1,8,0:0:0:0:
8,62,138263,6,0,L|22:132,1,68.0000012969971,6|0,3:2|0:0,0:0:0:0:
115,296,138471,1,10,0:0:0:0:
58,241,138575,2,0,P|36:224|-17:206,1,68.0000012969971,2|0,0:0|3:2,0:0:0:0:
102,375,138784,1,2,3:2:0:0:
178,353,138888,2,0,P|203:342|245:305,1,68.0000012969971,10|0,0:0|0:0,0:0:0:0:
289,202,139096,2,0,P|322:224|354:269,1,68.0000012969971,0|0,3:2|0:0,0:0:0:0:
366,359,139305,2,0,P|388:334|417:315,1,68.0000012969971,8|0,0:0|0:0,0:0:0:0:
512,198,139513,1,0,3:2:0:0:
512,198,139617,1,0,3:2:0:0:
512,198,139721,2,0,P|478:207|433:214,1,68.0000012969971,10|0,0:0|0:0,0:0:0:0:
411,68,139930,6,0,P|445:59|490:52,1,68.0000012969971,2|0,3:2|0:0,0:0:0:0:
222,115,140138,1,10,0:0:0:0:
145,75,140242,2,0,P|114:54|82:12,1,68.0000012969971,2|0,0:0|3:2,0:0:0:0:
143,156,140450,1,2,3:2:0:0:
281,59,140555,2,0,P|311:38|343:-3,1,68.0000012969971,10|0,0:0|0:0,0:0:0:0:
445,212,140763,2,0,P|411:196|360:189,1,68.0000012969971,0|0,3:2|0:0,0:0:0:0:
341,328,140971,2,0,P|374:343|425:350,1,68.0000012969971,8|0,0:0|0:0,0:0:0:0:
252,231,141180,1,0,3:2:0:0:
252,231,141284,1,0,3:2:0:0:
252,231,141388,2,0,L|185:245,1,68.0000012969971,8|0,0:0|0:0,0:0:0:0:
25,376,141596,6,0,L|69:164,1,191.999994140625,2|8,3:2|0:0,0:0:0:0:
70,108,141909,1,2,0:0:0:0:
70,108,142013,2,0,P|34:118|3:122,1,68.0000012969971,0|0,3:2|3:2,0:0:0:0:
196,42,142221,2,0,P|160:31|129:27,1,68.0000012969971,10|0,0:0|0:0,0:0:0:0:
378,115,142430,2,0,B|426:9|426:9|405:37|364:44,1,176.000005371094,2|8,3:2|0:0,0:0:0:0:
297,141,142742,1,2,0:0:0:0:
297,141,142846,2,0,P|307:168|329:189,1,60.0000022888184,0|0,3:2|3:2,0:0:0:0:
471,190,143055,2,0,P|441:185|413:194,1,60.0000022888184,10|0,0:0|0:0,0:0:0:0:
280,276,143263,6,0,L|292:334,1,60.0000022888184,2|0,3:2|0:0,0:0:0:0:
390,361,143471,2,0,L|377:302,1,60.0000022888184,8|0,0:0|0:0,0:0:0:0:
196,342,143680,1,0,3:2:0:0:
196,342,143784,1,0,3:2:0:0:
196,342,143888,2,0,P|172:360|144:370,1,60.0000022888184,8|0,0:0|0:0,0:0:0:0:
24,254,144096,5,8,0:0:0:0:
0,171,144200,1,8,0:0:0:0:
42,96,144305,1,10,0:0:0:0:
128,90,144409,1,8,0:0:0:0:
181,158,144513,1,10,0:0:0:0:
178,168,144617,1,8,3:0:0:0:
175,178,144721,1,6,3:0:0:0:
280,276,144930,6,0,L|301:174,2,90.0000034332277,6|0|2,3:2|3:2|3:2,0:0:0:0:
345,357,145659,1,0,3:2:0:0:
345,357,145763,2,0,B|395:241|519:291|519:291|495:342|443:339,1,287.999991210938,10|2,1:2|1:2,0:0:0:0:
242,362,146596,6,0,P|204:332|160:313,1,95.9999970703126,2|0,3:2|0:0,0:0:0:0:
51,274,146909,2,0,P|95:255|133:227,1,95.9999970703126,2|0,3:2|0:0,0:0:0:0:
250,110,147221,1,2,3:2:0:0:
250,110,147325,1,0,3:2:0:0:
250,110,147430,2,0,B|368:75|399:258|498:215,1,287.999991210938,10|0,1:2|1:2,0:0:0:0:
148,119,148263,6,0,P|122:78|109:32,1,95.9999970703126,2|0,3:2|0:0,0:0:0:0:
12,75,148575,2,0,P|37:115|50:161,1,95.9999970703126,0|0,3:2|0:0,0:0:0:0:
53,329,148888,1,2,3:2:0:0:
53,329,148992,1,0,3:2:0:0:
53,329,149096,2,0,B|106:383|192:338|187:230|98:220|98:220|73:237|44:234,1,287.999991210938,10|2,1:2|1:2,0:0:0:0:
220,376,149930,6,0,P|255:348|304:337,1,95.9999970703126,2|2,3:2|0:0,0:0:0:0:
326,233,150242,2,0,P|367:249|401:286,1,95.9999970703126,2|0,3:2|0:0,0:0:0:0:
460,374,150555,1,2,3:2:0:0:
460,374,150659,1,0,0:0:0:0:
460,374,150763,2,0,L|469:327,1,40,8|0,0:0|0:0,0:0:0:0:
508,183,150971,1,2,3:2:0:0:
288,142,151180,5,10,0:0:0:0:
224,100,151284,1,8,0:0:0:0:
245,25,151389,1,8,0:0:0:0:
322,21,151493,1,8,0:0:0:0:
351,93,151597,6,0,L|273:76,1,55.9999982910157,0|0,3:2|0:0,0:0:0:0:
450,11,151805,2,0,L|528:-6,1,55.9999982910157,10|0,0:0|0:0,0:0:0:0:
508,183,152013,1,2,3:2:0:0:
508,183,152117,2,0,P|490:161|463:153,1,55.9999982910157,0|10,3:2|2:2,0:0:0:0:
415,243,152325,2,0,P|433:265|460:273,2,55.9999982910157,2|0|0,0:0|3:2|0:0,0:0:0:0:
212,180,152638,6,0,L|218:209,1,30.0000011444092,10|0,0:0|0:0,0:0:0:0:
122,161,152846,1,2,3:2:0:0:
122,161,152950,1,0,3:2:0:0:
122,161,153055,2,0,L|128:190,1,30.0000011444092,10|0,0:0|0:0,0:0:0:0:
140,322,153263,6,0,L|151:267,1,55.9999982910157,0|0,3:2|0:0,0:0:0:0:
180,91,153471,2,0,P|159:72|131:68,1,55.9999982910157,10|0,0:0|0:0,0:0:0:0:
25,26,153680,1,2,3:2:0:0:
25,26,153784,2,0,L|36:80,1,55.9999982910157,0|10,3:2|0:0,0:0:0:0:
270,112,153992,2,0,P|275:84|265:58,2,55.9999982910157,2|0|0,0:0|3:2|0:0,0:0:0:0:
72,248,154305,6,0,L|42:241,1,30.0000011444092,10|0,0:0|0:0,0:0:0:0:
169,328,154513,1,2,3:2:0:0:
169,328,154617,1,0,3:2:0:0:
169,328,154721,2,0,L|139:321,1,30.0000011444092,10|0,0:0|0:0,0:0:0:0:
269,384,154930,6,0,P|287:362|324:349,1,55.9999982910157,0|0,3:2|0:0,0:0:0:0:
471,368,155138,2,0,P|442:363|413:337,1,55.9999982910157,10|0,0:0|0:0,0:0:0:0:
284,246,155346,1,2,3:2:0:0:
284,246,155450,1,0,3:2:0:0:
284,246,155555,2,0,L|297:183,1,55.9999982910157,10|0,0:0|0:0,0:0:0:0:
180,91,155763,2,0,L|191:145,1,55.9999982910157,2|0,3:2|0:0,0:0:0:0:
369,153,155971,1,8,0:0:0:0:
369,153,156075,2,0,P|356:128|331:116,1,55.9999982910157,2|0,0:0|3:2,0:0:0:0:
118,176,156284,2,0,L|129:230,2,55.9999982910157,0|10|0,3:2|0:0|0:0,0:0:0:0:
90,33,156596,6,0,L|35:21,1,55.9999982910157,2|0,3:2|0:0,0:0:0:0:
234,79,156805,1,8,0:0:0:0:
234,79,156909,2,0,L|179:90,1,55.9999982910157,2|0,0:0|3:2,0:0:0:0:
378,33,157117,1,0,3:2:0:0:
378,33,157221,2,0,L|323:21,1,55.9999982910157,10|0,0:0|0:0,0:0:0:0:
451,174,157430,1,2,3:2:0:0:
451,174,157534,1,0,3:2:0:0:
451,174,157638,2,0,P|476:163|490:140,1,55.9999982910157,8|0,0:0|3:2,0:0:0:0:
191,110,157846,5,8,2:2:0:0:
126,87,157950,1,8,2:2:0:0:
74,129,158054,1,8,0:0:0:0:
80,196,158158,1,8,0:0:0:0:
139,226,158263,2,0,P|152:229|167:238,1,20,4|0,3:2|0:0,0:0:0:0:
272,86,158471,5,8,0:0:0:0:
311,30,158575,1,8,0:0:0:0:
378,33,158679,1,8,0:0:0:0:
413,91,158783,1,8,0:0:0:0:
382,150,158888,2,0,P|369:154|355:164,1,20,4|0,3:2|0:0,0:0:0:0:
249,274,159096,5,8,0:0:0:0:
319,244,159200,1,8,0:0:0:0:
271,278,159305,1,8,0:0:0:0:
300,269,159409,1,8,0:0:0:0:
301,297,159513,6,0,L|290:276,1,24,4|0,3:2|0:0,0:0:0:0:
191,110,159930,6,0,P|76:123|164:221,1,280.000002670288,8|0,3:2|0:0,0:0:0:0:
272,86,160242,2,0,P|373:30|357:161,1,280.000002670288,8|0,3:2|0:0,0:0:0:0:
228,272,160555,6,0,P|267:272|299:295,1,80,8|0,3:2|0:0,0:0:0:0:
333,229,160763,2,0,P|304:256|298:295,1,80,8|0,3:2|0:0,0:0:0:0:
255,182,160971,5,0,3:2:0:0:
255,182,161075,1,0,3:2:0:0:
255,182,161180,1,8,0:0:0:0:
512,268,161596,6,0,L|378:296,1,136.000002593994,6|0,3:2|1:2,0:0:0:0:
378,296,161909,1,2,1:2:0:0:
378,296,162013,1,8,0:0:0:0:
473,163,162221,1,2,1:2:0:0:
323,384,162430,2,0,P|280:333|214:324,1,136.000002593994,2|0,3:2|1:2,0:0:0:0:
214,324,162742,1,2,1:2:0:0:
214,324,162846,1,8,0:0:0:0:
24,226,163055,1,2,1:2:0:0:
88,380,163263,6,0,L|119:231,1,136.000002593994,2|2,3:2|1:2,0:0:0:0:
135,167,163575,1,2,1:2:0:0:
135,167,163680,2,0,B|120:121|64:121|64:121|92:139|96:174,1,136.000002593994,8|2,0:0|1:2,0:0:0:0:
287,232,164096,2,0,B|325:152|411:164|411:164|440:195|476:198,1,204.000003890991,2|0,3:2|1:2,0:0:0:0:
483,267,164513,2,0,P|453:293|440:330,1,80,8|2,0:0|1:2,0:0:0:0:
438,85,164930,6,0,B|471:84|504:60|504:60|475:87|473:138,1,136.000002593994,2|0,3:2|1:2,0:0:0:0:
475,116,165242,1,2,1:2:0:0:
475,116,165346,1,8,0:0:0:0:
332,6,165555,1,2,1:2:0:0:
205,124,165763,2,0,P|271:108|345:94,1,136.000002593994,2|0,3:2|1:2,0:0:0:0:
337,95,166075,1,2,1:2:0:0:
337,95,166180,1,8,0:0:0:0:
287,232,166388,1,2,1:2:0:0:
29,136,166596,5,2,3:2:0:0:
51,66,166735,5,0,0:0:0:0:
126,54,166874,5,0,0:0:0:0:
205,124,167013,5,8,0:0:0:0:
163,95,167152,5,0,0:0:0:0:
115,113,167291,5,0,0:0:0:0:
67,205,167430,5,2,3:2:0:0:
69,172,167568,5,0,0:0:0:0:
102,160,167707,5,0,0:0:0:0:
177,218,167846,6,0,P|169:247|162:288,1,60.0000022888184,10|2,0:1|1:2,0:0:0:0:
476,350,168263,6,0,B|486:330|518:309|518:309|374:339,1,204.000003890991,2|0,3:2|1:2,0:0:0:0:
290,365,168680,2,0,L|308:278,1,80,8|2,0:0|1:2,0:0:0:0:
411,96,169096,2,0,P|503:88|464:159,1,204.000003890991,2|0,3:2|1:2,0:0:0:0:
388,181,169513,2,0,P|352:164|302:158,1,80,8|2,0:0|1:2,0:0:0:0:
162,163,169930,6,0,P|193:140|224:100,1,80,2|0,3:2|1:2,0:0:0:0:
151,30,170242,1,2,1:2:0:0:
151,30,170346,2,0,P|119:52|88:92,1,80,8|2,0:0|1:2,0:0:0:0:
63,199,170763,6,0,L|58:175,1,20,2|0,3:2|0:0,0:0:0:0:
70,295,170971,2,0,L|49:281,1,20,2|0,1:2|1:2,0:0:0:0:
142,357,171180,2,0,L|118:361,1,20,10|0,0:0|0:0,0:0:0:0:
236,349,171388,2,0,L|222:369,1,20,2|0,1:2|0:0,0:0:0:0:
358,231,171596,2,0,L|329:364,1,136.000002593994,2|0,3:2|1:2,0:0:0:0:
336,371,171909,1,2,1:2:0:0:
336,371,172013,2,0,L|375:362,1,40,8|0,0:0|0:0,0:0:0:0:
263,255,172221,1,2,1:2:0:0:
467,201,172430,2,0,B|449:153|396:161|396:161|423:175|427:202,1,120.000004577637,2|0,3:2|1:2,0:0:0:0:
418,180,172742,1,2,1:2:0:0:
418,180,172846,1,8,0:0:0:0:
491,39,173055,5,2,1:2:0:0:
491,39,173159,1,8,0:0:0:0:
491,39,173263,2,0,L|372:57,1,120.000004577637,2|0,3:2|1:2,0:0:0:0:
291,122,173575,1,0,3:2:0:0:
291,122,173680,2,0,L|236:110,1,40,8|0,0:0|0:0,0:0:0:0:
63,83,173888,1,2,3:2:0:0:
51,80,173992,1,8,0:0:0:0:
39,77,174096,5,2,3:2:0:0:
90,17,174200,1,8,0:0:0:0:
168,40,174305,1,10,0:0:0:0:
169,119,174409,1,8,0:0:0:0:
103,158,174513,1,10,0:0:0:0:
87,164,174617,1,8,3:0:0:0:
79,177,174721,1,6,3:0:0:0:
82,191,174825,1,12,3:0:0:0:
94,198,174930,6,0,P|65:179|32:171,1,68.0000012969971,14|0,3:2|0:0,0:0:0:0:
105,304,175138,1,0,3:2:0:0:
117,310,175242,1,2,3:2:0:0:
132,311,175346,2,0,P|162:295|185:271,1,68.0000012969971,8|0,0:0|0:0,0:0:0:0:
280,124,175555,1,2,3:2:0:0:
265,118,175659,1,0,3:2:0:0:
251,113,175763,2,0,L|269:199,1,68.0000012969971,10|0,0:0|0:0,0:0:0:0:
311,299,175971,5,0,3:2:0:0:
332,320,176075,1,2,3:2:0:0:
369,323,176180,1,8,0:0:0:0:
398,303,176284,1,0,3:2:0:0:
402,267,176388,2,0,P|369:261|335:252,1,68.0000012969971,2|0,3:2|3:2,0:0:0:0:
361,156,176596,6,0,P|394:162|428:171,1,68.0000012969971,10|0,0:0|0:0,0:0:0:0:
497,26,176805,1,0,3:2:0:0:
497,26,176909,2,0,P|466:44|434:84,1,68.0000012969971,2|8,3:2|0:0,0:0:0:0:
365,160,177117,1,0,0:0:0:0:
365,160,177221,2,0,P|342:135|313:119,1,68.0000012969971,2|0,3:2|3:2,0:0:0:0:
72,108,177430,5,10,0:0:0:0:
26,63,177534,1,0,0:0:0:0:
48,3,177638,1,0,3:2:0:0:
113,0,177742,1,0,3:2:0:0:
141,57,177847,1,8,0:0:0:0:
160,75,177950,1,0,3:2:0:0:
187,71,178055,1,2,3:2:0:0:
199,53,178159,1,0,3:2:0:0:
187,36,178263,6,0,P|160:57|144:86,1,68.0000012969971,10|0,0:0|0:0,0:0:0:0:
163,269,178471,1,0,3:2:0:0:
181,267,178575,1,2,3:2:0:0:
193,258,178680,2,0,P|188:224|171:195,1,68.0000012969971,8|0,0:0|0:0,0:0:0:0:
8,122,178888,1,2,3:2:0:0:
0,138,178992,1,0,3:2:0:0:
2,153,179097,2,0,P|33:165|67:165,1,68.0000012969971,10|0,0:0|0:0,0:0:0:0:
255,119,179305,5,0,3:2:0:0:
271,77,179409,1,2,3:2:0:0:
311,57,179513,1,8,0:0:0:0:
357,65,179617,1,0,3:2:0:0:
386,99,179721,2,0,L|371:165,1,68.0000012969971,2|0,3:2|3:2,0:0:0:0:
383,384,179930,6,0,L|449:369,1,68.0000012969971,10|0,3:2|0:0,0:0:0:0:
259,272,180138,1,0,3:2:0:0:
259,272,180242,2,0,L|192:257,1,68.0000012969971,2|8,3:2|3:2,0:0:0:0:
446,211,180450,1,0,3:2:0:0:
446,211,180555,2,0,L|512:196,1,68.0000012969971,2|0,3:2|0:0,0:0:0:0:
389,294,180763,1,10,3:2:0:0:
389,294,180867,1,0,3:2:0:0:
389,294,180971,2,0,P|365:269|351:239,1,68.0000012969971,0|0,3:0|0:0,0:0:0:0:
404,78,181180,5,10,0:0:0:0:
376,7,181284,1,8,2:2:0:0:
302,11,181388,1,10,2:2:0:0:
282,84,181492,1,8,2:2:0:0:
345,124,181596,6,0,L|326:57,1,68.0000012969971,14|0,0:0|0:0,0:0:0:0:
143,18,181805,1,0,3:2:0:0:
159,8,181909,1,0,3:2:0:0:
175,0,182013,2,0,L|193:86,1,68.0000012969971,8|0,0:0|0:0,0:0:0:0:
78,224,182221,1,2,3:2:0:0:
59,226,182325,1,0,3:2:0:0:
41,227,182429,2,0,L|59:140,1,68.0000012969971,10|0,0:0|0:0,0:0:0:0:
173,235,182638,5,0,3:2:0:0:
169,274,182742,1,0,3:2:0:0:
135,301,182846,1,8,0:0:0:0:
181,276,182950,1,0,3:2:0:0:
238,282,183055,1,2,3:2:0:0:
291,309,183159,1,0,3:2:0:0:
311,363,183263,6,0,P|329:334|358:317,1,68.0000012969971,10|0,0:0|0:0,0:0:0:0:
477,256,183471,1,0,3:2:0:0:
477,256,183575,2,0,P|441:248|410:241,1,68.0000012969971,2|8,3:2|0:0,0:0:0:0:
426,152,183784,1,0,0:0:0:0:
426,152,183888,2,0,P|462:160|492:166,1,68.0000012969971,2|0,3:2|3:2,0:0:0:0:
359,50,184096,5,10,0:0:0:0:
291,11,184200,1,8,0:0:0:0:
214,34,184305,1,8,0:0:0:0:
200,113,184409,1,8,0:0:0:0:
250,172,184513,1,8,0:0:0:0:
262,169,184617,1,8,3:0:0:0:
274,166,184721,1,4,3:0:0:0:
413,343,184930,6,0,B|349:344|334:278|365:233|365:233|381:265|433:269,1,204.000003890991,10|0,0:0|0:0,0:0:0:0:
479,300,185346,2,0,L|278:264,1,204.000003890991,10|0,0:0|0:0,0:0:0:0:
142,301,185763,6,0,B|244:269|247:107|106:143|135:219,2,264.000008056641,10|10|10,3:2|0:0|0:0,0:0:0:0:
409,154,187638,5,2,3:2:0:0:
409,154,187742,1,2,3:2:0:0:
409,154,187846,2,0,L|432:149,1,24,10|0,0:0|0:0,0:0:0:0:
471,56,188263,6,0,L|330:85,1,143.999995605469,6|8,3:2|0:0,0:0:0:0:
249,93,188575,1,2,0:0:0:0:
249,93,188680,2,0,L|257:53,1,40,0|0,3:2|3:2,0:0:0:0:
182,0,188888,2,0,L|174:40,1,40,10|0,0:0|0:0,0:0:0:0:
90,175,189096,2,0,B|54:165|20:192|20:192|53:164|50:127,1,143.999995605469,2|8,3:2|0:0,0:0:0:0:
73,59,189409,1,2,0:0:0:0:
73,59,189513,2,0,P|91:65|107:77,1,40,0|0,3:2|3:2,0:0:0:0:
210,174,189721,2,0,P|191:180|175:192,1,40,10|0,0:0|0:0,0:0:0:0:
28,363,189930,5,2,3:2:0:0:
19,293,190069,5,2,0:0:0:0:
77,256,190207,5,2,0:0:0:0:
202,278,190346,5,2,3:2:0:0:
146,319,190485,5,2,0:0:0:0:
85,288,190623,5,2,0:0:0:0:
90,175,190763,6,0,P|109:179|127:188,1,40,2|0,3:2|0:0,0:0:0:0:
287,283,190971,2,0,L|278:243,1,40,8|0,0:0|0:0,0:0:0:0:
372,139,191180,1,0,3:2:0:0:
372,139,191284,1,0,3:2:0:0:
372,139,191388,2,0,L|363:178,1,40,8|0,0:0|0:0,0:0:0:0:
413,354,191596,6,0,L|442:213,1,143.999995605469,2|8,3:2|0:0,0:0:0:0:
496,130,191909,1,2,0:0:0:0:
496,130,192013,2,0,L|456:138,1,40,0|0,3:2|3:2,0:0:0:0:
419,60,192221,2,0,L|458:51,1,40,10|0,0:0|0:0,0:0:0:0:
275,149,192430,2,0,B|246:115|193:113|193:113|177:138|147:142|146:143,1,143.999995605469,2|8,3:2|0:0,0:0:0:0:
127,69,192742,1,2,0:0:0:0:
127,69,192846,2,0,L|118:29,1,40,0|0,3:2|3:2,0:0:0:0:
30,22,193055,2,0,L|38:61,1,40,10|0,0:0|0:0,0:0:0:0:
46,204,193263,5,2,3:2:0:0:
79,137,193402,5,2,0:0:0:0:
151,141,193541,5,2,0:0:0:0:
105,242,193680,6,0,P|74:230|50:228,2,53.3333333333333,2|2|2,3:2|0:0|0:0,0:0:0:0:
311,346,194096,5,10,0:0:0:0:
371,287,194200,1,8,0:0:0:0:
333,212,194304,1,8,0:0:0:0:
250,225,194409,1,8,0:0:0:0:
237,308,194513,1,8,0:0:0:0:
248,303,194617,1,8,3:0:0:0:
259,298,194721,1,4,3:0:0:0:
381,159,195346,6,0,B|459:127|453:-3|349:-37|267:4|215:60|238:131|285:154|291:146|270:230|168:287|50:245|47:97|139:51|139:51|96:79|79:111|105:163,1,810.000030899049,6|0,3:2|0:0,0:0:0:0:
167,126,198263,6,0,L|182:125,7,11.9999996337891,0|0|0|0|0|0|0|0,1:0|1:0|1:0|1:0|1:0|1:0|1:0|1:0,0:0:0:0:
127,116,199096,6,0,L|220:136,1,95.9999970703126,0|0,1:1|2:1,2:2:0:0:
