osu file format v14

[General]
AudioFilename: audio.ogg
AudioLeadIn: 0
PreviewTime: 159877
Countdown: 0
SampleSet: Soft
StackLeniency: 0.7
Mode: 0
LetterboxInBreaks: 0
WidescreenStoryboard: 1

[Editor]
Bookmarks: 971,4930,11596,18263,24930,31596,38263,41180,41596,54930,64930,68263,74930,79930,81596,88263,94930,101596,104513,104930,118263,128263,131596,144930,151596,158263,161180,161596,174930,184930,188263,194930,195346,199930
DistanceSpacing: 1.3
BeatDivisor: 4
GridSize: 16
TimelineZoom: 1.500002

[Metadata]
Title:"Kimirashiku" Sore dake de Ii yo (feat. Matsushita)
TitleUnicode:「君らしく」それだけでいいよ (feat. 松下)
Artist:Aintops
ArtistUnicode:Aintops
Creator:pnky
Version:Normal
Source:
Tags:lasse gazimal Japanese Rock J-rock Jrock 往古来今 female vocals vocalist 吉田省吾
BeatmapID:4064229
BeatmapSetID:1956399

[Difficulty]
HPDrainRate:4
CircleSize:3.4
OverallDifficulty:5
ApproachRate:5
SliderMultiplier:1.2
SliderTickRate:1

[Events]
//Background and Video events
0,0,"aoku.jpg",0,0
//Break Periods
2,11796,15396
2,75130,79930
//Storyboard Layer 0 (Background)
//Storyboard Layer 1 (Fail)
//Storyboard Layer 2 (Pass)
//Storyboard Layer 3 (Foreground)
//Storyboard Layer 4 (Overlay)
//Storyboard Sound Samples

[TimingPoints]
-70,416.666666666667,4,2,1,65,1,0
4930,-90.9090909090909,4,2,1,75,0,0
11596,-100,4,2,1,50,0,0
16596,-100,4,2,1,60,0,0
18263,-90.9090909090909,4,2,1,65,0,0
24930,-100,4,2,1,55,0,0
31596,-90.9090909090909,4,2,1,65,0,0
38263,-90.9090909090909,4,2,1,75,0,0
41596,-100,4,2,1,65,0,0
54930,-90.9090909090909,4,2,1,80,0,1
64930,-100,4,2,1,65,0,0
68263,-90.9090909090909,4,2,1,75,0,0
74930,-100,4,2,1,50,0,0
79930,-100,4,2,1,35,0,0
81180,-100,4,2,1,60,0,0
81596,-90.9090909090909,4,2,1,65,0,0
88263,-100,4,2,1,55,0,0
94930,-90.9090909090909,4,2,1,65,0,0
101596,-90.9090909090909,4,2,1,75,0,0
104930,-100,4,2,1,65,0,0
118263,-90.9090909090909,4,2,1,80,0,1
128263,-100,4,2,1,65,0,0
131596,-90.9090909090909,4,2,1,75,0,0
144930,-100,4,2,1,55,0,0
151596,-90.9090909090909,4,2,1,65,0,0
158263,-90.9090909090909,4,2,1,75,0,0
161596,-100,4,2,1,65,0,0
174930,-90.9090909090909,4,2,1,80,0,1
184930,-100,4,2,1,65,0,0
188263,-90.9090909090909,4,2,1,75,0,0
194825,-90.9090909090909,4,2,1,55,0,0
195346,-90.9090909090909,4,2,1,75,0,0
199930,-90.9090909090909,4,2,1,30,0,0

[Colours]
Combo1 : 250,180,240
Combo2 : 120,200,230
Combo3 : 255,230,130
Combo4 : 160,230,150

[HitObjects]
178,46,1596,5,10,0:0:0:0:
282,162,2013,1,10,0:0:0:0:
415,81,2430,2,0,B|453:57|453:57|502:65,2,90,2|2|10,3:2|3:2|0:0,0:0:0:0:
415,81,4305,2,0,L|428:153,1,60,2|10,3:2|0:0,0:0:0:0:
337,287,4930,6,0,B|269:264|271:312|187:284,1,132.00000402832,6|0,3:2|3:2,0:0:0:0:
135,253,5555,1,10,0:0:0:0:
135,253,5763,2,0,P|94:205|96:116,1,132.00000402832,2|0,3:2|3:2,0:0:0:0:
245,69,6596,2,0,P|291:22|374:30,1,132.00000402832,2|2,3:2|3:2,0:0:0:0:
431,68,7221,1,8,0:0:0:0:
431,68,7430,2,0,P|426:100|412:130,1,66.0000020141602,2|8,3:2|0:0,0:0:0:0:
340,177,7846,1,0,3:2:0:0:
259,328,8263,6,0,B|200:360|200:360|131:343,1,132.00000402832,2|0,3:2|3:2,0:0:0:0:
68,302,8888,1,10,0:0:0:0:
68,302,9096,2,0,L|42:167,1,132.00000402832,2|0,3:2|3:2,0:0:0:0:
202,238,9930,2,0,L|273:222,1,66.0000020141602,2|8,3:2|0:0,0:0:0:0:
300,144,10346,2,0,L|284:72,1,66.0000020141602,2|8,3:2|0:0,0:0:0:0:
332,7,10763,1,10,0:0:0:0:
463,117,11180,1,8,0:0:0:0:
382,250,11596,1,4,3:2:0:0:
384,269,16596,6,0,P|380:207|424:168,2,120,10|8|10,3:2|3:2|3:2,0:0:0:0:
261,366,17846,2,0,L|190:378,1,60,8|8,0:0|0:0,0:0:0:0:
127,332,18263,6,0,P|105:264|137:212,1,132.00000402832,0|2,3:2|3:2,0:0:0:0:
218,225,18888,1,10,0:0:0:0:
275,162,19096,2,0,L|255:26,1,132.00000402832,2|0,3:2|3:2,0:0:0:0:
419,85,19930,2,0,L|397:226,1,132.00000402832,0|2,3:2|3:2,0:0:0:0:
458,276,20555,1,10,0:0:0:0:
418,351,20763,2,0,P|370:312|296:319,1,132.00000402832,2|0,3:2|3:2,0:0:0:0:
139,261,21596,5,0,3:2:0:0:
171,181,21805,2,0,L|250:166,2,66.0000020141602,10|2|10,0:0|3:2|0:0,0:0:0:0:
85,190,22430,2,0,P|49:152|60:67,1,132.00000402832,2|0,3:2|3:2,0:0:0:0:
120,22,23055,1,10,0:0:0:0:
197,59,23263,2,0,L|334:65,2,132.00000402832,2|2|2,3:2|3:2|3:2,0:0:0:0:
327,170,24513,2,0,L|407:155,1,66.0000020141602,10|10,2:1|0:0,0:0:0:0:
450,209,24930,6,0,B|477:217|477:217|505:241|497:280,1,90,6|0,3:2|3:2,0:0:0:0:
423,362,25555,1,2,3:2:0:0:
423,362,25763,1,10,1:2:0:0:
224,249,26388,1,2,1:2:0:0:
224,249,26596,2,0,B|185:274|185:274|128:265,2,90,2|2|2,3:2|3:2|3:2,0:0:0:0:
284,199,27430,1,10,1:2:0:0:
284,199,28263,6,0,L|391:184,1,90,2|0,3:2|3:2,0:0:0:0:
467,116,28888,1,2,3:2:0:0:
467,116,29096,1,10,1:2:0:0:
264,9,29721,1,2,1:2:0:0:
264,9,29930,2,0,B|234:17|219:38|219:38|172:28,2,90,2|2|2,3:2|3:2|3:2,0:0:0:0:
284,84,30763,2,0,P|255:147|271:201,1,120,8|10,0:0|0:0,0:0:0:0:
235,335,31596,6,0,P|201:320|182:290,1,66.0000020141602,0|10,3:2|0:0,0:0:0:0:
106,260,32013,2,0,P|98:309|13:320,1,132.00000402832,2|0,3:2|3:2,0:0:0:0:
21,242,32638,1,10,0:0:0:0:
21,156,32846,2,0,P|52:142|94:143,1,66.0000020141602,2|10,3:2|0:0,0:0:0:0:
250,182,33471,1,10,0:0:0:0:
308,118,33680,2,0,B|360:104|397:148|453:130,1,132.00000402832,2|0,3:2|3:2,0:0:0:0:
509,190,34305,1,10,0:0:0:0:
509,190,34513,1,2,3:2:0:0:
359,274,34930,6,0,B|372:287|372:287|384:317|374:338,1,66.0000020141602,0|10,3:2|0:0,0:0:0:0:
299,372,35346,2,0,L|232:359,1,66.0000020141602,2|10,3:2|0:0,0:0:0:0:
177,294,35763,2,0,P|125:333|40:324,1,132.00000402832,2|0,3:2|3:2,0:0:0:0:
172,203,36596,2,0,L|139:63,1,132.00000402832,2|0,3:2|3:2,0:0:0:0:
199,10,37221,1,10,0:0:0:0:
272,54,37430,2,0,L|293:133,1,66.0000020141602,2|8,3:2|0:0,0:0:0:0:
371,141,37846,1,8,2:2:0:0:
494,280,38263,6,0,P|429:287|382:341,1,132.00000402832,4|8,3:2|0:0,0:0:0:0:
309,374,38888,2,0,P|282:314|216:286,1,132.00000402832,4|8,3:2|0:0,0:0:0:0:
162,227,39513,1,4,3:2:0:0:
162,227,39930,2,0,P|210:183|218:134,2,99.0000030212403,8|8|8,3:2|3:2|3:2,0:0:0:0:
85,188,40763,1,8,3:2:0:0:
346,18,41596,6,0,L|475:4,1,120,6|8,3:2|0:0,0:0:0:0:
503,73,42221,1,2,1:2:0:0:
489,150,42430,2,0,L|369:162,1,120,2|8,3:2|0:0,0:0:0:0:
248,261,43263,2,0,L|109:247,1,120,2|8,3:2|0:0,0:0:0:0:
82,192,43888,1,2,1:2:0:0:
82,192,44096,1,2,3:2:0:0:
211,105,44513,2,0,P|211:69|198:40,1,60,8|2,0:0|1:2,0:0:0:0:
129,18,44930,6,0,P|96:70|28:75,1,120,2|8,3:2|0:0,0:0:0:0:
10,151,45555,1,2,1:2:0:0:
68,202,45763,2,0,P|101:254|169:259,1,120,2|8,3:2|0:0,0:0:0:0:
267,154,46596,2,0,P|305:122|378:119,2,120,2|8|2,3:2|0:0|3:2,0:0:0:0:
363,276,47846,2,0,P|398:262|422:259,1,60,10|2,2:1|1:2,0:0:0:0:
488,296,48263,6,0,B|466:242|511:241|479:177,1,120,2|8,3:2|0:0,0:0:0:0:
506,108,48888,1,2,1:2:0:0:
506,108,49096,1,2,3:2:0:0:
368,34,49513,2,0,P|341:54|310:56,1,60,8|2,0:0|1:2,0:0:0:0:
248,16,49930,2,0,B|190:9|190:9|134:48,1,120,2|8,3:2|0:0,0:0:0:0:
83,98,50555,1,2,1:2:0:0:
83,98,50763,1,2,3:2:0:0:
219,173,51180,2,0,P|216:204|194:237,1,60,10|2,0:0|1:2,0:0:0:0:
221,304,51596,6,0,L|348:273,1,120,2|8,3:2|0:0,0:0:0:0:
386,336,52221,1,2,1:2:0:0:
444,283,52430,2,0,L|415:157,1,120,2|8,3:2|0:0,0:0:0:0:
471,110,53055,1,2,1:2:0:0:
471,110,53263,1,2,3:2:0:0:
344,18,53680,1,8,0:0:0:0:
284,68,53888,1,2,3:2:0:0:
216,29,54096,2,0,P|156:27|98:59,1,120,2|10,3:2|0:0,0:0:0:0:
1,192,54930,6,0,P|51:193|116:247,1,132.00000402832,6|0,3:2|3:2,0:0:0:0:
96,329,55555,1,10,0:0:0:0:
96,329,55763,1,2,3:2:0:0:
262,369,56180,2,0,P|298:366|344:341,1,66.0000020141602,0|10,3:2|0:0,0:0:0:0:
371,282,56596,2,0,B|387:252|387:252|343:150,1,132.00000402832,2|0,3:2|3:2,0:0:0:0:
310,90,57221,1,10,0:0:0:0:
310,90,57430,1,2,3:2:0:0:
462,12,57846,2,0,P|484:47|482:82,1,66.0000020141602,0|10,3:2|0:0,0:0:0:0:
433,140,58263,6,0,L|413:278,1,132.00000402832,2|0,3:2|3:2,0:0:0:0:
403,359,58888,1,10,0:0:0:0:
403,359,59096,1,2,3:2:0:0:
265,256,59513,2,0,B|232:252|232:252|189:285,1,66.0000020141602,0|10,3:2|0:0,0:0:0:0:
145,333,59930,6,0,L|7:315,1,132.00000402832,2|0,3:2|3:2,0:0:0:0:
48,237,60555,1,10,0:0:0:0:
4,162,60763,2,0,P|-4:127|8:92,1,66.0000020141602,2|8,3:2|0:0,0:0:0:0:
87,78,61180,1,8,0:0:0:0:
245,12,61596,6,0,B|330:22|292:68|373:78,1,132.00000402832,6|0,3:2|3:2,0:0:0:0:
419,134,62221,1,10,0:0:0:0:
343,174,62430,2,0,P|300:229|324:307,1,132.00000402832,2|0,3:2|3:2,0:0:0:0:
471,339,63263,2,0,L|482:274,1,66.0000020141602,2|8,3:2|0:0,0:0:0:0:
451,193,63680,1,0,3:2:0:0:
498,121,63888,1,10,0:0:0:0:
431,66,64096,2,0,B|362:78|386:123|307:128,1,132.00000402832,10|8,0:0|0:0,0:0:0:0:
177,58,64930,5,10,0:0:0:0:
70,171,65346,1,10,0:0:0:0:
166,295,65763,2,0,B|206:271|206:271|253:277,2,90,10|10|10,3:2|0:0|0:0,0:0:0:0:
166,295,67638,2,0,L|154:222,1,60,2|10,3:2|0:0,0:0:0:0:
280,116,68263,6,0,P|275:167|343:205,1,132.00000402832,6|0,3:2|3:2,0:0:0:0:
332,291,68888,1,10,0:0:0:0:
417,291,69096,2,0,P|443:241|519:216,1,132.00000402832,2|0,3:2|3:2,0:0:0:0:
337,205,69930,2,0,P|308:148|320:74,1,132.00000402832,2|2,3:2|3:2,0:0:0:0:
391,39,70555,1,8,0:0:0:0:
391,39,70763,2,0,P|427:42|468:62,1,66.0000020141602,2|8,3:2|0:0,0:0:0:0:
462,138,71180,1,0,3:2:0:0:
314,224,71596,6,0,B|271:196|271:196|185:218,1,132.00000402832,2|0,3:2|3:2,0:0:0:0:
128,159,72221,1,10,0:0:0:0:
61,213,72430,2,0,P|17:173|31:100,1,132.00000402832,2|0,3:2|3:2,0:0:0:0:
181,33,73263,2,0,P|217:29|259:11,1,66.0000020141602,2|8,3:2|0:0,0:0:0:0:
315,68,73680,2,0,P|316:104|337:145,1,66.0000020141602,2|8,3:2|0:0,0:0:0:0:
281,203,74096,1,10,0:0:0:0:
384,340,74513,1,8,0:0:0:0:
510,248,74930,1,4,3:2:0:0:
475,221,81596,6,0,P|413:264|353:261,1,132.00000402832,0|2,3:2|3:2,0:0:0:0:
385,180,82221,1,10,0:0:0:0:
313,131,82430,2,0,P|375:88|435:91,1,132.00000402832,2|0,3:2|3:2,0:0:0:0:
276,10,83263,2,0,P|214:53|154:50,1,132.00000402832,0|2,3:2|3:2,0:0:0:0:
124,130,83888,1,10,0:0:0:0:
43,100,84096,2,0,P|-5:80|38:14,1,132.00000402832,2|0,3:2|3:2,0:0:0:0:
137,147,84930,5,0,3:2:0:0:
137,147,85138,2,0,L|216:128,2,66.0000020141602,10|2|10,0:0|3:2|0:0,0:0:0:0:
72,204,85763,2,0,P|48:256|103:303,1,132.00000402832,2|0,3:2|3:2,0:0:0:0:
168,257,86388,1,10,0:0:0:0:
232,312,86596,2,0,B|298:290|298:350|362:328,2,132.00000402832,2|2|2,3:2|3:2|3:2,0:0:0:0:
111,189,87846,2,0,B|85:211|85:211|48:203,1,66.0000020141602,10|10,2:1|0:0,0:0:0:0:
12,137,88263,6,0,L|-1:40,1,90,6|0,3:2|3:2,0:0:0:0:
113,10,88888,1,2,3:2:0:0:
113,10,89096,1,10,1:2:0:0:
219,224,89721,1,2,1:2:0:0:
219,224,89930,2,0,L|130:235,2,90,2|2|2,3:2|3:2|3:2,0:0:0:0:
268,284,90763,1,10,1:2:0:0:
423,13,91596,6,0,L|512:2,1,90,2|0,3:2|3:2,0:0:0:0:
487,119,92221,1,2,3:2:0:0:
487,119,92430,1,10,1:2:0:0:
391,334,93055,1,2,1:2:0:0:
391,334,93263,2,0,P|345:310|306:314,2,90,2|2|2,3:2|3:2|3:2,0:0:0:0:
428,265,94096,2,0,P|400:202|421:155,1,120,8|10,0:0|0:0,0:0:0:0:
286,47,94930,6,0,P|260:75|208:82,1,66.0000020141602,0|10,3:2|0:0,0:0:0:0:
150,68,95346,2,0,P|106:30|14:45,1,132.00000402832,2|0,3:2|3:2,0:0:0:0:
13,117,95971,1,10,0:0:0:0:
89,156,96180,2,0,P|115:190|118:232,1,66.0000020141602,2|10,3:2|0:0,0:0:0:0:
219,351,96805,1,10,0:0:0:0:
276,287,97013,2,0,P|319:253|413:266,1,132.00000402832,2|0,3:2|3:2,0:0:0:0:
462,314,97638,1,10,0:0:0:0:
462,314,97846,1,2,3:2:0:0:
494,145,98263,6,0,P|487:112|472:83,1,66.0000020141602,0|10,3:2|0:0,0:0:0:0:
387,98,98680,2,0,P|381:130|384:162,1,66.0000020141602,2|10,3:2|0:0,0:0:0:0:
318,217,99096,2,0,P|277:176|260:98,1,132.00000402832,2|0,3:2|3:2,0:0:0:0:
113,14,99930,2,0,P|72:55|55:133,1,132.00000402832,2|0,3:2|3:2,0:0:0:0:
113,187,100555,1,10,0:0:0:0:
168,251,100763,2,0,P|180:283|179:317,1,66.0000020141602,2|8,3:2|0:0,0:0:0:0:
106,359,101180,1,8,2:2:0:0:
113,187,101596,6,0,L|91:38,1,132.00000402832,4|8,3:2|0:0,0:0:0:0:
174,26,102221,2,0,L|193:156,1,132.00000402832,4|8,3:2|0:0,0:0:0:0:
281,176,102846,1,4,3:2:0:0:
281,176,103263,2,0,L|264:61,2,99.0000030212403,8|8|8,3:2|3:2|3:2,0:0:0:0:
364,196,104096,1,8,3:2:0:0:
98,361,104930,6,0,L|66:237,1,120,6|8,3:2|0:0,0:0:0:0:
120,187,105555,1,2,1:2:0:0:
192,215,105763,2,0,L|221:331,1,120,2|8,3:2|0:0,0:0:0:0:
370,378,106596,2,0,P|406:328|472:329,1,120,2|8,3:2|0:0,0:0:0:0:
500,258,107221,1,2,1:2:0:0:
500,258,107430,1,2,3:2:0:0:
373,166,107846,2,0,P|359:129|358:98,1,60,8|2,0:0|1:2,0:0:0:0:
313,44,108263,6,0,B|255:36|254:81|190:69,1,120,2|8,3:2|0:0,0:0:0:0:
145,12,108888,1,2,1:2:0:0:
79,53,109096,2,0,L|107:173,1,120,2|8,3:2|0:0,0:0:0:0:
231,263,109930,2,0,B|288:245|288:245|341:277,2,120,2|8|2,3:2|0:0|3:2,0:0:0:0:
104,354,111180,2,0,P|73:368|41:367,1,60,10|2,2:1|1:2,0:0:0:0:
24,293,111596,6,0,L|40:161,1,120,2|8,3:2|0:0,0:0:0:0:
114,146,112221,1,2,1:2:0:0:
114,146,112430,1,2,3:2:0:0:
229,41,112846,2,0,L|239:105,1,60,8|2,0:0|1:2,0:0:0:0:
304,141,113263,2,0,B|379:123|360:164|438:146,1,120,2|8,3:2|0:0,0:0:0:0:
477,94,113888,1,2,1:2:0:0:
477,94,114096,1,2,3:2:0:0:
350,2,114513,2,0,L|286:12,1,60,10|2,0:0|1:2,0:0:0:0:
235,67,114930,6,0,B|196:60|196:60|154:73|154:73|113:63,1,120,2|8,3:2|0:0,0:0:0:0:
65,7,115555,1,2,1:2:0:0:
4,55,115763,2,0,B|-6:109|37:111|19:177,1,120,2|8,3:2|0:0,0:0:0:0:
96,206,116388,1,2,1:2:0:0:
96,206,116596,1,2,3:2:0:0:
28,346,117013,1,8,0:0:0:0:
101,373,117221,1,2,3:2:0:0:
167,332,117430,2,0,P|226:309|300:302,1,120,2|10,3:2|0:0,0:0:0:0:
438,372,118263,6,0,B|447:295|488:324|490:242,1,132.00000402832,6|0,3:2|3:2,0:0:0:0:
426,202,118888,1,10,0:0:0:0:
426,202,119096,1,2,3:2:0:0:
480,39,119513,2,0,P|442:39|408:26,1,66.0000020141602,0|10,3:2|0:0,0:0:0:0:
346,80,119930,2,0,P|274:128|208:124,1,132.00000402832,2|0,3:2|3:2,0:0:0:0:
163,84,120555,1,10,0:0:0:0:
163,84,120763,1,2,3:2:0:0:
14,170,121180,2,0,P|21:217|41:237,1,66.0000020141602,0|10,3:2|0:0,0:0:0:0:
104,276,121596,6,0,B|173:264|173:264|209:258|222:218,1,132.00000402832,2|0,3:2|3:2,0:0:0:0:
166,164,122221,1,10,0:0:0:0:
166,164,122430,1,2,3:2:0:0:
293,49,122846,2,0,B|321:65|321:65|359:62,1,66.0000020141602,0|10,3:2|0:0,0:0:0:0:
427,16,123263,2,0,P|476:36|463:106,1,132.00000402832,2|0,3:2|3:2,0:0:0:0:
403,164,123888,1,10,0:0:0:0:
455,231,124096,2,0,L|466:302,1,66.0000020141602,2|8,3:2|0:0,0:0:0:0:
440,378,124513,1,8,0:0:0:0:
284,305,124930,6,0,B|211:313|236:360|153:363,1,132.00000402832,6|0,3:2|3:2,0:0:0:0:
160,276,125555,1,10,0:0:0:0:
74,286,125763,2,0,P|33:229|37:167,1,132.00000402832,2|0,3:2|3:2,0:0:0:0:
184,84,126596,2,0,P|220:101|260:103,1,66.0000020141602,2|8,3:2|0:0,0:0:0:0:
311,48,127013,1,0,3:2:0:0:
392,75,127221,1,10,0:0:0:0:
411,158,127430,2,0,P|392:217|375:300,1,132.00000402832,10|8,0:0|0:0,0:0:0:0:
269,172,128263,5,10,0:0:0:0:
175,296,128680,1,10,0:0:0:0:
36,225,129096,2,0,B|45:181|45:181|41:157|41:157|50:118,2,90,10|10|10,3:2|0:0|0:0,0:0:0:0:
36,225,130971,2,0,B|31:257|31:257|50:287,1,60,2|10,3:2|0:0,0:0:0:0:
198,359,131596,6,0,B|251:318|251:318|337:330,1,132.00000402832,6|0,3:2|3:2,0:0:0:0:
304,241,132221,1,10,0:0:0:0:
385,212,132430,2,0,B|438:253|438:253|524:241,1,132.00000402832,0|0,3:2|3:2,0:0:0:0:
419,93,133263,2,0,P|361:75|277:81,1,132.00000402832,2|0,3:2|3:2,0:0:0:0:
220,127,133888,1,10,0:0:0:0:
194,45,134096,2,0,P|128:48|65:29,1,132.00000402832,0|0,3:2|3:2,0:0:0:0:
12,193,134930,6,0,B|-2:261|72:252|54:344,1,132.00000402832,2|0,3:2|3:2,0:0:0:0:
130,366,135555,1,10,0:0:0:0:
130,366,135763,1,0,3:2:0:0:
249,242,136180,2,0,P|253:211|265:176,1,66.0000020141602,2|8,3:2|0:0,0:0:0:0:
205,116,136596,2,0,P|156:79|183:15,1,132.00000402832,2|0,3:2|3:2,0:0:0:0:
344,52,137430,2,0,P|375:42|415:37,1,66.0000020141602,8|8,0:0|0:0,0:0:0:0:
477,87,137846,2,0,P|487:118|492:158,1,66.0000020141602,8|8,0:0|0:0,0:0:0:0:
408,173,138263,6,0,P|367:223|384:288,1,132.00000402832,6|0,3:2|3:2,0:0:0:0:
390,369,138888,1,10,0:0:0:0:
474,355,139096,2,0,P|515:305|498:240,1,132.00000402832,0|0,3:2|3:2,0:0:0:0:
405,100,139930,2,0,B|338:112|357:158|285:170,1,132.00000402832,2|0,3:2|3:2,0:0:0:0:
222,122,140555,1,10,0:0:0:0:
149,167,140763,2,0,B|87:157|106:111|39:99,1,132.00000402832,0|0,3:2|3:2,0:0:0:0:
72,267,141596,6,0,P|97:317|177:326,1,132.00000402832,2|0,3:2|3:2,0:0:0:0:
220,264,142221,1,10,0:0:0:0:
220,264,142430,1,2,3:2:0:0:
372,341,142846,2,0,B|401:357|401:357|443:348,1,66.0000020141602,0|10,3:2|0:0,0:0:0:0:
487,283,143263,2,0,L|456:152,1,132.00000402832,2|0,3:2|3:2,0:0:0:0:
305,72,144096,2,0,P|287:107|284:141,1,66.0000020141602,8|10,0:0|0:0,0:0:0:0:
220,191,144513,2,0,P|198:157|170:138,1,66.0000020141602,10|6,0:0|3:0,0:0:0:0:
101,160,144930,6,0,P|98:227|118:265,1,90,6|0,3:2|3:2,0:0:0:0:
209,312,145555,1,2,3:2:0:0:
209,312,145763,1,10,1:2:0:0:
393,167,146388,1,2,1:2:0:0:
393,167,146596,2,0,B|432:143|432:143|493:153,2,90,2|2|2,3:2|3:2|3:2,0:0:0:0:
326,125,147430,1,10,1:2:0:0:
38,246,148263,6,0,L|20:157,1,90,2|0,3:2|3:2,0:0:0:0:
77,56,148888,1,2,3:2:0:0:
77,56,149096,1,10,1:2:0:0:
276,188,149721,1,2,1:2:0:0:
276,188,149930,2,0,L|293:276,2,90,2|2|2,3:2|3:2|3:2,0:0:0:0:
334,136,150763,2,0,P|380:170|457:151,1,120,8|10,0:0|0:0,0:0:0:0:
331,30,151596,6,0,P|294:37|262:60,1,66.0000020141602,0|10,3:2|0:0,0:0:0:0:
195,94,152013,2,0,L|55:82,1,132.00000402832,2|0,3:2|3:2,0:0:0:0:
7,148,152638,1,10,0:0:0:0:
66,209,152846,2,0,L|134:165,1,66.0000020141602,2|10,3:2|0:0,0:0:0:0:
233,303,153471,1,10,0:0:0:0:
303,351,153680,2,0,P|368:346|418:291,1,132.00000402832,2|0,3:2|3:2,0:0:0:0:
437,221,154305,1,10,0:0:0:0:
437,221,154513,1,2,3:2:0:0:
277,156,154930,6,0,P|245:180|205:182,1,66.0000020141602,0|10,3:2|0:0,0:0:0:0:
147,137,155346,2,0,P|142:97|160:61,1,66.0000020141602,2|10,3:2|0:0,0:0:0:0:
220,22,155763,2,0,B|285:27|275:76|339:87,1,132.00000402832,2|0,3:2|3:2,0:0:0:0:
210,206,156596,2,0,B|145:211|155:260|91:271,1,132.00000402832,2|0,3:2|3:2,0:0:0:0:
43,336,157221,1,10,0:0:0:0:
121,371,157430,2,0,P|184:347|262:341,1,132.00000402832,2|8,3:2|2:2,0:0:0:0:
294,175,158263,6,0,P|357:199|435:205,1,132.00000402832,4|8,3:2|0:0,0:0:0:0:
465,131,158888,2,0,P|422:78|357:34,1,132.00000402832,4|8,3:2|0:0,0:0:0:0:
290,65,159513,1,4,3:2:0:0:
290,65,159930,2,0,B|249:93|249:93|194:84,2,99.0000030212403,8|8|8,3:2|3:2|3:2,0:0:0:0:
371,41,160763,2,0,P|411:65|406:163,1,132.00000402832,8|8,3:2|0:0,0:0:0:0:
308,253,161596,6,0,P|244:232|188:239,1,120,6|8,3:2|0:0,0:0:0:0:
135,184,162221,1,2,1:2:0:0:
185,124,162430,2,0,P|249:145|305:138,1,120,2|8,3:2|0:0,0:0:0:0:
435,62,163263,2,0,P|480:100|505:154,1,120,2|8,3:2|0:0,0:0:0:0:
473,227,163888,1,2,1:2:0:0:
473,227,164096,1,2,3:2:0:0:
388,358,164513,2,0,P|354:348|326:349,1,60,8|2,0:0|1:2,0:0:0:0:
259,314,164930,6,0,P|215:358|144:354,1,120,2|8,3:2|0:0,0:0:0:0:
94,318,165555,1,2,1:2:0:0:
107,241,165763,2,0,P|151:197|222:201,1,120,2|8,3:2|0:0,0:0:0:0:
238,41,166596,2,0,P|282:85|353:81,2,120,2|8|2,3:2|0:0|3:2,0:0:0:0:
84,10,167846,2,0,P|66:38|61:75,1,60,10|2,0:1|1:2,0:0:0:0:
122,111,168263,6,0,B|143:148|143:148|118:181|120:222,1,120,2|8,3:2|0:0,0:0:0:0:
79,288,168888,1,2,1:2:0:0:
79,288,169096,1,2,3:2:0:0:
219,356,169513,2,0,L|283:341,1,60,8|2,0:0|1:2,0:0:0:0:
317,274,169930,2,0,B|372:295|372:295|396:239,1,120,2|8,3:2|0:0,0:0:0:0:
476,225,170555,1,2,1:2:0:0:
476,225,170763,1,2,3:2:0:0:
396,90,171180,2,0,L|334:104,1,60,10|2,0:0|1:2,0:0:0:0:
277,53,171596,6,0,B|234:37|206:112|145:91,1,120,2|8,3:2|0:0,0:0:0:0:
110,146,172221,1,2,1:2:0:0:
165,201,172430,2,0,P|225:221|236:275,1,120,2|8,3:2|0:0,0:0:0:0:
173,314,173055,1,2,1:2:0:0:
173,314,173263,1,2,3:2:0:0:
43,226,173680,1,8,0:0:0:0:
3,159,173888,1,2,3:2:0:0:
55,101,174096,2,0,B|96:79|96:79|135:109|135:109|176:112,1,120,2|10,3:2|0:0,0:0:0:0:
299,11,174930,6,0,P|375:46|375:104,1,132.00000402832,14|8,3:2|0:0,0:0:0:0:
305,128,175555,1,2,3:2:0:0:
276,208,175763,2,0,P|296:267|357:283,1,132.00000402832,10|8,0:0|0:0,0:0:0:0:
196,339,176596,2,0,B|172:373|146:372|68:351,1,132.00000402832,10|8,0:0|0:0,0:0:0:0:
20,292,177221,1,2,3:2:0:0:
20,292,177430,1,10,0:0:0:0:
132,163,177846,2,0,L|116:91,1,66.0000020141602,8|2,0:0|3:2,0:0:0:0:
168,29,178263,6,0,P|212:15|251:91,1,132.00000402832,10|8,0:0|0:0,0:0:0:0:
219,154,178888,1,2,3:2:0:0:
295,193,179096,2,0,L|439:168,1,132.00000402832,10|8,0:0|0:0,0:0:0:0:
512,22,179930,6,0,L|368:-3,1,132.00000402832,10|8,0:0|0:0,0:0:0:0:
311,49,180555,1,2,3:2:0:0:
227,29,180763,2,0,L|154:13,1,66.0000020141602,10|0,0:0|3:2,0:0:0:0:
91,63,181180,1,8,0:0:0:0:
10,214,181596,6,0,B|74:228|54:264|131:282,1,132.00000402832,14|8,0:0|0:0,0:0:0:0:
178,214,182221,1,2,3:2:0:0:
254,254,182430,2,0,P|320:225|392:225,1,132.00000402832,10|8,0:0|0:0,0:0:0:0:
442,63,183263,2,0,P|410:85|358:77,1,66.0000020141602,10|0,0:0|3:2,0:0:0:0:
324,24,183680,1,8,0:0:0:0:
244,55,183888,1,2,3:2:0:0:
253,140,184096,2,0,P|268:213|276:277,1,132.00000402832,10|8,0:0|0:0,0:0:0:0:
134,337,184930,5,10,0:0:0:0:
33,217,185346,1,10,0:0:0:0:
126,91,185763,2,0,P|138:49|149:-5,2,90,10|10|10,3:2|0:0|0:0,0:0:0:0:
126,91,187638,2,0,P|135:127|141:157,1,60,2|10,3:2|0:0,0:0:0:0:
257,274,188263,6,0,B|317:240|317:240|389:250,1,132.00000402832,6|0,3:2|3:2,0:0:0:0:
446,194,188888,1,10,0:0:0:0:
400,121,189096,2,0,P|350:158|281:144,1,132.00000402832,2|0,3:2|3:2,0:0:0:0:
147,42,189930,2,0,B|73:54|103:101|25:113,1,132.00000402832,2|2,3:2|3:2,0:0:0:0:
66,196,190555,1,8,0:0:0:0:
66,196,190763,2,0,P|96:208|137:205,1,66.0000020141602,2|8,3:2|0:0,0:0:0:0:
161,127,191180,1,0,3:2:0:0:
303,32,191596,6,0,P|365:6|454:11,1,132.00000402832,2|0,3:2|3:2,0:0:0:0:
455,91,192221,1,10,0:0:0:0:
455,91,192430,2,0,P|393:117|304:112,1,132.00000402832,2|0,3:2|3:2,0:0:0:0:
193,223,193263,2,0,P|172:254|172:290,1,66.0000020141602,2|8,3:2|0:0,0:0:0:0:
249,314,193680,2,0,P|270:283|270:247,1,66.0000020141602,2|8,3:2|0:0,0:0:0:0:
262,170,194096,1,10,0:0:0:0:
412,86,194513,1,8,0:0:0:0:
78,7,195346,5,6,3:2:0:0:
256,192,195450,12,0,199930,0:0:0:0:
