osu file format v14

[General]
AudioFilename: audio.ogg
AudioLeadIn: 0
PreviewTime: 159877
Countdown: 0
SampleSet: Soft
StackLeniency: 0.7
Mode: 0
LetterboxInBreaks: 0
WidescreenStoryboard: 1

[Editor]
Bookmarks: 971,4930,11596,18263,24930,31596,38263,41180,41596,54930,64930,68263,74930,79930,81596,88263,94930,101596,104513,104930,118263,128263,131596,144930,151596,158263,161180,161596,174930,184930,188263,194930,195346,199930
DistanceSpacing: 1.3
BeatDivisor: 4
GridSize: 16
TimelineZoom: 2.400002

[Metadata]
Title:"Kimirashiku" Sore dake de Ii yo (feat. Matsushita)
TitleUnicode:「君らしく」それだけでいいよ (feat. 松下)
Artist:Aintops
ArtistUnicode:Aintops
Creator:pnky
Version:Hard
Source:
Tags:lasse gazimal Japanese Rock J-rock Jrock 往古来今 female vocals vocalist 吉田省吾
BeatmapID:4057701
BeatmapSetID:1956399

[Difficulty]
HPDrainRate:5
CircleSize:3.8
OverallDifficulty:6
ApproachRate:8
SliderMultiplier:1.42
SliderTickRate:1

[Events]
//Background and Video events
0,0,"aoku.jpg",0,0
//Break Periods
2,68462,74180
//Storyboard Layer 0 (Background)
//Storyboard Layer 1 (Fail)
//Storyboard Layer 2 (Pass)
//Storyboard Layer 3 (Foreground)
//Storyboard Layer 4 (Overlay)
//Storyboard Sound Samples

[TimingPoints]
-70,416.666666666667,4,2,1,65,1,0
4930,-80,4,2,1,75,0,0
11596,-133.333333333333,4,2,1,50,0,0
16596,-111.111111111111,4,2,1,60,0,0
18263,-90.9090909090908,4,2,1,65,0,0
24930,-100,4,2,1,55,0,0
31596,-90.9090909090909,4,2,1,65,0,0
38263,-90.9090909090909,4,2,1,75,0,0
41596,-100,4,2,1,65,0,0
54930,-76.9230769230769,4,2,1,80,0,1
64930,-100,4,2,1,65,0,0
68263,-100,4,2,1,75,0,0
74930,-133.333333333333,4,2,1,50,0,0
79930,-133.333333333333,4,2,1,35,0,0
81180,-133.333333333333,4,2,1,60,0,0
81596,-90.9090909090909,4,2,1,65,0,0
88263,-100,4,2,1,55,0,0
94930,-90.9090909090909,4,2,1,65,0,0
101596,-90.9090909090909,4,2,1,75,0,0
104930,-100,4,2,1,65,0,0
118263,-76.9230769230769,4,2,1,80,0,1
128263,-100,4,2,1,65,0,0
131596,-80,4,2,1,75,0,0
144930,-100,4,2,1,55,0,0
151596,-90.9090909090909,4,2,1,65,0,0
158263,-90.9090909090909,4,2,1,75,0,0
161596,-100,4,2,1,65,0,0
174930,-76.9230769230769,4,2,1,80,0,1
184930,-100,4,2,1,65,0,0
188263,-80,4,2,1,75,0,0
194825,-80,4,2,1,55,0,0
195346,-125,4,2,1,75,0,0
199930,-125,4,2,1,30,0,0

[Colours]
Combo1 : 250,180,240
Combo2 : 120,200,230
Combo3 : 255,230,130
Combo4 : 160,230,150

[HitObjects]
112,99,971,6,0,L|103:55,2,35.5,0|0|8,3:2|3:2|0:0,0:0:0:0:
13,238,1596,2,0,B|92:213|86:266|158:244,1,142,10|10,0:0|0:0,0:0:0:0:
250,106,2430,1,2,3:2:0:0:
325,209,2742,1,2,3:2:0:0:
446,168,3055,1,10,0:0:0:0:
454,175,4305,5,2,3:2:0:0:
454,175,4409,1,2,3:2:0:0:
454,175,4513,2,0,L|471:259,1,71,10|2,0:0|0:0,0:0:0:0:
380,308,4930,6,0,B|340:285|340:285|285:297,1,88.75,6|8,3:2|0:0,0:0:0:0:
261,256,5242,2,0,B|221:279|221:279|166:267,1,88.75,2|0,0:0|3:2,0:0:0:0:
147,312,5555,1,10,0:0:0:0:
43,288,5763,2,0,P|14:236|24:198,1,88.75,2|8,3:2|0:0,0:0:0:0:
67,188,6075,2,0,P|96:136|86:98,1,88.75,2|0,0:0|3:2,0:0:0:0:
47,78,6388,1,10,0:0:0:0:
144,16,6596,6,0,L|347:-4,2,177.5,2|2|2,3:2|3:2|3:2,0:0:0:0:
220,105,7638,1,8,0:0:0:0:
219,104,7742,1,0,0:0:0:0:
219,104,7846,2,0,L|311:94,1,88.75,0|8,3:2|0:0,0:0:0:0:
408,61,8263,6,0,P|370:106|397:171,1,133.125,2|2,3:2|0:0,0:0:0:0:
447,176,8680,2,0,L|462:263,1,88.75,0|10,3:2|0:0,0:0:0:0:
370,318,9096,2,0,B|300:303|318:389|233:358,1,133.125,2|2,3:2|0:0,0:0:0:0:
224,318,9513,2,0,P|224:272|208:230,1,88.75,0|10,3:2|0:0,0:0:0:0:
112,187,9930,6,0,P|74:273|82:373,1,177.5,2|2,3:2|3:2,0:0:0:0:
303,346,10763,1,10,0:0:0:0:
303,346,10867,1,8,0:0:0:0:
303,346,10971,1,8,0:0:0:0:
303,346,11075,1,8,0:0:0:0:
303,346,11180,2,0,P|318:370|330:388,2,44.375,8|8|4,0:0|3:0|3:0,0:0:0:0:
368,291,11596,6,0,P|376:230|387:186,1,106.500004062653,4|2,3:2|3:2,0:0:0:0:
329,122,12221,1,2,1:2:0:0:
252,159,12430,2,0,P|241:204|235:250,2,79.8750030469895,2|2|0,3:2|0:0|1:2,0:0:0:0:
202,89,13263,6,0,P|145:131|96:124,1,106.500004062653,0|2,3:2|3:2,0:0:0:0:
69,55,13888,1,2,1:2:0:0:
3,109,14096,2,0,L|20:206,1,79.8750030469895,2|2,3:2|0:0,0:0:0:0:
133,241,14721,1,0,1:2:0:0:
91,315,14930,2,0,B|52:310|52:310|16:343,2,79.8750030469895,2|2|0,3:2|0:0|1:2,0:0:0:0:
167,352,15763,2,0,L|240:336,1,53.2500020313264,2|2,3:2|1:2,0:0:0:0:
259,323,16075,1,2,0:0:0:0:
259,323,16180,2,0,L|302:331,3,26.6250010156632,8|8|0|0,2:2|2:2|3:2|0:0,0:0:0:0:
325,359,16596,6,0,P|336:305|384:284,1,95.8499970748902,10|0,3:2|0:0,0:0:0:0:
394,241,17013,2,0,P|380:201|379:171,1,63.8999980499268,8|0,3:2|0:0,0:0:0:0:
442,107,17430,1,10,3:2:0:0:
256,58,17846,2,0,L|268:93,3,31.9499990249634,8|8|8|8,0:0|0:0|0:0|0:0,0:0:0:0:
255,142,18263,6,0,P|225:172|221:226,1,78.1000023834229,0|10,3:2|2:2,0:0:0:0:
110,232,18680,2,0,P|97:208|81:190,2,39.0500011917115,2|0|10,3:2|3:2|0:0,0:0:0:0:
147,334,19096,2,0,L|246:310,1,78.1000023834229,2|10,3:2|0:0,0:0:0:0:
263,277,19409,2,0,P|300:296|360:292,1,78.1000023834229,2|0,0:0|3:2,0:0:0:0:
374,337,19721,1,8,0:0:0:0:
462,274,19930,6,0,P|459:232|426:182,1,78.1000023834229,0|10,3:2|0:0,0:0:0:0:
347,174,20346,1,2,3:2:0:0:
347,174,20555,1,10,0:0:0:0:
245,132,20763,2,0,L|260:52,1,78.1000023834229,2|8,3:2|0:0,0:0:0:0:
223,14,21075,2,0,L|143:-1,1,78.1000023834229,2|0,0:0|3:2,0:0:0:0:
112,42,21388,1,8,0:0:0:0:
38,122,21596,5,0,3:2:0:0:
38,122,21805,1,10,0:0:0:0:
121,191,22013,2,0,P|141:233|140:281,1,78.1000023834229,2|10,3:2|0:0,0:0:0:0:
210,350,22430,2,0,P|231:308|270:280,1,78.1000023834229,2|8,3:2|0:0,0:0:0:0:
309,312,22742,1,2,0:0:0:0:
309,312,22846,2,0,P|332:324|362:325,2,39.0500011917115,0|0|10,3:2|3:2|0:0,0:0:0:0:
252,208,23263,6,0,L|238:107,1,78.1000023834229,2|8,3:2|0:0,0:0:0:0:
156,60,23680,2,0,L|108:78,2,39.0500011917115,2|0|8,3:2|3:2|0:0,0:0:0:0:
258,13,24096,1,2,3:2:0:0:
258,13,24200,1,2,3:2:0:0:
258,13,24305,2,0,L|297:24,1,39.0500011917115,10|2,0:0|0:0,0:0:0:0:
331,64,24513,2,0,B|359:59|359:59|381:41|381:41|414:36,1,78.1000023834229,10|10,2:1|0:0,0:0:0:0:
487,89,24930,6,0,L|507:216,1,106.5,6|0,3:2|3:2,0:0:0:0:
366,162,25555,1,2,3:2:0:0:
366,162,25659,1,0,3:2:0:0:
366,162,25763,2,0,L|386:289,1,106.5,10|0,1:2|1:2,0:0:0:0:
255,345,26388,1,2,1:2:0:0:
162,308,26596,2,0,P|147:251|155:218,1,71,2|0,3:2|0:0,0:0:0:0:
186,207,26909,2,0,B|229:240|229:240|287:231,1,106.5,2|2,3:2|3:2,0:0:0:0:
344,155,27430,2,0,B|344:105|306:107|307:38,2,106.5,10|0|0,1:2|1:2|1:2,0:0:0:0:
240,132,28263,6,0,P|186:103|122:115,1,106.5,2|0,3:2|3:2,0:0:0:0:
32,205,28888,1,2,3:2:0:0:
32,205,28992,1,0,3:2:0:0:
32,205,29096,2,0,L|53:319,1,106.5,10|0,1:2|1:2,0:0:0:0:
188,367,29721,1,2,1:2:0:0:
269,308,29930,2,0,P|306:289|343:287,1,71,2|2,3:2|0:0,0:0:0:0:
368,322,30242,2,0,B|415:348|415:348|473:337,1,106.5,2|2,3:2|3:2,0:0:0:0:
506,246,30763,2,0,L|496:173,1,71,8|2,0:0|3:2,0:0:0:0:
416,143,31180,1,10,0:0:0:0:
416,143,31284,1,8,0:0:0:0:
416,143,31388,1,8,0:0:0:0:
416,143,31492,1,8,0:0:0:0:
416,143,31596,6,0,B|383:163|383:163|341:156,1,78.1000023834229,0|10,3:2|0:0,0:0:0:0:
248,209,32013,2,0,P|234:167|239:126,1,78.1000023834229,2|10,3:2|2:2,0:0:0:0:
258,83,32325,2,0,P|224:115|138:128,1,117.150003575134,2|10,0:0|0:0,0:0:0:0:
62,74,32846,1,2,3:2:0:0:
62,74,33055,1,10,0:0:0:0:
11,171,33263,6,0,L|32:254,1,78.1000023834229,0|10,3:2|0:0,0:0:0:0:
129,293,33680,2,0,L|141:244,2,39.0500011917115,2|0|10,3:2|3:2|0:0,0:0:0:0:
165,333,33992,2,0,P|216:332|262:387,1,117.150003575134,2|10,0:0|0:0,0:0:0:0:
354,318,34513,1,2,3:2:0:0:
354,318,34721,1,10,0:0:0:0:
450,370,34930,6,0,P|462:318|479:283,1,78.1000023834229,0|10,3:2|0:0,0:0:0:0:
417,201,35346,1,2,3:2:0:0:
417,201,35555,1,10,0:0:0:0:
307,200,35763,2,0,P|295:252|278:287,1,78.1000023834229,2|8,3:2|0:0,0:0:0:0:
237,296,36075,1,2,0:0:0:0:
237,296,36180,2,0,P|215:289|195:286,2,39.0500011917115,0|0|10,3:2|3:2|0:0,0:0:0:0:
195,195,36596,6,0,P|157:205|123:236,1,78.1000023834229,2|8,3:2|0:0,0:0:0:0:
74,216,36909,2,0,P|49:186|39:148,1,78.1000023834229,2|0,0:0|3:2,0:0:0:0:
77,109,37221,1,10,0:0:0:0:
163,41,37430,2,0,L|172:-5,2,39.0500011917115,2|0|8,3:2|3:2|0:0,0:0:0:0:
268,116,37846,1,8,2:2:0:0:
268,116,37950,1,8,2:2:0:0:
268,116,38055,1,8,0:0:0:0:
268,116,38159,1,8,0:0:0:0:
268,116,38263,5,4,3:2:0:0:
360,57,38471,2,0,L|399:52,3,39.0500011917115,8|8|8|8,0:0|0:0|0:0|0:0,0:0:0:0:
442,85,38888,1,4,3:2:0:0:
486,184,39096,2,0,L|447:179,3,39.0500011917115,8|8|8|8,0:0|0:0|0:0|0:0,0:0:0:0:
404,212,39513,2,0,P|373:284|336:283,1,117.150003575134,4|0,3:2|0:0,0:0:0:0:
308,243,39930,5,8,3:2:0:0:
202,117,40242,1,8,3:2:0:0:
47,172,40555,1,8,3:2:0:0:
118,254,40763,2,0,B|146:248|171:220|171:220|138:257|138:307,1,156.200004766846,8|0,3:2|0:0,0:0:0:0:
138,303,41596,6,0,P|191:313|250:282,1,106.5,6|2,3:2|1:2,0:0:0:0:
262,249,42013,2,0,P|248:201|244:167,1,71,8|2,0:0|1:2,0:0:0:0:
284,88,42430,2,0,P|332:74|366:70,1,71,2|0,3:2|1:2,0:0:0:0:
383,116,42742,1,2,1:2:0:0:
383,116,42846,2,0,P|417:122|451:132,1,71,8|2,0:0|1:2,0:0:0:0:
493,230,43263,6,0,P|461:258|462:291,1,71,2|2,3:2|1:2,0:0:0:0:
419,313,43575,2,0,P|371:354|311:348,1,106.5,2|2,0:0|1:2,0:0:0:0:
264,279,44096,1,2,3:2:0:0:
179,326,44305,1,0,1:2:0:0:
179,326,44409,1,0,1:2:0:0:
179,326,44513,2,0,P|137:313|91:313,1,71,8|2,0:0|1:2,0:0:0:0:
32,238,44930,6,0,P|-6:170|9:131,1,106.5,2|2,3:2|0:0,0:0:0:0:
42,120,45346,2,0,P|85:143|101:177,1,71,8|2,0:0|1:2,0:0:0:0:
189,196,45763,2,0,P|187:147|208:116,1,71,2|0,3:2|1:2,0:0:0:0:
248,117,46075,1,2,1:2:0:0:
248,117,46180,2,0,P|283:150|290:187,1,71,8|2,0:0|1:2,0:0:0:0:
379,227,46596,6,0,P|386:165|422:132,2,106.5,2|2|2,3:2|0:0|1:2,0:0:0:0:
289,170,47430,2,0,P|289:128|271:93,1,71,2|0,3:2|1:2,0:0:0:0:
239,78,47742,1,0,1:2:0:0:
239,78,47846,2,0,P|171:118|109:121,1,142,10|2,2:1|3:2,0:0:0:0:
27,173,48471,5,0,1:2:0:0:
27,173,48575,1,0,0:0:0:0:
27,173,48680,2,0,P|56:207|62:238,1,71,8|2,0:0|1:2,0:0:0:0:
148,280,49096,2,0,P|119:314|113:345,1,71,2|0,3:2|1:2,0:0:0:0:
146,379,49409,1,0,1:2:0:0:
146,379,49513,2,0,P|190:375|216:357,1,71,8|2,0:0|1:2,0:0:0:0:
287,285,49930,6,0,L|262:168,1,106.5,2|2,3:2|0:0,0:0:0:0:
219,160,50346,2,0,L|202:84,1,71,8|2,0:0|1:2,0:0:0:0:
277,23,50763,1,2,3:2:0:0:
372,53,50971,1,2,1:2:0:0:
393,150,51180,1,10,0:0:0:0:
319,217,51388,1,2,1:2:0:0:
340,321,51596,6,0,P|393:352|455:343,1,106.5,2|2,3:2|0:0,0:0:0:0:
474,317,52013,2,0,P|474:269|463:241,1,71,8|2,0:0|1:2,0:0:0:0:
377,202,52430,2,0,P|377:154|388:126,1,71,2|0,3:2|1:2,0:0:0:0:
425,103,52742,1,2,1:2:0:0:
425,103,52846,1,8,0:0:0:0:
345,42,53055,1,2,1:2:0:0:
273,120,53263,6,0,P|220:149|145:144,1,106.5,2|2,3:2|3:2,0:0:0:0:
144,112,53680,2,0,B|112:94|112:94|75:103,1,71,8|2,0:0|3:2,0:0:0:0:
31,194,54096,1,2,3:2:0:0:
31,194,54200,1,8,0:0:0:0:
31,194,54305,1,10,0:0:0:0:
31,194,54409,1,8,0:0:0:0:
31,194,54513,2,0,L|44:239,3,35.5,10|8|6|12,0:0|3:0|3:0|3:0,0:0:0:0:
91,269,54930,6,0,P|136:239|185:238,1,92.2999957748415,6|8,3:2|0:0,0:0:0:0:
224,266,55242,2,0,B|246:309|215:317|242:372,1,92.2999957748415,2|0,0:0|3:2,0:0:0:0:
295,359,55555,1,10,0:0:0:0:
372,267,55763,1,2,3:2:0:0:
496,302,55971,1,8,0:0:0:0:
496,302,56075,1,2,0:0:0:0:
496,302,56180,2,0,P|479:249|472:202,1,92.2999957748415,0|10,3:2|0:0,0:0:0:0:
468,83,56596,6,0,B|430:109|430:109|371:101,1,92.2999957748415,2|8,3:2|0:0,0:0:0:0:
342,146,56909,2,0,B|304:120|304:120|245:128,1,92.2999957748415,2|0,0:0|3:2,0:0:0:0:
222,174,57221,1,10,0:0:0:0:
104,146,57430,2,0,P|86:96|59:64,2,92.2999957748415,2|8|0,3:2|0:0|3:2,0:0:0:0:
71,197,57950,1,0,3:2:0:0:
71,197,58055,1,10,0:0:0:0:
138,307,58263,6,0,P|192:300|230:261,1,92.2999957748415,2|8,3:2|0:0,0:0:0:0:
240,220,58575,2,0,B|255:172|255:172|258:220,1,92.2999957748415,2|0,0:0|3:2,0:0:0:0:
304,252,58888,1,10,0:0:0:0:
380,344,59096,1,2,3:2:0:0:
491,291,59305,1,8,0:0:0:0:
491,291,59409,1,2,0:0:0:0:
491,291,59513,2,0,L|475:194,1,92.2999957748415,0|10,3:2|0:0,0:0:0:0:
447,73,59930,6,0,P|409:114|355:120,1,92.2999957748415,2|8,3:2|0:0,0:0:0:0:
324,154,60242,2,0,P|283:133|238:137,1,92.2999957748415,2|0,0:0|3:2,0:0:0:0:
208,190,60555,1,10,0:0:0:0:
112,117,60763,2,0,L|54:108,2,46.1499978874208,2|0|8,3:2|3:2|0:0,0:0:0:0:
53,222,61180,2,0,L|-5:213,3,46.1499978874208,8|8|10|8,0:0|0:0|0:0|2:2,0:0:0:0:
67,238,61596,6,0,B|72:270|72:270|99:295|99:295|107:328,2,92.2999957748415,6|8|0,3:2|0:0|3:2,0:0:0:0:
123,131,62221,1,10,0:0:0:0:
207,217,62430,2,0,B|247:190|247:190|308:196,1,92.2999957748415,2|8,3:2|0:0,0:0:0:0:
348,299,62846,2,0,P|338:320|335:343,2,46.1499978874208,0|0|10,3:2|3:2|0:0,0:0:0:0:
437,204,63263,6,0,L|416:105,1,92.2999957748415,2|8,3:2|0:0,0:0:0:0:
358,104,63575,2,0,L|377:194,1,92.2999957748415,2|0,0:0|3:2,0:0:0:0:
344,244,63888,1,10,0:0:0:0:
251,206,64096,1,10,0:0:0:0:
251,206,64200,1,8,0:0:0:0:
251,206,64305,1,8,0:0:0:0:
251,206,64409,1,8,0:0:0:0:
251,206,64513,2,0,B|213:232|213:232|160:226,1,92.2999957748415,8|4,0:0|3:0,0:0:0:0:
62,202,64930,6,0,P|45:255|116:311,1,142,10|10,0:0|0:0,0:0:0:0:
258,374,65763,1,10,3:2:0:0:
345,281,66075,1,10,0:0:0:0:
466,321,66388,1,10,0:0:0:0:
474,329,67638,5,2,3:2:0:0:
474,329,67742,1,2,3:2:0:0:
474,329,67846,2,0,B|461:247|511:279|493:189,1,142,10|6,0:0|3:2,0:0:0:0:
493,192,74930,6,0,P|437:180|376:179,1,106.500004062653,4|2,3:2|3:2,0:0:0:0:
322,233,75555,1,2,1:2:0:0:
254,181,75763,2,0,P|217:190|170:194,2,79.8750030469895,2|2|0,3:2|0:0|1:2,0:0:0:0:
255,90,76596,6,0,P|205:102|142:107,1,106.500004062653,0|2,3:2|3:2,0:0:0:0:
79,59,77221,1,2,1:2:0:0:
11,111,77430,2,0,P|13:153|48:181,1,79.8750030469895,2|2,3:2|0:0,0:0:0:0:
143,252,78055,1,0,1:2:0:0:
95,322,78263,2,0,L|14:349,2,79.8750030469895,2|2|0,3:2|0:0|1:2,0:0:0:0:
181,350,79096,6,0,L|235:356,1,53.2500020313264,2|2,3:2|1:2,0:0:0:0:
279,367,79409,1,2,0:0:0:0:
279,367,79513,1,8,2:2:0:0:
256,208,79930,2,0,L|256:88,2,106.500004062653,2|0|2,0:0|0:0|0:0,0:0:0:0:
354,82,81180,2,0,L|369:119,3,26.6250010156632,8|8|8|8,0:0|0:0|0:0|0:0,0:0:0:0:
389,150,81596,6,0,P|442:128|471:133,1,78.1000023834229,0|10,3:2|2:2,0:0:0:0:
462,239,82013,2,0,L|414:251,2,39.0500011917115,2|0|10,3:2|3:2|0:0,0:0:0:0:
512,336,82430,2,0,P|459:358|430:353,1,78.1000023834229,2|10,3:2|0:0,0:0:0:0:
392,328,82742,2,0,P|339:306|310:311,1,78.1000023834229,2|0,0:0|3:2,0:0:0:0:
271,335,83055,1,8,0:0:0:0:
168,296,83263,6,0,L|157:204,1,78.1000023834229,0|10,3:2|0:0,0:0:0:0:
247,152,83680,1,2,3:2:0:0:
247,152,83888,1,10,0:0:0:0:
173,71,84096,2,0,L|81:82,1,78.1000023834229,2|8,3:2|0:0,0:0:0:0:
55,117,84409,2,0,L|64:194,1,78.1000023834229,2|0,0:0|3:2,0:0:0:0:
18,224,84721,1,8,0:0:0:0:
80,321,84930,5,0,3:2:0:0:
80,321,85138,1,10,0:0:0:0:
165,260,85346,2,0,B|202:248|202:248|251:272,1,78.1000023834229,2|10,3:2|0:0,0:0:0:0:
309,347,85763,2,0,L|403:331,1,78.1000023834229,2|8,3:2|0:0,0:0:0:0:
441,354,86075,1,2,0:0:0:0:
441,354,86180,2,0,L|450:308,2,39.0500011917115,0|0|10,3:2|3:2|0:0,0:0:0:0:
389,249,86596,6,0,L|377:162,1,78.1000023834229,2|8,3:2|0:0,0:0:0:0:
460,98,87013,2,0,L|484:133,2,39.0500011917115,2|0|8,3:2|3:2|0:0,0:0:0:0:
363,70,87430,1,2,3:2:0:0:
363,70,87534,1,2,3:2:0:0:
363,70,87638,2,0,L|319:58,1,39.0500011917115,10|2,0:0|0:0,0:0:0:0:
279,90,87846,2,0,B|246:113|246:113|200:103,1,78.1000023834229,10|10,2:1|0:0,0:0:0:0:
113,75,88263,6,0,B|89:98|89:98|110:186,1,106.5,6|0,3:2|3:2,0:0:0:0:
258,212,88888,1,2,3:2:0:0:
258,212,88992,1,0,3:2:0:0:
258,212,89096,2,0,B|234:235|234:235|255:323,1,106.5,10|0,1:2|1:2,0:0:0:0:
121,380,89721,1,2,1:2:0:0:
32,334,89930,2,0,P|16:277|22:248,1,71,2|0,3:2|0:0,0:0:0:0:
52,230,90242,2,0,B|116:242|94:277|159:286,1,106.5,2|2,3:2|3:2,0:0:0:0:
178,189,90763,2,0,P|151:127|169:76,2,106.5,10|0|0,1:2|1:2|1:2,0:0:0:0:
253,263,91596,6,0,B|300:238|300:238|357:245,1,106.5,2|0,3:2|3:2,0:0:0:0:
363,99,92221,1,2,3:2:0:0:
363,99,92325,1,0,3:2:0:0:
363,99,92430,2,0,B|410:124|410:124|467:117,1,106.5,10|0,1:2|1:2,0:0:0:0:
504,261,93055,1,2,1:2:0:0:
443,339,93263,2,0,P|406:355|369:355,1,71,2|2,3:2|0:0,0:0:0:0:
333,330,93575,2,0,B|341:269|307:280|321:202,1,106.5,2|2,3:2|3:2,0:0:0:0:
264,141,94096,2,0,P|227:157|190:157,1,71,8|2,0:0|3:2,0:0:0:0:
156,81,94513,1,10,0:0:0:0:
156,81,94617,1,8,0:0:0:0:
156,81,94721,1,8,0:0:0:0:
156,81,94825,1,8,0:0:0:0:
156,81,94930,6,0,P|189:43|241:33,1,78.1000023834229,0|10,3:2|0:0,0:0:0:0:
312,80,95346,2,0,P|351:101|404:104,1,78.1000023834229,2|10,3:2|2:2,0:0:0:0:
438,111,95659,2,0,P|385:152|397:203,1,117.150003575134,2|10,0:0|0:0,0:0:0:0:
487,267,96180,1,2,3:2:0:0:
487,267,96388,1,10,0:0:0:0:
412,346,96596,6,0,P|371:334|321:329,1,78.1000023834229,0|10,3:2|0:0,0:0:0:0:
243,270,97013,2,0,P|237:251|232:227,2,39.0500011917115,2|0|10,3:2|3:2|0:0,0:0:0:0:
203,307,97325,2,0,P|112:359|86:348,1,117.150003575134,2|10,0:0|0:0,0:0:0:0:
30,298,97846,1,2,3:2:0:0:
30,298,98055,1,10,0:0:0:0:
115,229,98263,6,0,P|127:185|128:150,1,78.1000023834229,0|10,3:2|0:0,0:0:0:0:
54,79,98680,1,2,3:2:0:0:
54,79,98888,1,10,0:0:0:0:
142,14,99096,2,0,P|186:26|221:27,1,78.1000023834229,2|8,3:2|0:0,0:0:0:0:
255,74,99409,1,2,0:0:0:0:
255,74,99513,2,0,P|249:95|248:113,2,39.0500011917115,0|0|10,3:2|3:2|0:0,0:0:0:0:
352,24,99930,6,0,P|397:60|419:101,1,78.1000023834229,2|8,3:2|0:0,0:0:0:0:
395,129,100242,2,0,P|357:161|359:203,1,78.1000023834229,2|0,0:0|3:2,0:0:0:0:
400,216,100555,1,10,0:0:0:0:
459,307,100763,2,0,P|480:300|503:296,2,39.0500011917115,2|0|8,3:2|3:2|0:0,0:0:0:0:
369,356,101180,1,8,2:2:0:0:
369,356,101284,1,8,2:2:0:0:
369,356,101388,1,8,0:0:0:0:
369,356,101492,1,8,0:0:0:0:
369,356,101596,5,4,3:2:0:0:
265,319,101805,2,0,P|244:312|221:308,3,39.0500011917115,8|8|8|8,0:0|0:0|0:0|0:0,0:0:0:0:
178,332,102221,1,4,3:2:0:0:
69,349,102430,2,0,P|76:328|80:305,3,39.0500011917115,8|8|8|8,0:0|0:0|0:0|0:0,0:0:0:0:
56,261,102846,2,0,P|39:209|97:168,1,117.150003575134,4|0,3:2|0:0,0:0:0:0:
127,196,103263,5,8,3:2:0:0:
219,60,103575,1,8,3:2:0:0:
377,102,103888,1,8,3:2:0:0:
306,185,104096,2,0,B|325:271|366:232|383:321,1,156.200004766846,8|0,3:2|0:0,0:0:0:0:
382,316,104930,6,0,P|346:351|278:346,1,106.5,6|2,3:2|1:2,0:0:0:0:
256,317,105346,2,0,P|251:275|241:245,1,71,8|2,0:0|1:2,0:0:0:0:
144,268,105763,2,0,P|154:301|157:337,1,71,2|0,3:2|1:2,0:0:0:0:
121,370,106075,1,2,1:2:0:0:
121,370,106180,2,0,P|87:380|51:383,1,71,8|2,0:0|1:2,0:0:0:0:
38,277,106596,6,0,P|19:243|25:208,1,71,2|2,3:2|1:2,0:0:0:0:
55,174,106909,2,0,B|118:179|101:208|156:213,1,106.5,2|2,1:2|1:2,0:0:0:0:
235,158,107430,1,2,3:2:0:0:
199,75,107638,1,0,1:2:0:0:
199,75,107742,1,0,1:2:0:0:
199,75,107846,2,0,P|234:60|293:52,1,71,8|2,0:0|1:2,0:0:0:0:
360,103,108263,6,0,P|329:162|340:216,1,106.5,2|2,3:2|1:2,0:0:0:0:
376,224,108680,2,0,P|419:208|438:187,1,71,8|2,0:0|1:2,0:0:0:0:
470,283,109096,2,0,P|462:328|471:355,1,71,2|0,3:2|1:2,0:0:0:0:
428,378,109409,1,2,1:2:0:0:
428,378,109513,2,0,P|392:348|364:342,1,71,8|2,0:0|1:2,0:0:0:0:
275,292,109930,6,0,L|257:169,2,106.5,2|2|2,3:2|1:2|1:2,0:0:0:0:
184,334,110763,2,0,P|146:364|112:362,1,71,2|0,3:2|1:2,0:0:0:0:
85,344,111075,1,0,1:2:0:0:
85,344,111180,2,0,B|55:266|107:274|73:185,1,142,10|2,2:1|3:2,0:0:0:0:
14,144,111805,5,0,1:2:0:0:
14,144,111909,1,0,1:2:0:0:
14,144,112013,2,0,L|30:59,1,71,8|2,0:0|1:2,0:0:0:0:
106,14,112430,2,0,L|191:30,1,71,2|0,3:2|1:2,0:0:0:0:
211,68,112742,1,0,1:2:0:0:
211,68,112846,2,0,L|296:84,1,71,8|2,0:0|1:2,0:0:0:0:
322,179,113263,6,0,P|357:145|437:147,1,106.5,2|2,3:2|1:2,0:0:0:0:
449,171,113680,2,0,P|437:212|412:234,1,71,8|2,0:0|1:2,0:0:0:0:
344,298,114096,1,2,3:2:0:0:
254,254,114305,1,2,1:2:0:0:
168,303,114513,1,10,0:0:0:0:
78,259,114722,1,2,1:2:0:0:
44,158,114930,6,0,B|70:128|70:128|105:156|146:149,1,106.5,2|2,3:2|1:2,0:0:0:0:
167,116,115346,2,0,P|197:99|237:95,1,71,8|2,0:0|1:2,0:0:0:0:
305,162,115763,2,0,P|335:179|375:183,1,71,2|0,3:2|1:2,0:0:0:0:
420,167,116075,1,2,1:2:0:0:
420,167,116180,1,8,0:0:0:0:
468,80,116388,1,2,1:2:0:0:
380,19,116596,6,0,L|264:39,1,106.5,2|2,3:2|3:2,0:0:0:0:
234,66,117013,2,0,B|202:48|202:48|166:56,1,71,8|2,0:0|3:2,0:0:0:0:
100,125,117430,1,2,3:2:0:0:
100,125,117534,1,8,0:0:0:0:
100,125,117638,1,10,0:0:0:0:
100,125,117742,1,8,0:0:0:0:
100,125,117846,2,0,L|107:170,3,35.5,10|8|6|12,0:0|3:0|3:0|3:0,0:0:0:0:
165,185,118263,6,0,P|202:225|202:271,1,92.2999957748415,6|8,3:2|0:0,0:0:0:0:
167,307,118575,2,0,P|112:304|80:272,1,92.2999957748415,2|0,0:0|3:2,0:0:0:0:
57,227,118888,1,10,0:0:0:0:
107,118,119096,1,2,3:2:0:0:
38,31,119305,1,8,0:0:0:0:
38,31,119409,1,2,0:0:0:0:
38,31,119513,2,0,P|82:10|140:6,1,92.2999957748415,0|10,3:2|0:0,0:0:0:0:
229,81,119930,6,0,B|259:67|259:67|291:95|335:92,1,92.2999957748415,2|10,3:2|0:0,0:0:0:0:
354,134,120242,2,0,P|376:190|354:228,1,92.2999957748415,2|0,0:0|3:2,0:0:0:0:
315,251,120555,1,10,0:0:0:0:
207,303,120763,2,0,P|184:263|196:220,2,92.2999957748415,2|8|0,3:2|0:0|3:2,0:0:0:0:
184,361,121284,1,0,3:2:0:0:
184,361,121388,1,10,0:0:0:0:
311,378,121596,6,0,P|354:362|406:357,1,92.2999957748415,2|8,3:2|0:0,0:0:0:0:
440,311,121909,2,0,P|424:268|419:216,1,92.2999957748415,2|0,0:0|3:2,0:0:0:0:
370,187,122221,1,10,0:0:0:0:
331,72,122430,1,2,3:2:0:0:
235,141,122638,1,8,0:0:0:0:
235,141,122742,1,2,0:0:0:0:
235,141,122846,2,0,P|219:184|214:236,1,92.2999957748415,0|10,3:2|0:0,0:0:0:0:
133,331,123263,6,0,P|90:315|38:310,1,92.2999957748415,2|8,3:2|0:0,0:0:0:0:
10,260,123575,2,0,P|-8:198|4:162,1,92.2999957748415,2|0,0:0|3:2,0:0:0:0:
52,144,123888,1,10,0:0:0:0:
140,63,124096,2,0,L|133:14,2,46.1499978874208,2|0|8,3:2|3:2|0:0,0:0:0:0:
256,93,124513,2,0,L|249:44,3,46.1499978874208,8|8|10|8,0:0|0:0|0:0|2:2,0:0:0:0:
266,110,124930,6,0,B|248:145|248:145|264:196,2,92.2999957748415,6|8|0,3:2|0:0|3:2,0:0:0:0:
382,78,125555,1,10,0:0:0:0:
430,188,125763,2,0,B|448:223|448:223|432:274,1,92.2999957748415,2|8,3:2|0:0,0:0:0:0:
322,324,126180,2,0,L|330:376,2,46.1499978874208,0|0|10,3:2|3:2|0:0,0:0:0:0:
193,337,126596,6,0,P|141:330|109:295,1,92.2999957748415,2|8,3:2|0:0,0:0:0:0:
121,243,126909,2,0,P|169:223|214:237,1,92.2999957748415,2|0,0:0|3:2,0:0:0:0:
248,274,127221,1,10,0:0:0:0:
361,220,127430,1,10,0:0:0:0:
361,220,127534,1,8,0:0:0:0:
361,220,127638,1,8,0:0:0:0:
361,220,127742,1,8,0:0:0:0:
361,220,127846,2,0,B|378:204|378:204|367:154|367:154|382:133,1,92.2999957748415,8|4,0:0|3:0,0:0:0:0:
332,42,128263,6,0,P|292:96|203:100,1,142,10|10,0:0|0:0,0:0:0:0:
71,187,129096,1,10,3:2:0:0:
177,257,129409,1,10,0:0:0:0:
63,314,129721,1,10,0:0:0:0:
71,321,130971,5,2,3:2:0:0:
71,321,131075,1,2,3:2:0:0:
71,321,131180,2,0,L|81:232,1,71,10|2,0:0|0:0,0:0:0:0:
87,144,131596,6,0,P|120:175|180:167,1,88.75,6|10,3:2|0:0,0:0:0:0:
200,139,131909,2,0,L|215:35,1,88.75,2|2,0:0|3:2,0:0:0:0:
254,18,132221,1,10,0:0:0:0:
342,78,132430,1,0,3:2:0:0:
299,174,132638,1,8,0:0:0:0:
194,154,132846,2,0,L|145:162,2,44.375,0|0|10,3:2|3:2|0:0,0:0:0:0:
222,256,133263,6,0,L|134:274,1,88.75,2|10,3:2|0:0,0:0:0:0:
106,318,133575,2,0,L|19:305,1,88.75,2|2,0:0|3:2,0:0:0:0:
1,254,133888,1,10,0:0:0:0:
71,174,134096,2,0,B|74:131|48:129|46:80,1,88.75,0|8,3:2|0:0,0:0:0:0:
129,21,134513,1,0,3:2:0:0:
129,21,134617,1,0,3:2:0:0:
129,21,134721,1,10,0:0:0:0:
218,80,134930,6,0,P|249:126|245:168,1,88.75,2|8,3:2|0:0,0:0:0:0:
283,197,135242,2,0,P|252:243|256:285,1,88.75,2|0,0:0|3:2,0:0:0:0:
296,306,135555,1,10,0:0:0:0:
386,361,135763,2,0,B|422:337|422:337|466:346,1,88.75,0|8,3:2|0:0,0:0:0:0:
491,242,136180,2,0,L|504:198,2,44.375,2|0|8,3:2|3:2|0:0,0:0:0:0:
417,164,136596,6,0,P|391:108|400:72,1,88.75,2|8,3:2|0:0,0:0:0:0:
296,42,137013,2,0,L|283:-2,2,44.375,0|0|8,3:2|3:2|0:0,0:0:0:0:
243,139,137430,1,8,0:0:0:0:
243,139,137534,1,8,0:0:0:0:
243,139,137638,1,8,0:0:0:0:
243,139,137742,1,8,0:0:0:0:
243,139,137846,2,0,L|196:124,2,44.375,8|8|8,0:0|0:0|0:0,0:0:0:0:
177,43,138263,6,0,P|132:69|114:109,1,88.75,6|10,3:2|0:0,0:0:0:0:
118,153,138575,2,0,P|147:196|188:211,1,88.75,2|2,0:0|3:2,0:0:0:0:
230,194,138888,1,10,0:0:0:0:
304,270,139096,1,0,3:2:0:0:
249,362,139305,1,8,0:0:0:0:
147,328,139513,2,0,L|108:357,2,44.375,0|0|10,3:2|3:2|0:0,0:0:0:0:
249,362,139930,6,0,P|298:365|336:341,1,88.75,2|10,3:2|0:0,0:0:0:0:
379,367,140242,2,0,P|428:364|466:388,1,88.75,2|2,0:0|3:2,0:0:0:0:
501,347,140555,1,10,0:0:0:0:
442,258,140763,2,0,B|433:214|433:214|459:172,1,88.75,0|8,3:2|0:0,0:0:0:0:
512,91,141180,1,0,3:2:0:0:
512,91,141284,1,0,3:2:0:0:
512,91,141388,1,8,0:0:0:0:
411,33,141596,6,0,L|318:43,1,88.75,2|8,3:2|0:0,0:0:0:0:
265,50,141909,2,0,L|172:60,1,88.75,2|0,0:0|3:2,0:0:0:0:
119,67,142221,1,10,0:0:0:0:
54,163,142430,2,0,L|147:173,1,88.75,2|8,3:2|0:0,0:0:0:0:
200,180,142743,2,0,L|293:190,1,88.75,2|0,0:0|3:2,0:0:0:0:
346,197,143055,1,10,0:0:0:0:
419,286,143263,5,2,3:2:0:0:
313,301,143471,1,8,0:0:0:0:
346,197,143680,2,0,L|403:186,2,44.375,0|0|8,3:2|3:2|0:0,0:0:0:0:
282,125,144096,1,8,0:0:0:0:
282,125,144200,1,8,0:0:0:0:
282,125,144305,2,0,L|225:114,1,44.375,10|8,0:0|0:0,0:0:0:0:
198,151,144513,2,0,B|159:174|159:174|111:171,1,88.75,10|6,0:0|3:0,0:0:0:0:
40,237,144930,6,0,P|39:280|76:332,1,106.5,6|0,3:2|3:2,0:0:0:0:
226,373,145555,1,2,3:2:0:0:
226,373,145659,1,0,3:2:0:0:
226,373,145763,2,0,P|225:330|262:278,1,106.5,10|0,1:2|1:2,0:0:0:0:
391,207,146388,1,2,1:2:0:0:
470,266,146596,2,0,B|487:300|466:333|437:331,1,71,2|0,3:2|0:0,0:0:0:0:
404,332,146909,2,0,B|355:317|350:365|287:344,1,106.5,2|2,3:2|3:2,0:0:0:0:
219,292,147430,2,0,P|150:268|110:271,2,106.5,10|0|0,1:2|1:2|1:2,0:0:0:0:
300,223,148263,6,0,P|324:154|321:114,1,106.5,2|0,3:2|3:2,0:0:0:0:
189,77,148888,1,2,3:2:0:0:
189,77,148992,1,0,3:2:0:0:
189,77,149096,2,0,P|213:146|210:186,1,106.5,10|0,1:2|1:2,0:0:0:0:
87,262,149721,1,2,1:2:0:0:
8,200,149930,2,0,P|12:160|62:151,1,71,2|2,3:2|0:0,0:0:0:0:
81,126,150242,2,0,P|89:75|158:56,1,106.5,2|2,3:2|3:2,0:0:0:0:
230,78,150763,2,0,P|267:67|305:86,1,71,8|2,0:0|3:2,0:0:0:0:
369,174,151180,1,10,0:0:0:0:
369,174,151284,1,8,0:0:0:0:
369,174,151388,1,8,0:0:0:0:
369,174,151492,1,8,0:0:0:0:
369,174,151596,6,0,L|359:255,1,78.1000023834229,0|10,3:2|0:0,0:0:0:0:
257,210,152013,2,0,L|247:287,1,78.1000023834229,2|10,3:2|2:2,0:0:0:0:
255,341,152325,2,0,L|371:355,1,117.150003575134,2|10,0:0|0:0,0:0:0:0:
468,299,152846,1,2,3:2:0:0:
468,299,152950,1,0,3:2:0:0:
468,299,153055,1,10,0:0:0:0:
387,225,153263,6,0,B|370:190|370:190|377:149,1,78.1000023834229,0|10,3:2|0:0,0:0:0:0:
458,77,153680,2,0,L|504:85,2,39.0500011917115,2|0|10,3:2|3:2|0:0,0:0:0:0:
425,33,153992,2,0,P|366:72|295:68,1,117.150003575134,2|10,0:0|0:0,0:0:0:0:
235,24,154513,1,2,3:2:0:0:
235,24,154721,1,10,0:0:0:0:
156,100,154930,6,0,P|163:154|184:185,1,78.1000023834229,0|10,3:2|0:0,0:0:0:0:
267,240,155346,1,2,3:2:0:0:
267,240,155555,1,10,0:0:0:0:
199,325,155763,2,0,P|145:332|114:353,1,78.1000023834229,2|8,3:2|0:0,0:0:0:0:
75,335,156075,1,2,0:0:0:0:
75,335,156180,2,0,P|63:320|51:292,2,39.0500011917115,0|0|10,3:2|3:2|0:0,0:0:0:0:
131,241,156596,6,0,L|139:160,1,78.1000023834229,2|8,3:2|0:0,0:0:0:0:
91,134,156909,2,0,P|67:94|76:59,1,78.1000023834229,2|0,0:0|3:2,0:0:0:0:
117,34,157221,1,10,0:0:0:0:
218,74,157430,2,0,L|214:112,2,39.0500011917115,2|0|8,3:2|3:2|0:0,0:0:0:0:
326,32,157846,1,8,2:2:0:0:
326,32,157950,1,8,2:2:0:0:
326,32,158055,1,8,0:0:0:0:
326,32,158159,1,8,0:0:0:0:
326,32,158263,5,4,3:2:0:0:
401,111,158471,2,0,L|397:149,3,39.0500011917115,8|8|8|8,0:0|0:0|0:0|0:0,0:0:0:0:
352,181,158888,1,4,3:2:0:0:
256,233,159096,2,0,L|259:271,3,39.0500011917115,8|8|8|8,0:0|0:0|0:0|0:0,0:0:0:0:
305,303,159513,2,0,B|347:281|386:343|429:322,1,117.150003575134,4|0,3:2|0:0,0:0:0:0:
465,302,159930,5,8,3:2:0:0:
508,144,160242,1,8,3:2:0:0:
350,101,160555,1,8,3:2:0:0:
275,181,160763,2,0,B|243:204|243:204|193:194,1,78.1000023834229,8|0,3:2|3:2,0:0:0:0:
157,223,161075,2,0,P|150:243|149:261,1,39.0500011917115,0|8,3:2|0:0,0:0:0:0:
148,260,161596,6,0,P|105:199|114:161,1,106.5,6|2,3:2|1:2,0:0:0:0:
98,122,162013,2,0,P|136:119|171:93,1,71,8|2,0:0|1:2,0:0:0:0:
222,21,162430,2,0,P|260:24|295:50,1,71,2|0,3:2|1:2,0:0:0:0:
324,81,162742,1,2,1:2:0:0:
324,81,162846,2,0,L|311:151,1,71,8|2,0:0|1:2,0:0:0:0:
417,140,163263,6,0,L|404:210,1,71,2|2,3:2|1:2,0:0:0:0:
433,249,163575,2,0,P|426:308|375:314,1,106.5,2|2,1:2|1:2,0:0:0:0:
308,260,164096,1,2,3:2:0:0:
251,343,164305,1,0,1:2:0:0:
251,343,164409,1,0,1:2:0:0:
251,343,164513,2,0,P|207:329|169:331,1,71,8|2,0:0|1:2,0:0:0:0:
80,361,164930,6,0,P|65:306|13:267,1,106.5,2|2,3:2|1:2,0:0:0:0:
24,224,165346,2,0,P|6:194|5:155,1,71,8|2,0:0|1:2,0:0:0:0:
88,104,165763,2,0,P|121:115|146:144,1,71,2|0,3:2|1:2,0:0:0:0:
169,190,166075,1,2,1:2:0:0:
169,190,166180,2,0,P|190:162|225:146,1,71,8|2,0:0|1:2,0:0:0:0:
308,209,166596,6,0,P|308:264|273:314,2,106.5,2|2|2,3:2|1:2|1:2,0:0:0:0:
397,163,167430,2,0,L|385:89,1,71,2|0,3:2|1:2,0:0:0:0:
426,63,167742,1,0,1:2:0:0:
426,63,167846,2,0,P|494:100|480:167,1,142,10|2,0:1|3:2,0:0:0:0:
457,254,168471,5,0,1:2:0:0:
457,254,168575,1,0,1:2:0:0:
457,254,168680,2,0,L|376:248,1,71,8|2,0:0|1:2,0:0:0:0:
317,320,169096,2,0,L|236:314,1,71,2|0,3:2|1:2,0:0:0:0:
210,349,169409,1,0,1:2:0:0:
210,349,169513,2,0,L|129:343,1,71,8|2,0:0|1:2,0:0:0:0:
37,377,169930,6,0,P|19:338|40:258,1,106.5,2|2,3:2|1:2,0:0:0:0:
73,257,170346,2,0,L|81:179,1,71,8|2,0:0|1:2,0:0:0:0:
14,111,170763,1,2,3:2:0:0:
112,92,170971,1,2,1:2:0:0:
178,167,171180,1,10,0:0:0:0:
210,72,171388,1,2,1:2:0:0:
314,52,171596,6,0,P|346:84|361:160,1,106.5,2|2,3:2|1:2,0:0:0:0:
327,176,172013,2,0,P|282:163|257:138,1,71,8|2,0:0|1:2,0:0:0:0:
227,240,172430,2,0,P|182:255|147:249,1,71,2|0,3:2|1:2,0:0:0:0:
110,243,172742,1,2,1:2:0:0:
110,243,172846,1,8,0:0:0:0:
41,315,173055,1,2,1:2:0:0:
123,382,173263,6,0,P|193:355|236:354,1,106.5,2|0,3:2|3:2,0:0:0:0:
263,322,173680,2,0,P|300:349|338:349,1,71,8|2,0:0|3:2,0:0:0:0:
423,314,174096,1,2,3:2:0:0:
423,314,174200,1,8,0:0:0:0:
423,314,174305,1,10,0:0:0:0:
423,314,174409,1,8,0:0:0:0:
423,314,174513,2,0,L|416:261,3,35.5,10|8|6|12,0:0|3:0|3:0|3:0,0:0:0:0:
465,233,174930,6,0,P|485:193|463:127,1,92.2999957748415,14|0,3:2|3:2,0:0:0:0:
424,133,175242,1,2,3:2:0:0:
424,133,175346,2,0,B|384:158|384:158|337:154,1,92.2999957748415,8|2,0:0|3:2,0:0:0:0:
276,257,175763,2,0,B|236:232|236:232|189:236,1,92.2999957748415,10|0,0:0|3:2,0:0:0:0:
140,214,176075,1,2,3:2:0:0:
140,214,176180,2,0,P|113:165|122:128,1,92.2999957748415,8|2,0:0|3:2,0:0:0:0:
192,24,176596,5,10,0:0:0:0:
299,98,176805,1,0,3:2:0:0:
299,98,176909,1,2,3:2:0:0:
299,98,177013,2,0,P|337:115|397:117,1,92.2999957748415,8|2,0:0|3:2,0:0:0:0:
490,56,177430,1,10,0:0:0:0:
512,181,177638,1,0,3:2:0:0:
512,181,177742,1,0,3:2:0:0:
512,181,177846,2,0,L|504:227,3,46.1499978874208,8|0|2|0,0:0|3:2|3:2|3:2,0:0:0:0:
449,252,178263,6,0,B|408:254|410:296|358:300,1,92.2999957748415,10|0,0:0|3:2,0:0:0:0:
334,345,178575,1,2,3:2:0:0:
334,345,178680,2,0,P|290:320|233:317,1,92.2999957748415,8|2,0:0|3:2,0:0:0:0:
150,247,179096,2,0,P|102:264|63:306,1,92.2999957748415,10|0,0:0|3:2,0:0:0:0:
87,355,179409,1,2,3:2:0:0:
87,355,179513,2,0,P|134:371|191:365,1,92.2999957748415,8|2,0:0|3:2,0:0:0:0:
278,290,179930,5,10,0:0:0:0:
240,186,180138,1,0,3:2:0:0:
240,186,180242,1,2,3:2:0:0:
240,186,180346,2,0,B|218:143|218:143|232:99,1,92.2999957748415,8|2,0:0|3:2,0:0:0:0:
315,14,180763,1,10,0:0:0:0:
357,125,180971,1,0,3:2:0:0:
492,142,181180,1,8,0:0:0:0:
492,142,181284,1,8,2:2:0:0:
492,142,181388,1,10,2:2:0:0:
492,142,181492,1,8,2:2:0:0:
492,142,181596,6,0,P|472:190|475:232,1,92.2999957748415,14|0,0:0|3:2,0:0:0:0:
435,276,181909,1,0,3:2:0:0:
435,276,182013,2,0,P|466:317|504:335,1,92.2999957748415,8|2,0:0|3:2,0:0:0:0:
383,355,182430,2,0,P|331:361|297:385,1,92.2999957748415,10|0,0:0|3:2,0:0:0:0:
258,347,182742,1,0,3:2:0:0:
258,347,182846,2,0,P|236:300|202:274,1,92.2999957748415,8|2,0:0|3:2,0:0:0:0:
76,295,183263,5,10,0:0:0:0:
20,200,183471,1,0,3:2:0:0:
20,200,183575,1,2,3:2:0:0:
20,200,183680,2,0,P|21:145|56:116,1,92.2999957748415,8|2,0:0|3:2,0:0:0:0:
157,64,184096,1,10,0:0:0:0:
157,64,184200,1,8,0:0:0:0:
157,64,184305,1,8,0:0:0:0:
157,64,184409,1,8,0:0:0:0:
157,64,184513,2,0,B|196:87|196:87|251:70,1,92.2999957748415,8|4,0:0|3:0,0:0:0:0:
334,39,184930,6,0,B|360:36|385:14|385:14|348:49|350:111,1,142,10|10,0:0|0:0,0:0:0:0:
488,189,185763,1,10,3:2:0:0:
384,264,186075,1,10,0:0:0:0:
501,315,186388,1,10,0:0:0:0:
509,322,187638,5,2,3:2:0:0:
509,322,187742,1,2,3:2:0:0:
509,322,187846,2,0,L|492:232,1,71,10|2,0:0|0:0,0:0:0:0:
406,193,188263,6,0,B|370:220|370:220|320:214,1,88.75,6|8,3:2|0:0,0:0:0:0:
283,243,188575,1,2,0:0:0:0:
283,243,188680,2,0,B|247:216|247:216|197:222,1,88.75,0|10,3:2|0:0,0:0:0:0:
97,217,189096,2,0,P|66:178|66:136,1,88.75,2|8,3:2|0:0,0:0:0:0:
116,119,189409,1,2,0:0:0:0:
116,119,189513,2,0,P|151:94|165:52,1,88.75,0|10,3:2|0:0,0:0:0:0:
275,17,189930,6,0,B|323:-11|397:63|446:37,2,177.5,2|2|2,3:2|3:2|3:2,0:0:0:0:
304,128,190971,1,8,0:0:0:0:
304,128,191075,1,0,0:0:0:0:
304,128,191180,2,0,P|288:182|297:215,1,88.75,0|8,3:2|0:0,0:0:0:0:
391,257,191596,6,0,P|437:225|447:145,1,133.125,2|2,3:2|0:0,0:0:0:0:
456,100,192013,2,0,P|432:65|429:10,1,88.75,0|10,3:2|0:0,0:0:0:0:
339,80,192430,2,0,P|296:83|215:27,1,133.125,2|2,3:2|0:0,0:0:0:0:
168,32,192846,2,0,P|126:50|108:96,1,88.75,0|10,3:2|0:0,0:0:0:0:
20,162,193263,6,0,P|45:236|65:338,1,177.5,2|2,3:2|3:2,0:0:0:0:
273,373,194096,1,10,0:0:0:0:
274,351,194200,1,8,0:0:0:0:
278,329,194304,1,8,0:0:0:0:
282,307,194408,1,8,0:0:0:0:
289,286,194513,2,0,P|316:278|338:268,2,44.375,8|8|4,0:0|3:0|3:0,0:0:0:0:
198,65,195346,6,0,B|179:23|123:21|123:21|101:86|154:142|154:142|88:126|44:178|44:178|83:273|240:259|291:222|276:132|380:93|450:140|450:140|458:201|401:231|401:231|466:230|498:278|498:278|472:328|420:316|420:316|448:332|454:362|454:362|423:364|401:321,1,1249.6,6|0,3:2|0:0,0:0:0:0:
