osu file format v14

[General]
AudioFilename: audio.ogg
AudioLeadIn: 0
PreviewTime: 159877
Countdown: 0
SampleSet: Soft
StackLeniency: 0.7
Mode: 0
LetterboxInBreaks: 0
WidescreenStoryboard: 0

[Editor]
Bookmarks: 971,4930,11596,18263,24930,31596,38263,41180,41596,54930,64930,68263,74930,79930,81596,88263,94930,101596,104513,104930,118263,128263,131596,144930,151596,158263,161180,161596,174930,184930,188263,194930,195346,199930
DistanceSpacing: 0.85
BeatDivisor: 8
GridSize: 16
TimelineZoom: 3.700001

[Metadata]
Title:"Kimirashiku" Sore dake de Ii yo (feat. Matsushita)
TitleUnicode:「君らしく」それだけでいいよ (feat. 松下)
Artist:Aintops
ArtistUnicode:Aintops
Creator:pnky
Version:Fanfare
Source:
Tags:lasse gazimal Japanese Rock J-rock Jrock 往古来今 female vocals vocalist 吉田省吾
BeatmapID:4052778
BeatmapSetID:1956399

[Difficulty]
HPDrainRate:6
CircleSize:4
OverallDifficulty:8.6
ApproachRate:9.3
SliderMultiplier:1.6
SliderTickRate:1

[Events]
//Background and Video events
0,0,"aoku.jpg",0,0
//Break Periods
2,68462,74330
//Storyboard Layer 0 (Background)
//Storyboard Layer 1 (Fail)
//Storyboard Layer 2 (Pass)
//Storyboard Layer 3 (Foreground)
//Storyboard Layer 4 (Overlay)
//Storyboard Sound Samples

[TimingPoints]
-70,416.666666666667,4,2,1,65,1,0
1180,-133.333333333333,4,2,1,65,0,0
1544,-133.333333333333,4,2,1,5,0,0
1596,-50,4,2,1,65,0,0
4305,-66.6666666666667,4,2,1,65,0,0
4930,-57.1428571428571,4,2,1,75,0,0
11388,-200,4,2,1,75,0,0
11596,-100,4,2,1,50,0,0
16596,-90.9090909090909,4,2,1,60,0,0
16961,-90.9090909090909,4,2,1,5,0,0
17013,-62.5,4,2,1,60,0,0
17377,-62.5,4,2,1,5,0,0
17430,-37.037037037037,4,2,1,60,0,0
17794,-37.037037037037,4,2,1,5,0,0
17846,-37.037037037037,4,2,1,60,0,0
18263,-57.1428571428571,4,2,1,65,0,0
24930,-62.5,4,2,1,55,0,0
25763,-100,4,2,1,55,0,0
26596,-66.6666666666667,4,2,1,55,0,0
27430,-111.111111111111,4,2,1,55,0,0
28263,-62.5,4,2,1,55,0,0
29096,-100,4,2,1,55,0,0
29930,-66.6666666666667,4,2,1,55,0,0
30763,-50,4,2,1,55,0,0
31596,-57.1428571428571,4,2,1,65,0,0
38263,-57.1428571428571,4,2,1,75,0,0
39513,-42.7350427350427,4,2,1,75,0,0
39877,-42.7350427350427,4,2,1,5,0,0
39930,-57.1428571428571,4,2,1,75,0,0
40242,-44.4444444444445,4,2,1,75,0,0
40555,-57.1428571428571,4,2,1,75,0,0
40763,-34.1296928327645,4,2,1,75,0,0
41180,-57.1428571428571,4,2,1,75,0,0
41596,-71.4285714285714,4,2,1,65,0,0
44096,-62.5,4,2,1,65,0,0
44513,-71.4285714285714,4,2,1,65,0,0
47430,-62.5,4,2,1,65,0,0
47846,-38.4615384615385,4,2,1,65,0,1
48211,-38.4615384615385,4,2,1,5,0,1
48263,-71.4285714285714,4,2,1,65,0,0
53263,-62.5,4,2,1,65,0,0
54930,-50,4,2,1,80,0,1
58055,-200,4,2,1,80,0,1
58211,-200,4,2,1,5,0,1
58263,-50,4,2,1,80,0,1
64930,-100,4,2,1,65,0,0
65763,-33.3333333333333,4,2,1,65,0,0
67638,-200,4,2,1,65,0,0
68263,-200,4,2,1,75,0,0
74930,-100,4,2,1,50,0,0
79513,-50,4,2,1,50,0,0
79877,-50,4,2,1,5,0,0
79930,-400,4,2,1,35,0,0
81180,-100,4,2,1,60,0,0
81596,-57.1428571428571,4,2,1,65,0,0
88263,-62.5,4,2,1,55,0,0
89096,-100,4,2,1,55,0,0
89930,-66.6666666666667,4,2,1,55,0,0
90763,-111.111111111111,4,2,1,55,0,0
91596,-62.5,4,2,1,55,0,0
92430,-100,4,2,1,55,0,0
93263,-66.6666666666667,4,2,1,55,0,0
94096,-50,4,2,1,55,0,0
94305,-66.6666666666667,4,2,1,55,0,0
94930,-57.1428571428571,4,2,1,65,0,0
101596,-57.1428571428571,4,2,1,75,0,0
102846,-42.7350427350427,4,2,1,75,0,0
103211,-42.7350427350427,4,2,1,5,0,0
103263,-57.1428571428571,4,2,1,75,0,0
103575,-44.4444444444445,4,2,1,75,0,0
103888,-57.1428571428571,4,2,1,75,0,0
104096,-34.1296928327645,4,2,1,75,0,0
104930,-71.4285714285714,4,2,1,65,0,0
107430,-62.5,4,2,1,65,0,0
107846,-71.4285714285714,4,2,1,65,0,0
110763,-62.5,4,2,1,65,0,0
111180,-38.4615384615385,4,2,1,65,0,1
111544,-38.4615384615385,4,2,1,5,0,1
111596,-71.4285714285714,4,2,1,65,0,0
116596,-62.5,4,2,1,65,0,0
118263,-50,4,2,1,80,0,1
121388,-200,4,2,1,80,0,1
121544,-200,4,2,1,5,0,1
121596,-50,4,2,1,80,0,1
128263,-100,4,2,1,65,0,0
129096,-33.3333333333333,4,2,1,65,0,0
130971,-200,4,2,1,65,0,0
131544,-200,4,2,1,5,0,0
131596,-52.6315789473684,4,2,1,75,0,0
144721,-80,4,2,1,75,0,0
144930,-62.5,4,2,1,55,0,0
145763,-100,4,2,1,55,0,0
146596,-66.6666666666667,4,2,1,55,0,0
147430,-111.111111111111,4,2,1,55,0,0
148263,-62.5,4,2,1,55,0,0
149096,-100,4,2,1,55,0,0
149930,-66.6666666666667,4,2,1,55,0,0
150763,-50,4,2,1,55,0,0
151596,-57.1428571428571,4,2,1,65,0,0
158263,-57.1428571428571,4,2,1,75,0,0
159513,-42.7350427350427,4,2,1,75,0,0
159877,-42.7350427350427,4,2,1,5,0,0
159930,-57.1428571428571,4,2,1,75,0,0
160242,-44.4444444444445,4,2,1,75,0,0
160555,-57.1428571428571,4,2,1,75,0,0
160763,-24.390243902439,4,2,1,75,0,0
161596,-71.4285714285714,4,2,1,65,0,0
164096,-62.5,4,2,1,65,0,0
164930,-71.4285714285714,4,2,1,65,0,0
167430,-62.5,4,2,1,65,0,0
167846,-38.4615384615385,4,2,1,65,0,1
168211,-38.4615384615385,4,2,1,5,0,1
168263,-71.4285714285714,4,2,1,65,0,0
173263,-62.5,4,2,1,65,0,0
174930,-50,4,2,1,80,0,1
184930,-100,4,2,1,65,0,0
185763,-33.3333333333333,4,2,1,65,0,0
187638,-200,4,2,1,65,0,0
188211,-200,4,2,1,5,0,0
188263,-57.1428571428571,4,2,1,75,0,0
194721,-57.1428571428571,4,2,1,75,0,0
194825,-57.1428571428571,4,2,1,55,0,0
195346,-200,4,2,1,75,0,0
199930,-200,4,2,1,30,0,0

[Colours]
Combo1 : 250,180,240
Combo2 : 120,200,230
Combo3 : 255,230,130
Combo4 : 160,230,150

[HitObjects]
83,89,971,5,0,3:2:0:0:
79,78,1075,1,0,3:2:0:0:
169,109,1180,2,0,B|181:136|181:136|160:174|160:174|174:201,1,105.000004005432,8|0,0:0|0:0,0:0:0:0:
75,69,1596,5,10,0:0:0:0:
75,69,2013,1,10,0:0:0:0:
481,250,2430,6,0,P|394:237|271:327,2,240,2|2|10,3:2|3:2|0:0,0:0:0:0:
481,250,4305,6,0,P|444:244|412:227,1,60.0000022888184,2|2,3:2|3:2,0:0:0:0:
357,76,4513,2,0,P|330:142|414:130,1,180.000006866455,10|0,0:0|0:0,0:0:0:0:
293,17,4930,6,0,B|226:3|232:68|156:42,1,140.000001335144,6|8,3:2|0:0,0:0:0:0:
54,4,5242,1,2,0:0:0:0:
44,14,5346,2,0,P|48:59|63:83,1,70.000000667572,0|0,3:2|3:2,0:0:0:0:
192,143,5555,2,0,P|157:149|124:141,1,70.000000667572,10|0,0:0|0:0,0:0:0:0:
0,288,5763,2,0,P|48:240|124:231,1,140.000001335144,2|8,3:2|0:0,0:0:0:0:
195,348,6075,1,2,0:0:0:0:
169,345,6180,2,0,L|95:336,1,70.000000667572,0|0,3:2|3:2,0:0:0:0:
231,241,6388,2,0,L|301:250,1,70.000000667572,10|0,0:0|0:0,0:0:0:0:
332,354,6596,5,2,3:2:0:0:
377,171,6735,1,2,0:0:0:0:
512,302,6874,1,2,0:0:0:0:
437,381,7013,5,2,3:2:0:0:
301,250,7152,1,2,0:0:0:0:
482,197,7291,1,2,0:0:0:0:
377,171,7430,6,0,P|336:105|353:39,1,140.000001335144,2|8,3:2|0:0,0:0:0:0:
434,6,7742,1,0,0:0:0:0:
462,16,7846,2,0,P|488:52|492:90,1,70.000000667572,0|0,3:2|3:2,0:0:0:0:
377,171,8055,2,0,P|338:149|318:116,1,70.000000667572,8|0,0:0|0:0,0:0:0:0:
116,45,8263,6,0,L|258:27,1,140.000001335144,2|8,3:2|0:0,0:0:0:0:
99,147,8575,1,2,0:0:0:0:
99,147,8680,2,0,L|178:136,1,70.000000667572,0|0,3:2|3:2,0:0:0:0:
30,40,8888,2,0,L|109:29,1,70.000000667572,10|0,0:0|0:0,0:0:0:0:
304,148,9096,2,0,B|345:178|338:232|338:232|293:234|282:209,1,140.000001335144,2|8,3:2|0:0,0:0:0:0:
191,237,9409,1,2,0:0:0:0:
180,254,9513,2,0,P|187:302|206:329,1,70.000000667572,0|0,3:2|3:2,0:0:0:0:
343,368,9721,2,0,P|310:378|276:375,1,70.000000667572,10|0,0:0|0:0,0:0:0:0:
102,319,9930,5,2,3:2:0:0:
182,151,10068,1,2,0:0:0:0:
46,23,10207,1,2,0:0:0:0:
6,146,10346,5,2,3:2:0:0:
190,170,10484,1,2,0:0:0:0:
270,1,10623,1,2,0:0:0:0:
390,65,10763,5,10,0:0:0:0:
412,98,10867,1,8,0:0:0:0:
427,136,10971,1,8,0:0:0:0:
431,177,11075,1,8,0:0:0:0:
399,214,11179,5,8,0:0:0:0:
385,227,11283,1,8,3:0:0:0:
371,240,11388,2,0,P|352:230|332:223,1,40,4|4,3:0|3:2,0:0:0:0:
71,75,11805,6,0,L|79:124,1,40,2|0,0:0|0:0,0:0:0:0:
170,129,12013,2,0,P|143:179|142:205,1,80,2|2,3:2|1:2,0:0:0:0:
19,203,12430,2,0,L|68:195,1,40,2|0,3:2|0:0,0:0:0:0:
146,232,12638,1,0,1:2:0:0:
146,232,12742,2,0,L|228:218,1,80,2|0,0:0|0:0,0:0:0:0:
126,311,13055,2,0,P|107:305|92:293,1,40,0|0,1:2|0:0,0:0:0:0:
235,229,13263,5,0,3:2:0:0:
235,229,13471,1,2,1:2:0:0:
235,229,13680,2,0,L|317:215,1,80,2|2,3:2|1:2,0:0:0:0:
403,157,13992,1,0,0:0:0:0:
417,171,14096,2,0,P|395:215|395:248,1,80,2|0,3:2|1:2,0:0:0:0:
475,275,14409,2,0,P|497:231|497:198,1,80,2|0,0:0|0:0,0:0:0:0:
403,157,14721,1,0,1:2:0:0:
512,48,14930,6,0,L|433:58,1,80,2|0,3:2|1:2,0:0:0:0:
362,19,15242,1,2,0:0:0:0:
362,19,15346,2,0,L|283:29,1,80,0|0,3:2|1:2,0:0:0:0:
317,280,15763,2,0,L|238:290,1,80,2|2,3:2|1:2,0:0:0:0:
168,253,16075,1,2,0:0:0:0:
168,253,16180,1,8,2:2:0:0:
122,237,16284,1,8,2:2:0:0:
93,202,16388,1,0,3:2:0:0:
87,157,16492,1,0,0:0:0:0:
144,108,16596,6,0,P|217:155|282:152,1,154.000004699707,10|0,3:2|0:0,0:0:0:0:
126,22,17013,2,0,P|230:55|282:152,1,224,8|0,3:2|0:0,0:0:0:0:
144,108,17430,6,0,B|177:152|233:167|282:152|282:152|273:71|200:14|122:23,1,378.000001441956,10|0,3:2|0:0,0:0:0:0:
22,156,17846,5,8,0:0:0:0:
77,134,17950,1,8,0:0:0:0:
114,180,18055,1,8,0:0:0:0:
82,230,18159,1,8,0:0:0:0:
63,316,18263,6,0,L|145:298,1,70.000000667572,0|0,3:2|0:0,0:0:0:0:
266,360,18471,2,0,P|241:331|232:295,1,70.000000667572,10|0,2:2|0:0,0:0:0:0:
306,219,18680,1,2,3:2:0:0:
306,219,18784,1,0,3:2:0:0:
306,219,18888,2,0,P|339:226|367:247,1,70.000000667572,10|0,0:0|0:0,0:0:0:0:
433,360,19096,2,0,P|439:301|500:244,1,140.000001335144,2|10,3:2|0:0,0:0:0:0:
429,169,19409,1,2,0:0:0:0:
429,169,19513,2,0,P|400:131|396:90,1,70.000000667572,0|0,3:2|3:2,0:0:0:0:
512,42,19721,2,0,P|493:86|460:110,1,70.000000667572,8|0,0:0|0:0,0:0:0:0:
285,18,19930,6,0,L|429:31,1,140.000001335144,0|10,3:2|0:0,0:0:0:0:
244,116,20242,1,0,0:0:0:0:
244,116,20346,2,0,L|315:122,1,70.000000667572,2|0,3:2|3:2,0:0:0:0:
196,0,20555,2,0,L|267:6,1,70.000000667572,10|0,0:0|0:0,0:0:0:0:
144,164,20763,2,0,P|138:95|91:41,1,140.000001335144,2|8,3:2|0:0,0:0:0:0:
14,73,21075,1,2,0:0:0:0:
3,89,21180,2,0,P|5:125|25:158,1,70.000000667572,0|0,3:2|3:2,0:0:0:0:
112,259,21388,2,0,P|79:242|41:243,1,70.000000667572,8|0,0:0|0:0,0:0:0:0:
179,357,21596,5,0,3:2:0:0:
179,357,21700,1,0,3:0:0:0:
179,357,21805,2,0,L|258:346,1,70.000000667572,10|0,0:0|0:0,0:0:0:0:
195,188,22013,2,0,L|206:267,1,70.000000667572,2|0,3:2|3:2,0:0:0:0:
364,204,22221,2,0,L|285:215,1,70.000000667572,10|0,0:0|0:0,0:0:0:0:
348,373,22430,2,0,P|362:313|452:302,1,140.000001335144,2|8,3:2|0:0,0:0:0:0:
512,221,22742,2,0,P|498:161|408:150,1,140.000001335144,2|0,0:0|3:2,0:0:0:0:
321,108,23055,2,0,P|300:62|308:29,1,70.000000667572,10|0,0:0|0:0,0:0:0:0:
423,27,23263,5,2,3:2:0:0:
416,120,23402,2,0,L|423:27,1,93.3333342234294,2|2,0:0|0:0,0:0:0:0:
89,27,23680,5,2,3:2:0:0:
95,120,23818,2,0,L|89:27,1,93.3333342234294,2|2,0:0|0:0,0:0:0:0:
285,254,24096,5,2,3:2:0:0:
300,204,24200,1,2,3:2:0:0:
256,176,24304,1,10,0:0:0:0:
212,204,24409,1,2,0:0:0:0:
177,272,24513,1,10,2:1:0:0:
133,300,24618,1,8,0:0:0:0:
89,272,24721,2,0,L|82:230,3,35.000000333786,10|0|8|0,0:0|0:0|0:0|0:0,0:0:0:0:
60,304,24930,6,0,P|136:300|236:369,2,192,6|0|2,3:2|3:2|3:2,0:0:0:0:
141,380,25659,1,0,3:2:0:0:
141,380,25763,2,0,P|88:356|60:305,2,120,10|0|2,1:2|1:2|1:2,0:0:0:0:
346,215,26596,6,0,L|366:31,2,180.000006866455,2|2|2,3:2|3:2|3:2,0:0:0:0:
322,109,27325,1,0,3:2:0:0:
322,109,27430,2,0,L|346:215,2,107.999996704102,10|0|0,1:2|1:2|1:2,0:0:0:0:
34,112,28263,6,0,P|110:116|210:47,2,192,2|0|2,3:2|3:2|3:2,0:0:0:0:
115,36,28992,1,0,3:2:0:0:
115,36,29096,2,0,P|62:60|34:111,2,120,10|0|2,1:2|1:2|1:2,0:0:0:0:
279,204,29930,6,0,P|326:233|404:231,1,120.000004577637,2|2,3:2|0:0,0:0:0:0:
362,125,30242,2,0,P|313:151|276:219,1,120.000004577637,2|0,3:2|0:0,0:0:0:0:
471,269,30555,2,0,P|476:233|464:190,1,60.0000022888184,2|0,3:2|0:0,0:0:0:0:
389,235,30763,6,0,B|363:247|313:239|279:204|279:204|290:167|320:135|362:125,1,240.000009155274,8|0,0:0|0:0,0:0:0:0:
223,272,31180,1,10,0:0:0:0:
194,315,31284,1,8,0:0:0:0:
152,347,31388,1,8,0:0:0:0:
102,363,31492,1,8,0:0:0:0:
50,361,31596,6,0,P|24:299|36:222,1,140.000001335144,0|10,3:2|0:0,0:0:0:0:
121,168,31909,1,0,0:0:0:0:
144,168,32013,2,0,P|172:198|182:230,1,70.000000667572,2|0,3:2|3:2,0:0:0:0:
28,124,32221,1,10,2:2:0:0:
72,57,32325,2,0,B|152:52|130:107|221:100,1,140.000001335144,2|0,0:0|0:0,0:0:0:0:
335,18,32638,2,0,P|296:27|271:50,1,70.000000667572,10|0,0:0|0:0,0:0:0:0:
338,175,32846,2,0,P|349:136|342:103,1,70.000000667572,2|0,3:2|3:2,0:0:0:0:
201,100,33055,2,0,P|228:129|260:139,1,70.000000667572,10|0,0:0|0:0,0:0:0:0:
412,52,33263,6,0,P|476:59|513:127,1,140.000001335144,0|10,3:2|0:0,0:0:0:0:
459,215,33575,1,0,0:0:0:0:
442,201,33680,2,0,P|426:164|428:128,1,70.000000667572,2|0,3:2|3:2,0:0:0:0:
494,357,33888,1,10,0:0:0:0:
437,301,33992,2,0,P|367:272|299:285,1,140.000001335144,2|0,0:0|0:0,0:0:0:0:
192,330,34305,2,0,P|199:295|216:265,1,70.000000667572,10|0,0:0|0:0,0:0:0:0:
62,331,34513,2,0,P|88:354|105:384,1,70.000000667572,2|0,3:2|3:2,0:0:0:0:
126,218,34721,2,0,P|92:229|57:229,1,70.000000667572,10|0,0:0|0:0,0:0:0:0:
24,79,34930,6,0,P|109:82|164:120,1,140.000001335144,0|10,3:2|0:0,0:0:0:0:
126,218,35242,1,0,0:0:0:0:
126,218,35346,2,0,P|92:229|57:229,1,70.000000667572,2|0,3:2|3:2,0:0:0:0:
101,66,35555,2,0,P|131:83|154:109,1,70.000000667572,10|0,0:0|0:0,0:0:0:0:
277,38,35763,2,0,P|268:124|303:180,1,140.000001335144,2|8,3:2|0:0,0:0:0:0:
416,152,36075,1,2,0:0:0:0:
416,152,36180,2,0,P|428:85|401:22,1,140.000001335144,0|10,3:2|0:0,0:0:0:0:
168,151,36596,6,0,P|141:215|153:283,1,140.000001335144,2|8,3:2|0:0,0:0:0:0:
276,298,36909,2,0,P|304:235|292:168,1,140.000001335144,2|0,0:0|3:2,0:0:0:0:
209,349,37221,2,0,P|233:373|266:384,1,70.000000667572,10|0,0:0|0:0,0:0:0:0:
431,260,37430,1,2,3:2:0:0:
431,260,37534,1,0,3:2:0:0:
431,260,37638,1,8,0:0:0:0:
431,260,37742,1,0,3:2:0:0:
431,260,37846,5,8,2:2:0:0:
459,213,37950,1,8,2:2:0:0:
423,173,38055,1,8,0:0:0:0:
372,195,38159,1,8,0:0:0:0:
378,249,38263,1,4,3:2:0:0:
370,255,38471,5,8,0:0:0:0:
364,189,38575,1,8,0:0:0:0:
426,164,38680,1,8,0:0:0:0:
468,213,38784,1,8,0:0:0:0:
434,269,38888,1,4,3:2:0:0:
437,279,39096,5,8,0:0:0:0:
478,214,39200,1,8,0:0:0:0:
429,155,39305,1,8,0:0:0:0:
357,184,39409,1,8,0:0:0:0:
363,261,39513,2,0,P|260:327|56:327,1,327.600001249695,4|0,3:2|0:0,0:0:0:0:
60,329,39930,6,0,P|114:273|180:248,1,140.000001335144,8|0,3:2|0:0,0:0:0:0:
363,261,40242,2,0,P|309:317|209:353,1,180.000006866455,8|0,3:2|0:0,0:0:0:0:
192,166,40555,2,0,P|224:182|248:211,1,70.000000667572,8|0,3:2|0:0,0:0:0:0:
363,261,40763,6,0,B|280:344|161:364|60:328|60:328|87:282|132:255|180:247,1,468.800010372315,8|0,3:2|0:0,0:0:0:0:
171,248,41596,6,0,P|209:178|196:137,1,111.999996582031,6|0,3:2|1:2,0:0:0:0:
57,101,41909,1,2,1:2:0:0:
57,101,42013,2,0,P|98:169|140:179,1,111.999996582031,8|2,0:0|1:2,0:0:0:0:
389,328,42430,2,0,L|276:317,1,111.999996582031,2|0,3:2|1:2,0:0:0:0:
452,222,42742,1,2,1:2:0:0:
452,222,42846,2,0,L|340:211,1,111.999996582031,8|2,0:0|1:2,0:0:0:0:
197,119,43263,6,0,P|253:116|295:78,1,111.999996582031,2|2,3:2|1:2,0:0:0:0:
156,50,43575,1,2,0:0:0:0:
132,67,43680,2,0,P|118:96|118:132,1,55.9999982910157,8|0,0:0|0:0,0:0:0:0:
33,139,43888,2,0,P|47:168|47:204,1,55.9999982910157,2|0,1:2|0:0,0:0:0:0:
122,336,44096,2,0,P|98:283|210:315,1,256,2|8,3:2|0:0,0:0:0:0:
427,373,44721,1,2,1:2:0:0:
427,373,44930,6,0,B|394:326|394:326|411:259,1,111.999996582031,2|0,3:2|1:2,0:0:0:0:
299,213,45242,1,2,0:0:0:0:
299,213,45346,2,0,B|331:166|331:166|318:113,1,111.999996582031,8|2,0:0|1:2,0:0:0:0:
162,0,45763,2,0,P|104:34|50:35,1,111.999996582031,2|0,3:2|1:2,0:0:0:0:
8,166,46075,1,2,1:2:0:0:
8,166,46180,2,0,P|54:135|109:129,1,111.999996582031,8|2,0:0|1:2,0:0:0:0:
218,270,46596,6,0,P|207:324|172:367,1,111.999996582031,2|0,3:2|1:2,0:0:0:0:
75,328,46909,1,2,0:0:0:0:
75,328,47013,2,0,P|69:293|72:265,1,55.9999982910157,8|0,0:0|0:0,0:0:0:0:
217,335,47221,2,0,P|196:354|172:367,1,55.9999982910157,2|0,1:2|0:0,0:0:0:0:
192,173,47430,2,0,L|324:158,1,128,2|0,3:2|1:2,0:0:0:0:
439,104,47742,1,0,1:2:0:0:
403,186,47846,6,2,B|425:174|434:141|434:141|417:114|417:114|433:71|406:26|406:26|343:22|293:102|322:166,1,363.999983337403,10|0,2:1|2:2,2:1:0:0:
403,186,48263,6,0,L|424:302,1,111.999996582031,2|0,3:2|1:2,0:0:0:0:
290,254,48575,1,0,0:0:0:0:
290,254,48680,2,0,L|311:370,1,111.999996582031,8|2,0:0|1:2,0:0:0:0:
130,68,49096,2,0,L|151:184,1,111.999996582031,2|0,3:2|1:2,0:0:0:0:
17,136,49408,1,0,1:2:0:0:
17,136,49513,2,0,L|38:252,1,111.999996582031,8|2,0:0|1:2,0:0:0:0:
120,384,49930,6,0,P|153:328|222:322,1,111.999996582031,2|0,3:2|1:2,0:0:0:0:
267,239,50242,1,2,0:0:0:0:
282,260,50346,2,0,P|311:282|333:286,1,55.9999982910157,8|0,0:0|0:0,0:0:0:0:
252,157,50555,2,0,P|225:164|205:183,1,55.9999982910157,2|0,1:2|0:0,0:0:0:0:
405,233,50763,6,0,L|412:178,1,55.9999982910157,2|0,3:2|0:0,0:0:0:0:
494,262,50971,2,0,L|501:207,1,55.9999982910157,2|0,1:2|1:2,0:0:0:0:
337,101,51180,2,0,L|330:46,1,55.9999982910157,10|0,0:0|0:0,0:0:0:0:
248,130,51388,2,0,L|241:75,1,55.9999982910157,2|0,1:2|0:0,0:0:0:0:
150,34,51596,6,0,P|101:47|66:99,1,111.999996582031,2|0,3:2|1:2,0:0:0:0:
166,232,51909,1,2,0:0:0:0:
166,232,52013,2,0,L|151:117,1,111.999996582031,8|2,0:0|1:2,0:0:0:0:
14,343,52430,2,0,L|-1:228,1,111.999996582031,2|0,3:2|1:2,0:0:0:0:
168,322,52742,1,2,1:2:0:0:
168,322,52846,2,0,P|217:309|252:257,1,111.999996582031,8|2,0:0|1:2,0:0:0:0:
370,107,53159,1,8,0:0:0:0:
370,107,53263,6,0,L|243:90,1,128,2|0,3:2|1:2,0:0:0:0:
385,22,53575,1,2,3:2:0:0:
448,145,53680,2,0,P|457:115|453:82,1,64,8|0,0:0|0:0,0:0:0:0:
377,194,53888,1,2,3:2:0:0:
398,217,53992,1,8,0:0:0:0:
428,229,54096,5,2,3:2:0:0:
371,166,54200,1,8,0:0:0:0:
287,146,54305,1,10,0:0:0:0:
208,178,54409,1,8,0:0:0:0:
155,246,54513,5,10,0:0:0:0:
187,269,54617,1,8,3:0:0:0:
153,264,54721,1,6,3:0:0:0:
166,280,54825,1,12,3:0:0:0:
151,292,54930,6,0,L|163:120,1,160,6|8,3:2|0:0,0:0:0:0:
55,38,55242,1,2,0:0:0:0:
42,62,55346,2,0,P|46:111|68:138,1,80,0|0,3:2|3:2,0:0:0:0:
237,76,55555,2,0,P|233:27|211:0,1,80,10|0,0:0|0:0,0:0:0:0:
441,0,55763,2,0,P|345:44|324:90,1,160,2|8,3:2|0:0,0:0:0:0:
512,113,56075,1,2,0:0:0:0:
512,113,56180,2,0,L|426:105,1,80,0|0,3:2|3:2,0:0:0:0:
449,241,56388,2,0,L|369:233,1,80,10|0,0:0|0:0,0:0:0:0:
158,340,56596,6,0,B|237:321|237:321|315:366,1,160,2|8,3:2|0:0,0:0:0:0:
409,329,56909,1,2,0:0:0:0:
432,314,57013,2,0,P|451:280|449:241,1,80,0|0,3:2|3:2,0:0:0:0:
274,201,57221,2,0,P|239:220|200:217,1,80,10|0,0:0|0:0,0:0:0:0:
126,71,57430,2,0,P|225:61|293:107,2,160,2|8|0,3:2|0:0|3:2,0:0:0:0:
27,219,57950,1,0,3:2:0:0:
27,219,58055,2,0,L|31:254,1,30,8|0,0:0|0:0,0:0:0:0:
18,272,58263,6,0,L|-2:100,1,160,2|8,3:2|0:0,0:0:0:0:
111,195,58575,1,2,0:0:0:0:
127,213,58680,2,0,P|143:259|136:306,1,80,0|0,3:2|3:2,0:0:0:0:
293,340,58888,2,0,P|244:340|202:363,1,80,10|0,0:0|0:0,0:0:0:0:
279,229,59096,2,0,P|353:257|403:319,1,160,2|8,3:2|0:0,0:0:0:0:
486,376,59409,1,2,0:0:0:0:
486,376,59513,2,0,P|502:330|499:294,1,80,0|0,3:2|3:2,0:0:0:0:
279,229,59721,2,0,P|278:189|293:152,1,80,10|0,0:0|0:0,0:0:0:0:
493,69,59930,6,0,L|414:58,1,80,2|0,3:2|0:0,0:0:0:0:
300,160,60138,1,8,0:0:0:0:
300,160,60242,1,2,0:0:0:0:
300,160,60346,2,0,L|221:149,1,80,0|0,3:2|3:2,0:0:0:0:
512,282,60555,2,0,L|433:271,1,80,10|0,0:0|0:0,0:0:0:0:
250,344,60763,1,2,3:2:0:0:
275,381,60867,1,0,3:2:0:0:
319,373,60971,2,0,L|240:362,1,80,8|0,0:0|3:2,0:0:0:0:
4,223,61180,5,8,0:0:0:0:
65,150,61284,1,8,0:0:0:0:
154,186,61388,1,10,0:0:0:0:
148,281,61492,1,8,2:2:0:0:
55,305,61596,6,0,L|32:57,1,240,6|0,3:2|0:0,0:0:0:0:
215,90,62013,1,0,3:2:0:0:
215,90,62117,1,0,3:2:0:0:
215,90,62221,2,0,P|176:90|140:68,1,80,10|0,0:0|0:0,0:0:0:0:
338,16,62430,2,0,L|318:177,2,160,2|8|0,3:2|0:0|3:2,0:0:0:0:
439,134,62950,1,0,3:2:0:0:
439,134,63055,2,0,P|478:134|514:112,1,80,10|0,0:0|0:0,0:0:0:0:
288,180,63263,6,0,P|228:276|241:323,1,160,2|8,3:2|0:0,0:0:0:0:
421,233,63575,1,2,0:0:0:0:
421,233,63680,2,0,P|398:200|360:178,1,80,0|0,3:2|3:2,0:0:0:0:
419,384,63888,2,0,P|436:347|436:303,1,80,10|0,0:0|0:0,0:0:0:0:
432,56,64096,5,10,0:0:0:0:
406,122,64200,1,8,0:0:0:0:
364,179,64304,1,8,0:0:0:0:
309,224,64408,1,8,0:0:0:0:
244,254,64512,1,8,0:0:0:0:
173,265,64616,1,8,3:0:0:0:
103,259,64720,1,4,3:0:0:0:
432,56,64930,5,10,0:0:0:0:
432,56,65346,1,10,0:0:0:0:
512,340,65763,6,0,P|334:237|177:245,2,360.000013732911,10|10|10,3:2|0:0|0:0,0:0:0:0:
63,138,67638,5,2,3:2:0:0:
63,138,67742,1,2,3:2:0:0:
63,138,67846,2,0,L|75:47,1,80,10|6,0:0|3:2,0:0:0:0:
376,137,74930,5,4,3:2:0:0:
376,137,75138,2,0,L|368:193,1,40,2|0,0:0|0:0,0:0:0:0:
466,99,75346,2,0,L|452:190,1,80,2|2,3:2|1:2,0:0:0:0:
421,31,75763,2,0,P|435:24|458:18,1,40,2|0,3:2|0:0,0:0:0:0:
376,137,75971,1,0,1:2:0:0:
376,137,76075,2,0,L|281:122,1,80,2|0,0:0|0:0,0:0:0:0:
235,73,76388,1,0,1:2:0:0:
218,108,76492,1,0,0:0:0:0:
219,148,76596,1,0,3:2:0:0:
136,247,76805,6,0,L|144:191,1,40,2|0,1:2|0:0,0:0:0:0:
46,285,77013,2,0,L|60:194,1,80,2|2,3:2|1:2,0:0:0:0:
91,353,77430,2,0,P|62:366|12:360,1,80,2|2,3:2|1:2,0:0:0:0:
136,247,77742,2,0,L|231:262,1,80,2|0,0:0|0:0,0:0:0:0:
277,311,78055,1,0,1:2:0:0:
277,311,78263,6,0,P|296:266|289:224,1,80,2|2,3:2|1:2,0:0:0:0:
218,148,78575,1,2,0:0:0:0:
218,148,78680,2,0,P|217:108|235:73,1,80,0|0,3:2|1:2,0:0:0:0:
450,345,79096,2,0,P|469:300|462:258,1,80,2|2,3:2|1:2,0:0:0:0:
391,182,79408,1,2,0:0:0:0:
391,182,79513,2,0,P|370:133|494:160,1,280.000002670288,8|0,2:2|0:0,0:0:0:0:
467,270,79930,6,0,L|462:231,2,40,2|0|2,0:0|0:0|0:0,0:0:0:0:
141,268,81180,5,8,0:0:0:0:
109,218,81284,1,8,0:0:0:0:
146,172,81389,1,8,0:0:0:0:
201,194,81493,1,8,0:0:0:0:
232,281,81596,6,0,L|162:272,1,70.000000667572,0|0,3:2|0:0,0:0:0:0:
270,114,81805,2,0,P|284:150|308:172,1,70.000000667572,10|0,2:2|0:0,0:0:0:0:
433,123,82013,1,2,3:2:0:0:
433,123,82117,1,0,3:2:0:0:
433,123,82221,2,0,P|438:84|429:53,1,70.000000667572,10|0,0:0|0:0,0:0:0:0:
458,224,82430,2,0,L|310:203,1,140.000001335144,2|10,3:2|0:0,0:0:0:0:
213,307,82742,1,2,0:0:0:0:
213,307,82846,2,0,P|245:286|282:282,1,70.000000667572,0|0,3:2|3:2,0:0:0:0:
116,244,83055,2,0,P|118:282|103:316,1,70.000000667572,8|0,0:0|0:0,0:0:0:0:
219,191,83263,6,0,B|200:52,1,140.000001335144,0|10,3:2|0:0,0:0:0:0:
319,204,83575,1,0,0:0:0:0:
319,204,83680,2,0,B|308:125,1,70.000000667572,2|0,3:2|3:2,0:0:0:0:
206,278,83888,2,0,B|195:199,1,70.000000667572,10|0,0:0|0:0,0:0:0:0:
362,360,84096,2,0,B|343:221,1,140.000001335144,2|8,3:2|0:0,0:0:0:0:
393,151,84409,1,2,0:0:0:0:
393,151,84513,2,0,P|423:169|463:174,1,70.000000667572,0|0,3:2|3:2,0:0:0:0:
504,40,84721,2,0,P|473:56|449:89,1,70.000000667572,8|0,0:0|0:0,0:0:0:0:
350,229,84930,5,0,3:2:0:0:
350,229,85034,1,0,3:0:0:0:
350,229,85138,2,0,P|328:256|297:272,1,70.000000667572,10|0,0:0|0:0,0:0:0:0:
181,221,85346,2,0,P|168:188|170:153,1,70.000000667572,2|0,3:2|3:2,0:0:0:0:
55,264,85555,2,0,P|79:290|111:305,1,70.000000667572,10|0,0:0|0:0,0:0:0:0:
155,127,85763,6,0,L|16:113,1,140.000001335144,2|8,3:2|0:0,0:0:0:0:
334,65,86075,2,0,P|273:111|265:174,1,140.000001335144,2|0,0:0|3:2,0:0:0:0:
339,254,86388,2,0,P|379:256|423:238,1,70.000000667572,10|0,0:0|0:0,0:0:0:0:
450,67,86596,5,2,3:2:0:0:
467,158,86735,2,0,L|449:66,1,93.3333342234294,2|2,0:0|0:0,0:0:0:0:
240,191,87013,5,2,3:2:0:0:
223,282,87152,2,0,L|240:190,1,93.3333342234294,2|2,0:0|0:0,0:0:0:0:
383,250,87430,5,2,3:2:0:0:
361,287,87534,1,2,3:2:0:0:
361,330,87638,1,10,0:0:0:0:
382,367,87742,1,2,0:0:0:0:
443,309,87846,1,10,2:1:0:0:
465,272,87950,1,8,0:0:0:0:
465,229,88055,2,0,L|473:184,3,35.000000333786,10|0|8|0,0:0|0:0|0:0|0:0,0:0:0:0:
505,157,88263,6,0,P|401:223|334:225,2,192,6|0|2,3:2|3:2|3:2,0:0:0:0:
398,130,88992,1,0,3:2:0:0:
398,130,89096,2,0,P|409:75|465:70,2,120,10|0|2,1:2|1:2|1:2,0:0:0:0:
184,279,89930,6,0,L|156:101,2,180.000006866455,2|2|2,3:2|3:2|3:2,0:0:0:0:
136,182,90659,1,0,3:2:0:0:
136,182,90763,2,0,L|184:279,2,107.999996704102,10|0|0,1:2|1:2|1:2,0:0:0:0:
436,257,91596,6,0,P|345:301|308:392,2,192,2|0|2,3:2|3:2|3:2,0:0:0:0:
395,363,92325,1,0,3:2:0:0:
395,363,92430,2,0,P|431:316|436:257,2,120,10|0|2,1:2|1:2|1:2,0:0:0:0:
236,158,93263,6,0,L|364:143,1,120.000004577637,2|2,3:2|0:0,0:0:0:0:
283,47,93575,2,0,L|236:158,1,120.000004577637,2|0,3:2|0:0,0:0:0:0:
437,144,93888,2,0,P|434:115|409:84,1,60.0000022888184,2|0,3:2|0:0,0:0:0:0:
355,144,94096,6,0,B|236:158|236:158|260:102,1,160,8|2,0:0|3:2,0:0:0:0:
283,47,94409,1,0,0:0:0:0:
236,158,94513,1,10,0:0:0:0:
220,197,94617,1,8,0:0:0:0:
204,236,94721,1,8,0:0:0:0:
165,220,94825,1,8,0:0:0:0:
126,204,94930,6,0,L|281:172,1,140.000001335144,0|10,3:2|0:0,0:0:0:0:
348,241,95242,1,0,0:0:0:0:
330,258,95346,2,0,P|316:302|320:341,1,70.000000667572,2|0,3:2|3:2,0:0:0:0:
346,157,95555,1,10,2:2:0:0:
421,193,95659,2,0,P|474:248|492:322,1,140.000001335144,2|0,0:0|0:0,0:0:0:0:
346,157,95971,2,0,B|361:126|361:126|353:84,1,70.000000667572,10|0,0:0|0:0,0:0:0:0:
233,75,96180,2,0,B|218:106|218:106|225:141,1,70.000000667572,2|0,3:2|3:2,0:0:0:0:
429,56,96388,2,0,P|408:28|378:12,1,70.000000667572,10|0,0:0|0:0,0:0:0:0:
225,141,96596,6,0,L|73:163,1,140.000001335144,0|10,3:2|0:0,0:0:0:0:
281,229,96909,1,0,0:0:0:0:
255,231,97013,2,0,L|178:242,1,70.000000667572,2|0,3:2|3:2,0:0:0:0:
86,161,97221,1,10,0:0:0:0:
25,217,97325,2,0,P|23:309|64:339,1,140.000001335144,2|0,0:0|0:0,0:0:0:0:
248,328,97638,2,0,L|171:339,1,70.000000667572,10|0,0:0|0:0,0:0:0:0:
281,229,97846,2,0,L|309:156,1,70.000000667572,2|0,3:2|3:2,0:0:0:0:
350,307,98055,2,0,L|398:368,1,70.000000667572,10|0,0:0|0:0,0:0:0:0:
506,147,98263,6,0,P|455:210|389:209,1,140.000001335144,0|10,3:2|0:0,0:0:0:0:
307,164,98575,1,0,0:0:0:0:
287,142,98680,2,0,P|283:95|304:58,1,70.000000667572,2|0,3:2|3:2,0:0:0:0:
201,212,98888,2,0,P|158:191|136:155,1,70.000000667572,10|0,0:0|0:0,0:0:0:0:
40,43,99096,2,0,L|181:52,1,140.000001335144,2|8,3:2|0:0,0:0:0:0:
332,51,99409,1,2,0:0:0:0:
332,51,99513,2,0,L|472:43,1,140.000001335144,0|10,3:2|0:0,0:0:0:0:
161,150,99930,6,0,P|129:215|143:290,1,140.000001335144,2|8,3:2|0:0,0:0:0:0:
374,279,100242,2,0,P|382:211|351:150,1,140.000001335144,2|0,0:0|3:2,0:0:0:0:
256,280,100555,2,0,L|256:368,1,70.000000667572,10|0,0:0|0:0,0:0:0:0:
161,150,100763,5,2,3:2:0:0:
161,150,100867,1,0,3:2:0:0:
161,150,100971,1,8,0:0:0:0:
161,150,101075,1,0,3:2:0:0:
161,150,101180,5,8,2:2:0:0:
197,120,101284,1,8,2:2:0:0:
241,134,101388,1,8,0:0:0:0:
277,105,101492,1,8,0:0:0:0:
321,118,101596,1,4,3:2:0:0:
323,127,101805,5,8,0:0:0:0:
275,96,101909,1,8,0:0:0:0:
243,143,102013,1,8,0:0:0:0:
195,111,102117,1,8,0:0:0:0:
163,159,102221,1,4,3:2:0:0:
165,168,102430,5,8,0:0:0:0:
193,102,102534,1,8,0:0:0:0:
245,152,102638,1,8,0:0:0:0:
273,87,102742,1,8,0:0:0:0:
325,136,102846,2,0,B|413:94|413:94|470:127|470:127|425:303,1,327.600001249695,4|0,3:2|0:0,0:0:0:0:
429,286,103263,6,0,B|364:306|364:306|298:241,1,140.000001335144,8|0,3:2|0:0,0:0:0:0:
96,126,103575,2,0,B|169:148|169:148|242:76,1,180.000006866455,8|0,3:2|0:0,0:0:0:0:
237,306,103888,2,0,P|222:267|229:221,1,70.000000667572,8|0,3:2|0:0,0:0:0:0:
325,136,104096,6,0,B|413:94|413:94|470:127|470:127|429:286|429:286|364:306|364:306|298:241,1,468.800010372315,8|0,3:2|0:0,0:0:0:0:
311,254,104930,6,0,P|252:292|200:288,1,111.999996582031,6|0,3:2|1:2,0:0:0:0:
133,232,105242,1,2,1:2:0:0:
133,232,105346,2,0,P|192:194|244:198,1,111.999996582031,8|2,0:0|1:2,0:0:0:0:
226,5,105763,2,0,P|240:73|280:107,1,111.999996582031,2|0,3:2|1:2,0:0:0:0:
431,22,106075,1,2,1:2:0:0:
431,22,106180,2,0,P|365:0|315:17,1,111.999996582031,8|2,0:0|1:2,0:0:0:0:
439,246,106596,6,0,P|373:268|323:251,1,111.999996582031,2|2,3:2|1:2,0:0:0:0:
274,191,106909,1,2,1:2:0:0:
253,213,107013,2,0,P|243:245|244:278,1,55.9999982910157,8|0,0:0|0:0,0:0:0:0:
152,348,107221,2,0,P|146:321|134:296,1,55.9999982910157,2|0,1:2|0:0,0:0:0:0:
58,152,107430,2,0,P|122:207|113:90,1,256,2|8,3:2|0:0,0:0:0:0:
398,22,108055,1,2,1:2:0:0:
398,22,108263,6,0,B|349:52|349:52|292:42,1,111.999996582031,2|0,3:2|1:2,0:0:0:0:
462,167,108575,1,2,1:2:0:0:
462,167,108680,2,0,B|413:137|413:137|356:147,1,111.999996582031,8|2,0:0|1:2,0:0:0:0:
231,319,109096,2,0,P|259:258|245:206,1,111.999996582031,2|0,3:2|1:2,0:0:0:0:
144,191,109409,1,2,1:2:0:0:
144,191,109513,2,0,P|117:240|125:295,1,111.999996582031,8|2,0:0|1:2,0:0:0:0:
319,384,109930,6,0,P|365:355|387:304,1,111.999996582031,2|0,3:2|1:2,0:0:0:0:
448,211,110242,1,2,1:2:0:0:
428,196,110346,2,0,P|416:171|412:143,1,55.9999982910157,8|0,0:0|0:0,0:0:0:0:
493,35,110555,2,0,P|505:60|509:88,1,55.9999982910157,2|0,1:2|0:0,0:0:0:0:
313,97,110763,2,0,L|182:87,1,128,2|0,3:2|1:2,0:0:0:0:
73,59,111075,1,0,1:2:0:0:
112,136,111180,6,2,B|93:118|99:85|99:85|114:68|114:68|116:19|149:-8|149:-8|119:49|137:145|207:176,1,363.999983337403,10|0,2:1|0:0,2:1:0:0:
95,257,111596,6,0,P|143:211|207:193,1,111.999996582031,2|0,3:2|1:2,0:0:0:0:
284,273,111909,1,0,1:2:0:0:
284,273,112013,2,0,P|286:328|266:380,1,111.999996582031,8|2,0:0|1:2,0:0:0:0:
512,163,112430,2,0,B|456:174|456:174|405:142,1,111.999996582031,2|0,3:2|1:2,0:0:0:0:
343,38,112742,1,0,1:2:0:0:
343,38,112846,2,0,B|287:26|287:26|236:58,1,111.999996582031,8|2,0:0|1:2,0:0:0:0:
163,209,113263,6,0,P|177:281|154:328,1,111.999996582031,2|0,3:2|1:2,0:0:0:0:
77,376,113575,1,2,1:2:0:0:
47,365,113680,2,0,P|30:336|26:302,1,55.9999982910157,8|0,0:0|0:0,0:0:0:0:
60,227,113888,2,0,P|66:199|81:176,1,55.9999982910157,2|0,1:2|0:0,0:0:0:0:
188,74,114096,6,0,L|258:85,1,55.9999982910157,2|0,3:2|0:0,0:0:0:0:
125,15,114305,2,0,L|69:6,1,55.9999982910157,2|0,1:2|1:2,0:0:0:0:
302,149,114513,2,0,L|357:140,1,55.9999982910157,10|0,0:0|0:0,0:0:0:0:
239,208,114721,2,0,L|169:219,1,55.9999982910157,2|0,1:2|0:0,0:0:0:0:
311,348,114930,6,0,L|323:233,1,111.999996582031,2|2,3:2|1:2,0:0:0:0:
417,382,115242,1,2,1:2:0:0:
417,382,115346,2,0,L|429:267,1,111.999996582031,8|2,0:0|1:2,0:0:0:0:
493,63,115763,2,0,P|449:105|389:110,1,111.999996582031,2|0,3:2|1:2,0:0:0:0:
264,109,116075,1,2,1:2:0:0:
264,109,116180,2,0,P|220:67|160:62,1,111.999996582031,8|2,0:0|1:2,0:0:0:0:
49,180,116492,1,8,0:0:0:0:
49,180,116596,6,0,L|188:158,1,128,2|0,3:2|1:2,0:0:0:0:
264,109,116909,1,2,3:2:0:0:
218,253,117013,2,0,P|243:233|260:206,1,64,8|0,0:0|0:0,0:0:0:0:
121,252,117221,1,2,3:2:0:0:
125,283,117325,1,8,0:0:0:0:
139,312,117429,5,2,3:2:0:0:
214,266,117534,1,8,0:0:0:0:
301,263,117638,1,10,0:0:0:0:
378,304,117742,1,8,0:0:0:0:
433,372,117846,5,10,0:0:0:0:
455,340,117950,1,8,3:0:0:0:
481,345,118055,1,6,3:0:0:0:
484,329,118159,1,12,3:0:0:0:
478,318,118263,6,0,P|431:238|447:171,1,160,6|8,3:2|0:0,0:0:0:0:
405,20,118575,1,2,0:0:0:0:
398,50,118680,2,0,P|366:94|329:108,1,80,0|0,3:2|3:2,0:0:0:0:
286,221,118888,2,0,P|231:215|201:190,1,80,10|0,0:0|0:0,0:0:0:0:
56,99,119096,2,0,L|214:76,1,160,2|8,3:2|0:0,0:0:0:0:
23,208,119409,1,2,0:0:0:0:
23,208,119513,2,0,L|102:196,1,80,0|0,3:2|3:2,0:0:0:0:
193,62,119721,2,0,L|272:50,1,80,10|0,0:0|0:0,0:0:0:0:
428,154,119930,6,0,P|403:188|402:230,1,80,2|0,3:2|0:0,0:0:0:0:
207,262,120138,1,10,0:0:0:0:
240,266,120242,2,0,B|294:304|293:363|293:363|267:356|253:329,1,160,2|0,0:0|3:2,0:0:0:0:
117,278,120555,2,0,P|120:238|140:204,1,80,10|0,0:0|0:0,0:0:0:0:
204,14,120763,2,0,L|225:177,2,160,2|8|0,3:2|0:0|3:2,0:0:0:0:
42,215,121284,1,0,3:2:0:0:
42,215,121388,2,0,P|25:208|16:197,1,30,8|0,0:0|0:0,0:0:0:0:
74,146,121596,6,0,P|37:207|24:313,1,160,2|8,3:2|0:0,0:0:0:0:
125,384,121909,1,2,0:0:0:0:
147,356,122013,2,0,P|145:310|124:267,1,80,0|0,3:2|3:2,0:0:0:0:
210,187,122221,2,0,P|250:191|289:183,1,80,10|0,0:0|0:0,0:0:0:0:
409,300,122430,2,0,P|399:221|431:149,1,160,2|8,3:2|0:0,0:0:0:0:
498,89,122742,1,2,0:0:0:0:
498,89,122846,2,0,P|455:61|419:59,1,80,0|0,3:2|3:2,0:0:0:0:
218,151,123055,2,0,P|249:175|288:182,1,80,10|0,0:0|0:0,0:0:0:0:
132,373,123263,6,0,L|117:278,1,80,2|0,3:2|0:0,0:0:0:0:
20,221,123471,1,8,0:0:0:0:
20,221,123575,1,2,0:0:0:0:
20,221,123680,2,0,L|5:126,1,80,0|0,3:2|3:2,0:0:0:0:
300,261,123888,2,0,L|285:166,1,80,10|0,0:0|0:0,0:0:0:0:
135,45,124096,1,2,3:2:0:0:
144,91,124200,1,0,3:2:0:0:
188,109,124305,2,0,L|173:14,1,80,8|0,0:0|3:2,0:0:0:0:
463,158,124513,5,8,0:0:0:0:
507,86,124617,1,8,0:0:0:0:
452,23,124721,1,10,0:0:0:0:
374,56,124825,1,8,2:2:0:0:
382,140,124930,6,0,B|442:159|442:159|465:339,1,240,6|0,3:2|0:0,0:0:0:0:
352,290,125346,1,0,3:2:0:0:
352,290,125450,1,0,3:2:0:0:
352,290,125555,2,0,P|317:316|277:321,1,80,10|0,0:0|0:0,0:0:0:0:
37,343,125763,2,0,P|89:337|195:403,2,160,2|8|0,3:2|0:0|3:2,0:0:0:0:
190,258,126284,1,0,3:2:0:0:
190,258,126388,2,0,P|215:210|213:174,1,80,10|0,0:0|0:0,0:0:0:0:
16,94,126596,6,0,P|33:160|124:187,1,160,2|8,3:2|0:0,0:0:0:0:
172,20,126909,1,2,0:0:0:0:
172,20,127013,2,0,L|159:111,1,80,0|0,3:2|3:2,0:0:0:0:
279,324,127221,2,0,L|290:244,1,80,10|0,0:0|0:0,0:0:0:0:
426,0,127430,5,10,0:0:0:0:
360,35,127534,1,8,0:0:0:0:
372,109,127638,1,8,0:0:0:0:
384,183,127742,1,8,0:0:0:0:
396,257,127846,1,8,0:0:0:0:
466,283,127950,1,8,3:0:0:0:
512,224,128055,1,4,3:0:0:0:
426,0,128263,5,10,0:0:0:0:
426,0,128680,1,10,0:0:0:0:
173,223,129096,6,0,B|213:248|213:248|474:196|474:196|519:229,2,360.000013732911,10|10|10,3:2|0:0|0:0,0:0:0:0:
52,71,130971,5,2,3:2:0:0:
52,71,131075,1,2,3:2:0:0:
52,71,131180,2,0,L|121:55,1,70,10|0,0:0|0:0,0:0:0:0:
212,12,131596,6,0,P|215:118|276:151,1,151.999995941162,6|10,3:2|0:0,0:0:0:0:
365,168,131909,1,2,0:0:0:0:
392,152,132013,2,0,P|413:111|411:68,1,75.9999979705811,0|2,3:2|3:2,0:0:0:0:
149,263,132221,2,0,P|260:262|429:389,1,303.999991882324,10|8,0:0|0:0,0:0:0:0:
415,366,132742,1,0,0:0:0:0:
422,373,132846,2,0,P|428:327|448:291,1,75.9999979705811,0|0,3:2|3:2,0:0:0:0:
437,148,133055,2,0,P|394:165|352:166,1,75.9999979705811,10|0,0:0|0:0,0:0:0:0:
223,41,133263,6,0,L|387:49,1,151.999995941162,2|10,3:2|0:0,0:0:0:0:
155,126,133575,1,2,0:0:0:0:
129,111,133680,2,0,B|93:96|93:96|51:106,1,75.9999979705811,0|2,3:2|3:2,0:0:0:0:
0,306,133888,2,0,L|306:275,1,303.999991882324,10|8,0:0|0:0,0:0:0:0:
302,275,134409,1,0,0:0:0:0:
309,283,134513,1,0,3:2:0:0:
325,317,134617,1,0,3:2:0:0:
354,341,134721,1,10,0:0:0:0:
390,350,134825,1,0,0:0:0:0:
427,344,134930,6,0,P|464:260|444:193,1,151.999995941162,2|8,3:2|0:0,0:0:0:0:
237,92,135242,2,0,P|291:166|359:182,1,151.999995941162,2|0,0:0|3:2,0:0:0:0:
507,1,135555,2,0,P|386:89|236:91,1,303.999991882324,10|8,0:0|0:0,0:0:0:0:
236,91,136075,1,0,0:0:0:0:
242,98,136180,2,0,B|218:85|207:69|207:69|266:68|294:144,1,151.999995941162,2|8,3:2|0:0,0:0:0:0:
292,204,136492,1,0,0:0:0:0:
265,276,136596,2,0,P|206:336|139:356,1,151.999995941162,2|8,3:2|0:0,0:0:0:0:
42,353,136909,1,0,0:0:0:0:
48,330,137013,2,0,P|71:292|115:266,1,75.9999979705811,0|0,3:2|3:2,0:0:0:0:
77,169,137221,2,0,P|121:169|165:195,1,75.9999979705811,8|0,0:0|0:0,0:0:0:0:
419,274,137430,5,8,0:0:0:0:
408,221,137534,1,8,0:0:0:0:
367,188,137638,1,8,0:0:0:0:
314,189,137743,1,8,0:0:0:0:
274,224,137847,1,8,0:0:0:0:
265,276,137951,1,8,0:0:0:0:
293,322,138055,1,8,0:0:0:0:
343,339,138159,1,8,0:0:0:0:
341,262,138263,6,0,P|347:154|356:111,1,151.999995941162,6|10,3:2|0:0,0:0:0:0:
502,21,138575,1,2,0:0:0:0:
503,48,138680,2,0,P|500:101|495:123,1,75.9999979705811,0|2,3:2|3:2,0:0:0:0:
283,14,138888,2,0,B|203:-19|135:34|145:61|74:114|3:86,1,303.999991882324,10|8,0:0|0:0,0:0:0:0:
4,86,139409,1,0,0:0:0:0:
13,94,139513,2,0,P|42:55|80:38,1,75.9999979705811,0|0,3:2|3:2,0:0:0:0:
58,203,139721,2,0,P|95:210|132:203,1,75.9999979705811,10|0,0:0|0:0,0:0:0:0:
250,159,139930,6,0,P|247:245|200:313,1,151.999995941162,2|10,3:2|0:0,0:0:0:0:
47,364,140242,1,2,0:0:0:0:
47,364,140346,2,0,P|82:338|124:327,1,75.9999979705811,0|2,3:2|3:2,0:0:0:0:
337,351,140555,2,0,P|438:364|361:243,1,303.999991882324,10|8,0:0|0:0,0:0:0:0:
381,236,141075,1,0,0:0:0:0:
381,236,141180,1,0,3:2:0:0:
352,232,141284,1,0,3:2:0:0:
331,202,141388,1,8,0:0:0:0:
339,166,141492,1,0,0:0:0:0:
371,148,141596,6,0,P|382:68|355:-20,1,151.999995941162,2|8,3:2|0:0,0:0:0:0:
150,223,141909,2,0,P|139:303|166:391,1,151.999995941162,2|0,0:0|3:2,0:0:0:0:
206,134,142221,2,0,P|173:117|133:115,1,75.9999979705811,10|0,0:0|0:0,0:0:0:0:
0,247,142430,2,0,L|174:220,1,151.999995941162,2|8,3:2|0:0,0:0:0:0:
29,121,142742,1,2,0:0:0:0:
29,121,142846,2,0,L|179:97,1,151.999995941162,0|10,3:2|0:0,0:0:0:0:
473,349,143263,6,0,B|539:158|335:192|402:-2,1,379.999989852906,2|0,3:2|3:2,0:0:0:0:
496,28,143888,2,0,P|510:66|509:109,1,75.9999979705811,8|0,0:0|0:0,0:0:0:0:
368,259,144096,1,8,0:0:0:0:
313,243,144200,1,8,0:0:0:0:
260,261,144304,1,10,0:0:0:0:
227,306,144408,1,8,0:0:0:0:
193,351,144513,1,10,0:0:0:0:
140,369,144617,1,8,3:0:0:0:
86,353,144721,2,0,L|76:293,1,50,6|0,3:0|0:0,0:0:0:0:
48,104,144930,6,0,P|10:176|89:164,2,192,6|0|2,3:2|3:2|3:2,0:0:0:0:
186,191,145659,1,0,3:2:0:0:
186,191,145763,2,0,P|181:132|145:86,2,120,10|0|2,1:2|1:2|1:2,0:0:0:0:
418,0,146596,6,0,P|370:88|367:167,2,180.000006866455,2|2|2,3:2|3:2|3:2,0:0:0:0:
457,97,147325,1,0,3:2:0:0:
457,97,147430,2,0,P|446:44|418:0,2,107.999996704102,10|0|0,1:2|1:2|1:2,0:0:0:0:
323,304,148263,6,0,L|536:271,2,192,2|0|2,3:2|3:2|3:2,0:0:0:0:
434,259,148992,1,0,3:2:0:0:
434,259,149096,2,0,L|323:304,2,120,10|0|2,1:2|1:2|1:2,0:0:0:0:
106,154,149930,6,0,P|153:159|218:209,1,120.000004577637,2|2,3:2|0:0,0:0:0:0:
139,264,150242,2,0,P|108:213|106:154,1,120.000004577637,2|0,3:2|0:0,0:0:0:0:
292,217,150555,2,0,P|275:254|248:273,1,60.0000022888184,2|0,3:2|0:0,0:0:0:0:
139,264,150763,6,0,B|108:234|98:192|106:154|106:154|106:154|106:154|153:150|195:173|218:209,1,240.000009155274,8|0,0:0|0:0,0:0:0:0:
324,77,151180,1,10,0:0:0:0:
299,119,151284,1,8,0:0:0:0:
287,168,151388,1,8,0:0:0:0:
292,217,151492,1,8,0:0:0:0:
311,265,151596,6,0,P|390:300|466:294,1,140.000001335144,0|10,3:2|0:0,0:0:0:0:
213,242,151909,1,0,0:0:0:0:
211,272,152013,2,0,P|218:302|241:337,1,70.000000667572,2|0,3:2|3:2,0:0:0:0:
287,168,152221,1,10,2:2:0:0:
231,108,152325,2,0,P|152:73|76:79,1,140.000001335144,2|0,0:0|0:0,0:0:0:0:
39,187,152638,2,0,P|56:229|79:255,1,70.000000667572,10|0,0:0|0:0,0:0:0:0:
185,254,152846,2,0,P|190:220|206:189,1,70.000000667572,2|0,3:2|3:2,0:0:0:0:
322,308,153055,2,0,P|280:325|254:348,1,70.000000667572,10|0,0:0|0:0,0:0:0:0:
475,384,153263,6,0,P|440:315|435:238,1,140.000001335144,0|10,3:2|0:0,0:0:0:0:
379,176,153575,1,0,0:0:0:0:
384,144,153680,2,0,P|396:110|421:75,1,70.000000667572,2|0,3:2|3:2,0:0:0:0:
300,222,153888,1,10,0:0:0:0:
233,179,153992,2,0,P|207:113|207:33,1,140.000001335144,2|0,0:0|0:0,0:0:0:0:
122,197,154305,2,0,P|86:182|47:176,1,70.000000667572,10|0,0:0|0:0,0:0:0:0:
180,306,154513,2,0,P|210:282|235:251,1,70.000000667572,2|0,3:2|3:2,0:0:0:0:
56,301,154721,2,0,P|61:339|75:376,1,70.000000667572,10|0,0:0|0:0,0:0:0:0:
319,322,154930,6,0,L|166:304,1,140.000001335144,0|10,3:2|0:0,0:0:0:0:
369,230,155242,1,0,0:0:0:0:
369,230,155346,2,0,L|292:221,1,70.000000667572,2|0,3:2|3:2,0:0:0:0:
399,354,155555,2,0,L|322:345,1,70.000000667572,10|0,0:0|0:0,0:0:0:0:
506,258,155763,2,0,P|467:199|464:124,1,140.000001335144,2|8,3:2|0:0,0:0:0:0:
312,0,156075,1,2,0:0:0:0:
312,0,156180,2,0,P|351:59|354:134,1,140.000001335144,0|10,3:2|0:0,0:0:0:0:
184,264,156596,6,0,P|118:238|72:178,1,140.000001335144,2|8,3:2|0:0,0:0:0:0:
116,77,156909,2,0,P|185:66|255:95,1,140.000001335144,2|0,0:0|3:2,0:0:0:0:
28,102,157221,2,0,P|28:48|46:18,1,70.000000667572,10|0,0:0|0:0,0:0:0:0:
264,199,157430,5,2,3:2:0:0:
264,199,157534,1,0,3:2:0:0:
264,199,157638,1,8,0:0:0:0:
264,199,157742,1,0,3:2:0:0:
264,199,157846,5,8,2:2:0:0:
308,177,157951,1,8,2:2:0:0:
342,213,158055,1,8,0:0:0:0:
319,256,158159,1,8,0:0:0:0:
271,248,158263,1,4,3:2:0:0:
263,255,158471,5,8,0:0:0:0:
323,265,158575,1,8,0:0:0:0:
352,212,158680,1,8,0:0:0:0:
310,166,158784,1,8,0:0:0:0:
254,193,158888,1,4,3:2:0:0:
244,187,159096,5,8,0:0:0:0:
312,155,159200,1,8,0:0:0:0:
362,211,159305,1,8,0:0:0:0:
327,274,159409,1,8,0:0:0:0:
255,262,159513,2,0,P|206:161|-4:94,1,327.600001249695,4|0,3:2|0:0,0:0:0:0:
13,90,159930,6,0,P|60:181|100:205,1,140.000001335144,8|0,3:2|0:0,0:0:0:0:
255,262,160242,2,0,P|246:163|194:97,1,180.000006866455,8|0,3:2|0:0,0:0:0:0:
52,284,160555,2,0,P|113:289|126:285,1,70.000000667572,8|0,3:2|0:0,0:0:0:0:
255,262,160763,6,0,P|206:161|-4:94,1,327.600001249695,8|0,3:2|3:2,0:0:0:0:
89,200,161075,1,0,3:2:0:0:
198,100,161180,1,8,0:0:0:0:
198,100,161596,6,0,P|245:72|311:74,1,111.999996582031,6|0,3:2|1:2,0:0:0:0:
395,0,161909,1,2,1:2:0:0:
395,0,162013,2,0,P|442:28|508:26,1,111.999996582031,8|2,0:0|1:2,0:0:0:0:
275,174,162430,2,0,L|290:286,1,111.999996582031,2|0,3:2|1:2,0:0:0:0:
400,126,162742,1,2,1:2:0:0:
400,126,162846,2,0,L|415:238,1,111.999996582031,8|2,0:0|1:2,0:0:0:0:
153,225,163263,6,0,L|168:337,1,111.999996582031,2|2,3:2|1:2,0:0:0:0:
66,243,163575,1,2,1:2:0:0:
63,215,163680,2,0,P|70:187|88:163,1,55.9999982910157,8|0,0:0|0:0,0:0:0:0:
208,153,163888,2,0,P|228:173|240:200,1,55.9999982910157,2|0,1:2|0:0,0:0:0:0:
80,34,164096,2,0,P|186:108|327:107,1,256,2|8,3:2|0:0,0:0:0:0:
485,12,164721,1,2,1:2:0:0:
485,12,164930,6,0,B|459:60|459:60|474:132,1,111.999996582031,2|0,3:2|1:2,0:0:0:0:
387,192,165242,1,2,1:2:0:0:
387,192,165346,2,0,B|413:240|413:240|398:312,1,111.999996582031,8|2,0:0|1:2,0:0:0:0:
193,384,165763,2,0,B|167:336|167:336|182:264,1,111.999996582031,2|0,3:2|1:2,0:0:0:0:
95,204,166075,1,2,1:2:0:0:
95,204,166179,2,0,B|121:156|121:156|106:84,1,111.999996582031,8|2,0:0|1:2,0:0:0:0:
79,319,166596,6,0,P|134:313|178:279,1,111.999996582031,2|0,3:2|1:2,0:0:0:0:
256,193,166909,1,2,1:2:0:0:
278,188,167013,2,0,P|309:193|347:214,1,55.9999982910157,8|0,0:0|0:0,0:0:0:0:
348,334,167221,2,0,P|317:329|279:308,1,55.9999982910157,2|0,1:2|0:0,0:0:0:0:
474,274,167430,2,0,L|503:141,1,128,2|0,3:2|1:2,0:0:0:0:
368,103,167742,1,0,1:2:0:0:
417,177,167846,6,2,B|395:165|386:132|386:132|403:105|403:105|387:62|414:17|414:17|477:13|527:93|498:157,1,363.999983337403,10|0,2:1|2:2,2:1:0:0:
368,103,168263,6,0,P|306:77|247:76,1,111.999996582031,2|0,3:2|1:2,0:0:0:0:
179,182,168575,1,0,1:2:0:0:
179,182,168680,2,0,P|198:234|233:277,1,111.999996582031,8|2,0:0|1:2,0:0:0:0:
56,130,169096,2,0,P|32:180|27:235,1,111.999996582031,2|0,3:2|1:2,0:0:0:0:
134,324,169409,1,0,1:2:0:0:
134,324,169513,2,0,P|187:309|233:277,1,111.999996582031,8|2,0:0|1:2,0:0:0:0:
428,96,169930,6,0,P|368:129|351:173,1,111.999996582031,2|0,3:2|1:2,0:0:0:0:
443,268,170242,1,2,1:2:0:0:
454,243,170346,2,0,P|453:211|441:179,1,55.9999982910157,8|0,0:0|0:0,0:0:0:0:
339,269,170555,2,0,P|340:301|352:333,1,55.9999982910157,2|0,1:2|0:0,0:0:0:0:
197,217,170763,6,0,L|269:203,1,55.9999982910157,2|0,3:2|0:0,0:0:0:0:
193,313,170971,2,0,L|265:299,1,55.9999982910157,2|0,1:2|1:2,0:0:0:0:
64,155,171180,2,0,L|136:169,1,55.9999982910157,10|0,0:0|0:0,0:0:0:0:
60,59,171388,2,0,L|132:73,1,55.9999982910157,2|0,1:2|0:0,0:0:0:0:
335,163,171596,6,0,L|467:139,1,111.999996582031,2|0,3:2|1:2,0:0:0:0:
279,71,171909,1,2,1:2:0:0:
279,71,172013,2,0,L|411:47,1,111.999996582031,8|2,0:0|1:2,0:0:0:0:
191,338,172430,2,0,L|323:314,1,111.999996582031,2|0,3:2|1:2,0:0:0:0:
135,246,172743,1,2,1:2:0:0:
135,246,172847,2,0,L|267:222,1,111.999996582031,8|2,0:0|1:2,0:0:0:0:
429,354,173159,1,8,0:0:0:0:
429,354,173263,6,0,P|464:309|440:223,1,128,2|0,3:2|1:2,0:0:0:0:
351,141,173575,1,0,3:2:0:0:
333,165,173680,2,0,P|336:204|353:230,1,64,8|0,0:0|0:0,0:0:0:0:
406,60,173888,1,2,3:2:0:0:
378,44,173992,1,8,0:0:0:0:
346,43,174096,5,2,3:2:0:0:
284,93,174200,1,8,0:0:0:0:
211,125,174304,1,10,0:0:0:0:
132,135,174408,1,8,0:0:0:0:
53,122,174512,5,10,0:0:0:0:
14,89,174617,1,8,3:0:0:0:
56,77,174721,1,6,3:0:0:0:
44,52,174825,1,12,3:0:0:0:
69,43,174930,6,0,B|103:22|103:22|158:28,1,80,14|0,3:2|0:0,0:0:0:0:
86,206,175138,1,0,3:2:0:0:
86,206,175242,1,2,3:2:0:0:
86,206,175346,2,0,B|52:227|52:227|-3:221,1,80,8|0,0:0|0:0,0:0:0:0:
170,377,175555,5,2,3:2:0:0:
170,377,175659,1,0,3:2:0:0:
170,377,175763,2,0,P|163:345|174:294,1,80,10|0,0:0|0:0,0:0:0:0:
394,145,175971,1,0,3:2:0:0:
438,154,176075,1,2,3:2:0:0:
464,192,176179,1,8,0:0:0:0:
458,237,176283,1,0,3:2:0:0:
423,266,176387,1,2,3:2:0:0:
377,263,176491,1,0,3:2:0:0:
345,231,176596,6,0,L|261:225,1,80,10|0,0:0|0:0,0:0:0:0:
424,361,176805,1,0,3:2:0:0:
424,361,176909,1,2,3:2:0:0:
424,361,177013,2,0,L|340:355,1,80,8|0,0:0|0:0,0:0:0:0:
141,330,177221,5,2,3:2:0:0:
141,330,177325,1,0,3:2:0:0:
141,330,177430,2,0,L|225:324,1,80,10|0,0:0|0:0,0:0:0:0:
394,145,177638,1,0,3:2:0:0:
347,141,177742,1,0,3:2:0:0:
300,138,177846,1,8,0:0:0:0:
254,135,177950,1,0,3:2:0:0:
207,131,178054,1,2,3:2:0:0:
161,128,178158,1,0,3:2:0:0:
114,125,178263,6,0,P|95:86|95:41,1,80,10|0,0:0|0:0,0:0:0:0:
122,240,178471,1,0,3:2:0:0:
122,240,178575,1,2,3:2:0:0:
122,240,178680,2,0,P|79:237|40:214,1,80,8|0,0:0|0:0,0:0:0:0:
210,61,178888,5,2,3:2:0:0:
210,61,178992,1,0,3:2:0:0:
210,61,179096,2,0,P|234:25|273:2,1,80,10|0,0:0|0:0,0:0:0:0:
470,292,179306,1,0,3:2:0:0:
424,287,179409,1,2,3:2:0:0:
382,267,179513,1,8,0:0:0:0:
347,237,179617,1,0,3:2:0:0:
323,197,179721,1,2,3:2:0:0:
311,152,179825,1,0,3:2:0:0:
313,106,179930,6,0,L|396:88,1,80,10|0,0:0|0:0,0:0:0:0:
170,134,180138,1,0,3:2:0:0:
170,134,180242,1,2,3:2:0:0:
170,134,180346,2,0,L|152:52,1,80,8|0,0:0|0:0,0:0:0:0:
198,277,180555,1,2,3:2:0:0:
198,277,180659,1,0,3:2:0:0:
198,277,180763,2,0,L|116:296,1,80,10|0,0:0|0:0,0:0:0:0:
341,249,180971,5,0,3:2:0:0:
341,249,181075,1,0,3:2:0:0:
341,249,181180,1,8,0:0:0:0:
358,326,181284,1,8,2:2:0:0:
437,333,181388,1,10,2:2:0:0:
468,259,181492,1,8,2:2:0:0:
410,208,181596,6,0,P|395:167|393:122,1,80,14|0,0:0|0:0,0:0:0:0:
495,48,181805,1,0,3:2:0:0:
495,48,181909,1,0,3:2:0:0:
495,48,182013,2,0,P|510:89|512:134,1,80,8|0,0:0|0:0,0:0:0:0:
275,149,182221,5,2,3:2:0:0:
275,149,182325,1,0,3:2:0:0:
275,149,182430,2,0,P|278:109|292:72,1,80,10|0,0:0|0:0,0:0:0:0:
400,340,182638,1,0,3:2:0:0:
371,303,182742,1,0,3:2:0:0:
335,273,182846,1,8,0:0:0:0:
294,251,182950,1,0,3:2:0:0:
249,238,183055,1,2,3:2:0:0:
202,235,183159,1,0,3:2:0:0:
156,241,183263,6,0,P|131:282|124:324,1,80,10|0,0:0|0:0,0:0:0:0:
100,108,183471,1,0,3:2:0:0:
100,108,183575,1,2,3:2:0:0:
100,108,183680,2,0,P|148:109|187:94,1,80,8|0,0:0|0:0,0:0:0:0:
13,223,183888,1,2,3:2:0:0:
13,223,183992,1,0,3:2:0:0:
13,223,184096,5,10,0:0:0:0:
75,261,184200,1,8,0:0:0:0:
142,290,184304,1,8,0:0:0:0:
213,310,184408,1,8,0:0:0:0:
285,319,184512,1,8,0:0:0:0:
359,318,184616,1,8,3:0:0:0:
431,306,184720,1,4,3:0:0:0:
13,223,184930,5,10,0:0:0:0:
13,223,185346,1,10,0:0:0:0:
461,37,185763,6,0,P|289:64|141:189,2,360.000013732911,10|10|10,3:2|0:0|0:0,0:0:0:0:
497,255,187638,5,2,3:2:0:0:
497,255,187742,1,2,3:2:0:0:
497,255,187846,2,0,L|423:245,1,70,10|0,0:0|0:0,0:0:0:0:
315,217,188263,6,0,P|358:279|347:354,1,140.000001335144,6|8,3:2|0:0,0:0:0:0:
230,246,188575,1,2,0:0:0:0:
224,225,188680,2,0,P|241:167|265:143,1,70.000000667572,0|0,3:2|3:2,0:0:0:0:
265,42,188888,2,0,P|282:71|310:93,1,70.000000667572,10|0,0:0|0:0,0:0:0:0:
134,23,189096,2,0,P|122:92|145:157,1,140.000001335144,2|8,3:2|0:0,0:0:0:0:
120,263,189409,1,2,0:0:0:0:
91,276,189513,2,0,P|52:268|20:246,1,70.000000667572,0|0,3:2|3:2,0:0:0:0:
167,384,189721,2,0,P|193:354|228:337,1,70.000000667572,10|0,0:0|0:0,0:0:0:0:
269,188,189930,5,2,3:2:0:0:
435,318,190068,1,2,0:0:0:0:
464,109,190207,1,2,0:0:0:0:
344,93,190346,5,2,3:2:0:0:
314,301,190485,1,2,0:0:0:0:
509,222,190624,1,2,0:0:0:0:
464,109,190763,6,0,P|446:52|506:-3,1,140.000001335144,2|8,3:2|0:0,0:0:0:0:
348,97,191075,1,0,0:0:0:0:
348,97,191180,2,0,L|278:92,1,70.000000667572,0|0,3:2|3:2,0:0:0:0:
396,207,191388,2,0,L|326:202,1,70.000000667572,8|0,0:0|0:0,0:0:0:0:
105,259,191596,6,0,P|169:244|206:166,1,140.000001335144,2|8,3:2|0:0,0:0:0:0:
20,295,191909,1,2,0:0:0:0:
20,295,192013,2,0,P|37:325|66:345,1,70.000000667572,0|0,3:2|3:2,0:0:0:0:
115,163,192221,2,0,P|97:132|69:113,1,70.000000667572,10|0,0:0|0:0,0:0:0:0:
272,277,192430,2,0,L|418:258,1,140.000001335144,2|8,3:2|0:0,0:0:0:0:
436,99,192742,1,2,0:0:0:0:
411,108,192846,2,0,P|391:130|377:190,1,70.000000667572,0|0,3:2|3:2,0:0:0:0:
507,246,193055,2,0,P|495:213|473:186,1,70.000000667572,10|0,0:0|0:0,0:0:0:0:
334,49,193263,5,2,3:2:0:0:
174,74,193402,1,2,0:0:0:0:
14,99,193541,1,2,0:0:0:0:
103,0,193680,5,2,3:2:0:0:
128,160,193819,1,2,0:0:0:0:
153,320,193958,1,2,0:0:0:0:
36,342,194096,5,10,0:0:0:0:
61,299,194200,1,8,0:0:0:0:
97,265,194304,1,8,0:0:0:0:
140,241,194408,1,8,0:0:0:0:
194,251,194512,5,8,0:0:0:0:
218,257,194616,1,8,3:0:0:0:
241,262,194721,2,0,P|227:216|226:189,1,70.000000667572,4|0,3:0|0:0,0:0:0:0:
357,153,195346,6,0,B|296:108|321:-2|429:-22|552:50|450:199|435:192|422:186|254:268|370:352|443:396|535:326|496:235|435:207|435:207|295:149|199:223,1,880,6|0,3:2|0:0,0:0:0:0:
