osu file format v14

[General]
AudioFilename: audio.mp3
AudioLeadIn: 0
PreviewTime: 71509
Countdown: 0
SampleSet: Soft
StackLeniency: 0.2
Mode: 0
LetterboxInBreaks: 0
WidescreenStoryboard: 1

[Editor]
Bookmarks: 88206
DistanceSpacing: 1.3
BeatDivisor: 4
GridSize: 4
TimelineZoom: 1.9

[Metadata]
Title:Ano Ko ni Dropkick
TitleUnicode:Ano Ko ni Dropkick
Artist:Aina, Nichika, Miyu, Yurie, Chiaki, Rico and Riho
ArtistUnicode:Aina, Nichika, Miyu, Yurie, Chiaki, Rico and Riho
Creator:OliBomby
Version:Cold-Blooded Machete Murder
Source:
Tags:dropkick on my devil jashin-chan yurine hanazono medusa pekola minos poporon persephone mei tachibana yusa koji beth
BeatmapID:1757899
BeatmapSetID:839779

[Difficulty]
HPDrainRate:5
CircleSize:4
OverallDifficulty:9.7
ApproachRate:9.6
SliderMultiplier:1.4
SliderTickRate:1

[Events]
//Background and Video events
0,0,"Jashin-chan.Dropkick.full.2350615.jpg",0,0
//Break Periods
//Storyboard Layer 0 (Background)
//Storyboard Layer 1 (Fail)
//Storyboard Layer 2 (Pass)
//Storyboard Layer 3 (Foreground)
//Storyboard Sound Samples

[TimingPoints]
4205,260.869565217391,4,2,22,50,1,0
7944,-100,4,2,22,40,0,0
8031,-100,4,2,22,42,0,0
8118,-100,4,2,22,50,0,0
8379,-133.333333333333,4,2,22,50,0,0
9684,-111.111111111111,4,2,22,50,0,0
9945,-95.2380952380952,4,2,22,50,0,0
10205,-83.3333333333333,4,2,22,50,0,0
13988,-66.6666666666667,4,2,22,50,0,0
14184,-66.6666666666667,4,2,22,5,0,0
14249,-66.6666666666667,4,2,22,50,0,0
14640,-83.3333333333333,4,2,22,50,0,0
16075,-66.6666666666667,4,2,22,50,0,0
16466,-100,4,2,22,50,0,0
16988,-76.9230769230769,4,2,22,50,0,0
18684,-58.8235294117647,4,2,22,50,0,0
19988,-100,4,2,22,50,0,0
20771,-58.8235294117647,4,2,22,50,0,0
20901,-50,4,2,22,5,0,0
21031,-100,4,2,22,50,0,0
21814,-50,4,2,22,50,0,0
22858,-58.8235294117647,4,2,22,50,0,0
24162,-100,4,2,22,50,0,0
24945,-50,4,2,22,50,0,0
28075,-58.8235294117647,4,2,22,50,0,0
28988,-71.4285714285714,4,2,22,50,0,0
29184,-71.4285714285714,4,2,22,5,0,0
29249,-100,4,2,22,40,0,0
31336,-83.3333333333333,4,2,22,40,0,0
31988,-100,4,2,22,40,0,0
32640,-90.9090909090909,4,2,22,40,0,0
33292,-100,4,2,22,40,0,0
36553,-66.6666666666667,4,2,22,40,0,0
37466,-58.8235294117647,4,2,22,50,0,0
38510,-66.6666666666667,4,2,22,50,0,0
47510,-58.8235294117647,4,2,22,50,0,0
49075,521.739130434783,4,2,22,30,1,0
49075,-90.9090909090909,4,2,22,30,0,0
49596,-90.9090909090909,4,2,22,10,0,0
49770,-90.9090909090909,4,2,22,15,0,0
49944,-90.9090909090909,4,2,22,20,0,0
50118,-58.8235294117647,4,2,22,27,0,0
50640,-58.8235294117647,4,2,22,27,0,0
50988,-58.8235294117647,4,2,22,30,0,0
51683,-58.8235294117647,4,2,22,27,0,0
52205,-66.6666666666667,4,2,22,30,0,0
54292,-66.6666666666667,4,2,22,27,0,0
54640,-66.6666666666667,4,2,22,30,0,0
56205,-66.6666666666667,4,2,22,10,0,0
56379,-66.6666666666667,4,2,22,30,0,0
56553,-66.6666666666667,4,2,22,13,0,0
56727,-66.6666666666667,4,2,22,15,0,0
56901,-66.6666666666667,4,2,22,30,0,0
57075,-66.6666666666667,4,2,22,17,0,0
57248,-66.6666666666667,4,2,22,20,0,0
57422,-66.6666666666667,4,2,22,30,0,0
57945,-200,4,2,22,30,0,0
58466,-58.8235294117647,4,2,22,27,0,0
59335,-58.8235294117647,4,2,22,30,0,0
60031,-58.8235294117647,4,2,22,27,0,0
60553,-66.6666666666667,4,2,22,30,0,0
61248,-66.6666666666667,4,2,22,15,0,0
61422,-66.6666666666667,4,2,22,30,0,0
61597,-500,4,2,22,25,0,0
62510,-500,4,2,22,5,0,0
62640,260.869565217391,4,2,22,40,1,0
62640,-83.3333333333333,4,2,22,50,0,0
66162,-71.4285714285714,4,2,22,50,0,0
68900,-133.333333333333,4,2,22,50,0,0
69944,-66.6666666666667,4,2,22,50,0,0
70139,-66.6666666666667,4,2,22,5,0,0
70205,-66.6666666666667,4,2,22,50,0,0
70400,-66.6666666666667,4,2,22,5,0,0
70466,-66.6666666666667,4,2,22,50,0,0
70661,-66.6666666666667,4,2,22,5,0,0
70726,-66.6666666666667,4,2,22,50,0,0
70987,-66.6666666666667,4,2,22,35,0,0
71248,-66.6666666666667,4,2,22,50,0,0
72031,-100,4,2,22,60,0,1
84553,-166.666666666667,4,2,22,50,0,0
85531,-166.666666666667,4,2,22,5,0,0
85596,-166.666666666667,4,2,22,40,0,0
85857,-142.857142857143,4,2,22,50,0,0
86639,-76.9230769230769,4,2,22,50,0,0
87683,-111.111111111111,4,2,22,50,0,0

[Colours]
Combo1 : 164,70,89
Combo2 : 250,234,122
Combo3 : 183,125,230
Combo4 : 111,236,74
Combo5 : 245,185,3
Combo6 : 255,0,0

[HitObjects]
406,347,4205,5,6,1:0:0:0:
4,195,5249,5,6,1:0:0:0:
439,54,6292,5,6,1:0:0:0:
436,77,6553,5,0,1:0:0:0:
326,4,6684,1,8,0:0:0:0:
295,15,6945,1,8,3:0:0:0:
433,107,7075,2,0,L|424:197,1,70,6|0,3:0|0:0,0:0:0:0:
408,375,7336,1,6,1:0:0:0:
485,347,7858,37,0,1:0:0:0:
485,328,7944,1,8,0:0:0:0:
484,311,8031,1,8,0:0:0:0:
479,295,8118,1,8,3:0:0:0:
472,279,8205,1,4,3:0:0:0:
462,264,8292,1,8,3:0:0:0:
449,252,8379,2,0,B|366:204|335:284|234:249,1,210.000008010865,6|2,3:0|0:0,0:0:0:0:
245,252,9423,6,0,P|218:249|194:240,1,52.5000020027161,2|0,1:0|0:0,0:0:0:0:
86,184,9684,2,0,P|117:180|147:170,1,62.9999980773926,0|0,1:0|0:0,0:0:0:0:
319,130,9945,2,0,P|281:126|246:114,1,73.4999977569581,0|0,1:0|0:0,0:0:0:0:
52,43,10205,2,0,P|94:38|135:24,1,83.9999974365235,2|0,1:0|0:0,0:0:0:0:
398,5,10466,5,10,3:0:0:0:
178,370,10597,1,8,3:0:0:0:
178,370,11510,5,8,3:0:0:0:
0,161,11640,1,8,3:0:0:0:
0,161,11901,38,0,P|50:135|108:139,1,83.9999974365235,10|0,3:0|1:0,0:0:0:0:
76,252,12162,1,8,3:0:0:0:
256,153,12292,2,0,P|271:114|269:72,1,83.9999974365235,2|2,0:0|1:0,0:0:0:0:
163,11,12553,5,8,3:0:0:0:
325,270,12684,1,8,3:0:0:0:
325,270,13597,5,10,3:0:0:0:
159,157,13727,1,0,1:0:0:0:
159,157,13792,1,0,1:0:0:0:
159,157,13858,1,8,3:0:0:0:
339,360,13988,2,0,P|394:331|390:204,1,157.500006008148,6|0,1:0|0:0,0:0:0:0:
370,178,14249,5,8,3:0:0:0:
256,336,14379,1,4,3:0:0:0:
325,270,14510,1,8,3:0:0:0:
123,384,14640,38,0,P|150:332|151:283,1,83.9999974365235,2|0,1:0|0:0,0:0:0:0:
52,224,14900,2,0,P|25:172|24:123,1,83.9999974365235,10|0,0:0|0:0,0:0:0:0:
86,14,15162,1,10,0:0:0:0:
132,148,15292,2,0,P|181:160|231:145,2,83.9999974365235,2|0|0,0:0|1:0|0:0,0:0:0:0:
355,187,15684,5,10,0:0:0:0:
180,62,15814,1,8,3:0:0:0:
374,75,15945,1,0,1:0:0:0:
236,286,16075,6,0,L|371:274,1,105.000004005432,10|8,0:0|3:0,0:0:0:0:
417,271,16271,1,8,3:0:0:0:
418,288,16336,1,0,1:0:0:0:
416,305,16401,1,0,1:0:0:0:
410,321,16466,6,0,L|399:277,1,35,10|4,3:0|3:0,0:0:0:0:
481,192,16597,2,0,L|492:148,1,35,10|4,3:0|0:0,0:0:0:0:
405,8,16727,37,10,3:0:0:0:
301,226,16858,1,2,0:0:0:0:
374,75,16988,2,0,L|287:114,1,90.9999958343508,0|0,1:0|0:0,0:0:0:0:
100,30,17249,5,2,1:0:0:0:
169,302,17379,1,2,0:0:0:0:
125,132,17510,2,0,L|39:93,1,90.9999958343508,0|0,1:0|0:0,0:0:0:0:
381,209,17771,5,2,1:0:0:0:
147,223,17901,1,0,1:0:0:0:
374,75,18031,1,2,1:0:0:0:
386,354,18162,1,2,1:0:0:0:
246,66,18292,1,8,0:0:0:0:
390,363,18423,1,8,0:0:0:0:
394,372,18684,6,0,P|255:358|181:295,1,238.00000453949,6|2,0:0|0:0,0:0:0:0:
398,196,19075,1,10,0:0:0:0:
132,52,19205,1,2,0:0:0:0:
252,264,19336,1,2,1:0:0:0:
344,16,19466,1,2,1:0:0:0:
144,192,19597,1,10,0:0:0:0:
476,192,19727,37,2,1:0:0:0:
476,192,19988,6,0,L|448:192,1,23.3333333333333,2|2,1:0|0:0,0:0:0:0:
144,192,20118,1,10,0:0:0:0:
344,16,20249,1,2,0:0:0:0:
348,276,20379,1,2,1:0:0:0:
204,80,20510,1,2,1:0:0:0:
204,336,20640,1,10,0:0:0:0:
53,143,20771,6,0,P|51:219|86:281,1,119.000002269745,6|0,1:0|0:0,0:0:0:0:
328,380,21031,6,0,L|300:380,1,23.3333333333333,2|2,1:0|0:0,0:0:0:0:
80,376,21162,1,10,0:0:0:0:
344,380,21292,1,2,0:0:0:0:
136,216,21423,1,2,1:0:0:0:
376,108,21553,1,2,1:0:0:0:
232,312,21684,1,10,0:0:0:0:
244,52,21814,38,0,P|412:0|508:52,1,280,6|2,1:0|1:0,0:0:0:0:
96,108,22205,5,10,0:0:0:0:
96,108,22466,5,10,0:0:0:0:
244,52,22597,1,2,0:0:0:0:
232,312,22727,1,10,0:0:0:0:
166,22,22858,6,0,P|36:18|-3:145,1,238.00000453949,6|2,1:0|1:0,0:0:0:0:
334,183,23249,1,10,0:0:0:0:
68,312,23379,1,2,0:0:0:0:
360,312,23510,1,2,1:0:0:0:
312,68,23640,1,2,1:0:0:0:
232,312,23771,1,10,0:0:0:0:
166,22,23901,37,2,1:0:0:0:
166,22,24162,6,0,L|176:64,1,23.3333333333333,2|2,1:0|0:0,0:0:0:0:
232,312,24292,1,10,0:0:0:0:
312,68,24423,1,2,0:0:0:0:
104,268,24553,1,2,1:0:0:0:
64,32,24684,1,2,1:0:0:0:
334,183,24814,1,10,0:0:0:0:
51,355,24945,6,0,B|-21:291|21:209|21:209|55:141|16:90,1,280,6|2,1:0|1:0,0:0:0:0:
64,32,25271,1,2,0:0:0:0:
64,32,25336,2,0,P|125:84|194:81,1,140,10|0,0:0|0:0,0:0:0:0:
343,0,25597,1,2,0:0:0:0:
334,183,25727,2,0,P|372:239|438:258,1,140,2|8,1:0|0:0,0:0:0:0:
214,200,25987,2,0,L|124:322,1,140,2|0,0:0|1:0,0:0:0:0:
283,101,26249,5,10,0:0:0:0:
343,328,26379,1,10,0:0:0:0:
96,103,26510,1,2,1:0:0:0:
401,103,26640,1,2,1:0:0:0:
96,103,26771,1,2,1:0:0:0:
343,328,26901,1,10,0:0:0:0:
343,0,27031,1,14,0:0:0:0:
265,367,28075,38,0,P|197:273|211:158,1,238.00000453949,2|2,1:0|1:0,0:0:0:0:
66,309,28466,1,10,0:0:0:0:
66,309,28727,5,10,0:0:0:0:
343,234,28858,1,2,0:0:0:0:
121,235,28988,2,0,P|143:133|192:73,1,146.999995513916,2|0,0:0|0:0,0:0:0:0:
256,36,29249,5,0,1:0:0:0:
256,36,29510,6,0,P|273:86|308:113,1,70,2|0,1:0|0:0,0:0:0:0:
379,49,29771,2,0,P|383:126|327:199,1,140,2|0,1:0|1:0,0:0:0:0:
464,201,30162,1,2,0:0:0:0:
347,271,30292,1,2,1:0:0:0:
347,271,30423,2,0,P|297:254|270:219,1,70,2|0,0:0|1:0,0:0:0:0:
436,384,30684,2,0,P|469:376|497:355,1,70,2|0,0:0|1:0,0:0:0:0:
464,201,30945,37,10,0:0:0:0:
362,353,31075,1,10,3:0:0:0:
423,205,31205,1,6,3:0:0:0:
321,356,31336,6,0,L|236:362,1,83.9999974365235,6|0,1:0|0:0,0:0:0:0:
52,301,31597,2,0,L|136:307,1,83.9999974365235,2|0,1:0|0:0,0:0:0:0:
291,270,31858,1,2,1:0:0:0:
107,369,31988,2,0,P|119:328|149:295,1,70,2|0,0:0|1:0,0:0:0:0:
264,181,32249,2,0,P|286:124|270:38,1,140,2|0,0:0|0:0,0:0:0:0:
17,139,32640,6,0,P|7:95|22:45,1,77.0000023498536,2|0,1:0|0:0,0:0:0:0:
106,4,32901,1,2,1:0:0:0:
95,189,33031,2,0,P|62:222|21:231,1,77.0000023498536,10|0,0:0|1:0,0:0:0:0:
100,97,33292,2,0,P|159:122|186:208,1,140,10|0,0:0|0:0,0:0:0:0:
389,350,33684,5,2,1:0:0:0:
389,350,33814,1,2,0:0:0:0:
480,317,33945,1,2,1:0:0:0:
298,383,34075,2,0,P|295:333|311:291,1,70,2|0,0:0|1:0,0:0:0:0:
409,256,34336,37,2,0:0:0:0:
253,229,34466,1,2,1:0:0:0:
413,173,34597,2,0,L|445:161,2,35,10|4|8,3:0|3:0|3:0,0:0:0:0:
250,141,34858,2,0,L|315:117,1,70,6|8,3:0|3:0,0:0:0:0:
464,67,35118,1,2,0:0:0:0:
246,56,35249,1,10,3:0:0:0:
346,22,35379,1,2,0:0:0:0:
84,113,35510,5,10,3:0:0:0:
413,173,36031,5,10,3:0:0:0:
36,314,36553,6,0,L|144:296,1,105.000004005432,10|0,3:0|1:0,0:0:0:0:
202,220,36749,1,0,1:0:0:0:
202,220,36814,2,0,L|98:202,1,105.000004005432,10|0,3:0|1:0,0:0:0:0:
132,382,37075,37,10,3:0:0:0:
238,138,37205,1,8,3:0:0:0:
237,138,37466,6,0,B|351:127|336:241|462:197,1,238.00000453949,4|0,1:0|0:0,0:0:0:0:
378,50,37858,1,10,0:0:0:0:
262,230,37988,1,2,0:0:0:0:
512,142,38118,1,2,1:0:0:0:
290,61,38249,1,2,1:0:0:0:
512,142,38379,1,10,0:0:0:0:
290,61,38510,6,0,P|214:45|87:91,1,210.000008010865,2|2,1:0|1:0,0:0:0:0:
134,348,38901,1,10,0:0:0:0:
6,150,39031,1,2,0:0:0:0:
262,230,39162,1,2,0:0:0:0:
4,230,39292,1,2,1:0:0:0:
229,320,39423,5,8,0:0:0:0:
214,150,39553,2,0,P|169:239|229:320,1,210.000008010865,6|0,1:0|0:0,0:0:0:0:
444,372,39945,38,0,L|435:267,1,105.000004005432,10|0,0:0|0:0,0:0:0:0:
419,72,40205,1,2,1:0:0:0:
349,248,40336,1,2,1:0:0:0:
419,72,40466,1,8,0:0:0:0:
266,349,40597,6,0,B|223:250|299:239|266:144,1,210.000008010865,6|0,1:0|1:0,0:0:0:0:
35,189,40988,2,0,L|138:169,1,105.000004005432,10|0,0:0|0:0,0:0:0:0:
353,135,41249,1,10,0:0:0:0:
353,135,41314,1,8,0:0:0:0:
353,135,41379,2,0,L|337:84,1,52.5000020027161,2|0,1:0|1:0,0:0:0:0:
414,323,41510,1,8,0:0:0:0:
202,73,41640,6,0,P|271:6|427:12,1,210.000008010865,4|0,1:0|1:0,0:0:0:0:
307,252,42031,1,10,0:0:0:0:
512,135,42162,1,2,0:0:0:0:
260,135,42292,1,2,1:0:0:0:
494,257,42423,1,2,1:0:0:0:
260,135,42553,1,10,0:0:0:0:
364,368,42684,6,0,P|304:380|244:364,1,105.000004005432,2|0,1:0|0:0,0:0:0:0:
44,252,42945,1,2,1:0:0:0:
307,252,43075,1,10,0:0:0:0:
64,360,43205,1,2,0:0:0:0:
307,252,43336,1,2,0:0:0:0:
20,132,43466,1,2,1:0:0:0:
128,60,43597,2,0,L|112:168,1,105.000004005432,8|0,0:0|0:0,0:0:0:0:
328,104,43858,38,0,P|332:50|319:0,1,105.000004005432,10|0,0:0|0:0,0:0:0:0:
424,104,44118,1,0,1:0:0:0:
224,60,44249,2,0,P|219:113|232:164,1,105.000004005432,10|0,0:0|0:0,0:0:0:0:
128,60,44510,1,0,1:0:0:0:
198,266,44640,6,0,L|308:253,1,105.000004005432,10|0,0:0|0:0,0:0:0:0:
428,239,44901,1,0,1:0:0:0:
262,344,45031,1,8,0:0:0:0:
476,371,45162,2,0,L|366:358,1,105.000004005432,2|0,0:0|1:0,0:0:0:0:
91,323,45423,6,0,P|126:261|137:199,1,105.000004005432,10|0,0:0|1:0,0:0:0:0:
267,154,45684,2,0,P|232:92|221:30,1,105.000004005432,10|0,0:0|0:0,0:0:0:0:
0,96,45945,6,0,L|108:79,1,105.000004005432,10|0,0:0|0:0,0:0:0:0:
36,0,46205,1,0,1:0:0:0:
187,179,46336,2,0,L|83:162,1,105.000004005432,10|0,0:0|0:0,0:0:0:0:
151,275,46597,1,0,1:0:0:0:
0,375,46727,38,0,P|104:385|210:359,1,210.000008010865,10|0,0:0|1:0,0:0:0:0:
413,232,47118,1,8,0:0:0:0:
298,195,47249,2,0,P|293:246|309:296,1,105.000004005432,2|0,0:0|1:0,0:0:0:0:
512,0,47510,6,0,L|384:43,1,119.000002269745,10|0,0:0|0:0,0:0:0:0:
65,152,47771,2,0,L|193:195,1,119.000002269745,10|0,0:0|0:0,0:0:0:0:
512,301,48031,5,10,0:3:0:0:
504,311,48553,5,10,3:0:0:0:
365,378,49075,38,0,P|331:379|299:370,2,51.3333348999024,2|2|2,0:0|0:0|0:0,0:0:0:0:
418,302,49597,5,10,0:0:0:0:
351,252,49771,1,10,0:0:0:0:
224,301,49945,1,10,0:0:0:0:
96,210,50118,6,0,P|72:111|157:-9,1,238.00000453949,6|8,1:0|0:0,0:0:0:0:
416,210,50988,1,2,0:0:0:0:
416,210,51162,2,0,P|440:111|355:-9,1,238.00000453949,2|8,1:0|0:0,0:0:0:0:
196,256,52205,6,0,P|160:315|66:333,1,140.000005340576,2|2,1:0|0:0,0:0:0:0:
320,256,52727,2,0,P|355:315|450:333,1,140.000005340576,10|2,0:0|0:0,0:0:0:0:
256,312,53249,2,0,L|256:382,2,70.0000026702882,2|2|0,1:0|0:0|1:0,0:0:0:0:
256,192,53771,1,8,0:0:0:0:
256,192,54118,37,0,1:0:0:0:
336,128,54292,2,0,P|396:104|476:132,1,140.000005340576,6|2,1:0|0:0,0:0:0:0:
466,260,54814,2,0,P|400:280|336:256,1,140.000005340576,10|0,0:0|1:0,0:0:0:0:
176,128,55336,2,0,P|116:104|36:132,1,140.000005340576,2|2,1:0|0:0,0:0:0:0:
45,260,55858,2,0,P|111:280|176:256,1,140.000005340576,10|10,0:0|0:0,0:0:0:0:
336,128,56379,6,0,P|356:78|349:43,2,70.0000026702882,2|8|8,1:0|0:0|0:0,0:0:0:0:
176,128,56901,2,0,P|156:78|163:43,2,70.0000026702882,10|8|8,0:0|0:0|0:0,0:0:0:0:
256,192,57423,1,10,0:0:0:0:
256,192,57771,5,0,1:0:0:0:
256,68,57945,2,0,L|256:21,1,46.6666666666667,10|0,0:0|0:0,0:0:0:0:
412,8,58466,6,0,P|384:136|428:236,1,238.00000453949,6|8,1:0|0:0,0:0:0:0:
88,231,59336,1,2,0:0:0:0:
88,231,59510,2,0,P|129:121|100:8,1,238.00000453949,2|8,1:0|0:0,0:0:0:0:
256,60,60553,38,0,L|256:212,1,140.000005340576,2|0,1:0|1:0,0:0:0:0:
221,269,61075,2,0,P|255:278|288:269,2,70.0000026702882,10|8|2,0:0|0:0|0:0,0:0:0:0:
256,360,61597,1,6,1:0:0:0:
256,192,61662,12,0,62510,0:0:0:0:
421,67,62640,5,8,3:0:0:0:
95,243,62771,1,8,3:0:0:0:
75,88,63684,5,8,3:0:0:0:
422,231,63814,1,8,3:0:0:0:
422,231,64075,6,0,P|435:159|417:56,1,167.999994873047,10|10,3:0|3:0,0:0:0:0:
330,264,64466,1,2,1:0:0:0:
312,162,64597,1,2,1:0:0:0:
250,372,64727,37,8,3:0:0:0:
197,64,64858,1,8,3:0:0:0:
282,0,65771,5,8,3:0:0:0:
198,296,65900,1,8,3:0:0:0:
198,296,66162,6,0,B|147:266|147:266|10:274,1,195.999994018555,10|0,0:0|1:0,0:0:0:0:
224,212,66553,1,10,0:0:0:0:
127,344,66684,1,2,0:0:0:0:
329,243,66813,5,2,1:0:0:0:
96,180,66944,1,2,0:0:0:0:
340,88,67074,1,10,0:0:0:0:
198,296,67205,1,2,0:0:0:0:
468,212,67335,1,10,0:0:0:0:
224,212,67466,1,2,1:0:0:0:
480,128,67596,37,2,1:0:0:0:
480,128,67661,1,0,0:0:0:0:
480,128,67726,2,0,L|424:104,1,48.9999985046387,2|0,0:0|0:0,0:0:0:0:
229,20,67857,1,10,0:0:0:0:
512,0,67987,5,2,0:0:0:0:
512,0,68052,1,0,0:0:0:0:
512,0,68117,2,0,L|456:24,1,48.9999985046387,2|0,1:0|0:0,0:0:0:0:
244,114,68248,22,0,P|224:211|254:325,1,195.999994018555,10|2,0:0|1:0,0:0:0:0:
440,348,68640,1,10,0:0:0:0:
146,283,68770,1,2,0:0:0:0:
458,120,68900,38,0,L|504:95,1,52.5000020027161,10|2,3:0|0:0,0:0:0:0:
45,108,69422,21,10,3:0:0:0:
371,225,69944,54,0,P|340:296|343:375,1,157.500006008148,10|0,3:0|0:0,0:0:0:0:
246,303,70205,2,0,L|281:117,1,157.500006008148,10|0,3:0|0:0,0:0:0:0:
179,77,70466,2,0,P|178:171|125:255,1,157.500006008148,10|0,3:0|0:0,0:0:0:0:
33,120,70726,21,2,1:0:0:0:
33,120,70988,5,8,3:0:0:0:
36,130,71053,1,4,3:0:0:0:
38,140,71118,1,8,3:0:0:0:
41,150,71183,1,4,3:0:0:0:
43,160,71249,1,8,0:0:0:0:
94,375,71509,53,2,0:0:0:0:
142,272,71639,1,2,0:0:0:0:
256,360,71770,1,2,0:0:0:0:
280,207,71900,1,2,0:0:0:0:
418,347,72031,37,14,0:0:0:0:
472,40,72161,1,0,1:0:0:0:
338,351,72292,5,10,0:0:0:0:
365,40,72422,1,0,1:0:0:0:
256,360,72553,69,10,0:0:0:0:
255,47,72683,1,0,1:0:0:0:
177,368,72813,5,10,0:0:0:0:
385,143,72943,1,0,1:0:0:0:
0,78,73074,69,10,0:0:0:0:
257,283,73205,1,0,1:0:0:0:
132,0,73335,5,10,0:0:0:0:
175,289,73466,1,0,1:0:0:0:
303,0,73596,69,10,0:0:0:0:
99,251,73726,1,0,1:0:0:0:
385,143,73857,5,10,0:0:0:0:
29,176,73987,1,0,1:0:0:0:
433,210,74118,69,10,0:0:0:0:
115,125,74248,1,0,1:0:0:0:
466,120,74379,5,10,0:0:0:0:
174,193,74509,1,0,1:0:0:0:
512,245,74639,69,10,0:0:0:0:
243,118,74770,1,0,1:0:0:0:
421,384,74900,5,10,0:0:0:0:
384,76,75031,1,0,1:0:0:0:
218,362,75161,69,10,0:0:0:0:
456,199,75292,1,0,1:0:0:0:
132,232,75422,5,10,0:0:0:0:
434,294,75553,1,0,1:0:0:0:
91,353,75683,69,10,0:0:0:0:
359,180,75813,1,0,1:0:0:0:
3,190,75944,5,10,0:0:0:0:
306,318,76074,1,0,1:0:0:0:
118,0,76205,69,10,0:0:0:0:
51,272,76335,1,0,1:0:0:0:
235,3,76466,5,10,0:0:0:0:
201,303,76596,1,0,1:0:0:0:
491,156,76726,69,10,0:0:0:0:
143,181,76857,1,0,1:0:0:0:
499,303,76987,5,10,0:0:0:0:
206,110,77118,1,0,1:0:0:0:
394,384,77248,69,10,0:0:0:0:
449,36,77379,1,0,1:0:0:0:
228,358,77509,5,10,0:0:0:0:
365,42,77639,1,0,1:0:0:0:
83,296,77770,69,10,0:0:0:0:
291,23,77900,1,0,1:0:0:0:
0,204,78031,5,10,0:0:0:0:
217,0,78161,1,0,1:0:0:0:
303,308,78292,69,10,0:0:0:0:
41,105,78422,1,0,1:0:0:0:
384,145,78553,5,10,0:0:0:0:
93,221,78683,1,0,1:0:0:0:
448,348,78813,69,10,0:0:0:0:
228,81,78944,1,0,1:0:0:0:
228,384,79074,5,10,0:0:0:0:
321,84,79205,1,0,1:0:0:0:
32,349,79335,69,10,0:0:0:0:
369,283,79466,1,0,1:0:0:0:
19,218,79596,5,10,0:0:0:0:
375,195,79726,1,0,1:0:0:0:
59,86,79857,21,2,1:0:0:0:
306,350,79987,1,2,1:0:0:0:
162,12,80118,1,10,0:0:0:0:
195,370,80248,1,2,1:0:0:0:
470,25,80379,37,14,0:0:0:0:
59,86,80509,1,0,1:0:0:0:
490,124,80639,5,10,0:0:0:0:
61,163,80770,1,0,1:0:0:0:
500,225,80900,69,10,0:0:0:0:
63,244,81031,1,0,1:0:0:0:
496,318,81161,5,10,0:0:0:0:
65,320,81292,1,0,1:0:0:0:
390,60,81422,69,10,0:0:0:0:
287,350,81553,1,0,1:0:0:0:
282,24,81683,5,10,0:0:0:0:
385,314,81813,1,0,1:0:0:0:
94,148,81944,69,10,0:0:0:0:
441,147,82074,1,0,1:0:0:0:
90,248,82205,5,10,0:0:0:0:
390,60,82335,1,0,1:0:0:0:
152,363,82466,69,10,0:0:0:0:
177,42,82596,1,0,1:0:0:0:
269,361,82726,5,10,0:0:0:0:
259,38,82857,1,0,1:0:0:0:
379,356,82987,69,10,0:0:0:0:
336,27,83118,1,0,1:0:0:0:
471,343,83248,5,10,0:0:0:0:
512,0,83379,1,0,1:0:0:0:
220,241,83509,69,10,0:0:0:0:
502,89,83639,1,0,1:0:0:0:
133,212,83770,5,10,0:0:0:0:
471,245,83900,1,0,1:0:0:0:
65,149,84031,69,10,0:0:0:0:
319,362,84161,1,0,1:0:0:0:
29,70,84292,5,10,0:0:0:0:
150,384,84422,1,0,1:0:0:0:
150,0,84553,5,6,1:0:0:0:
150,0,85074,6,0,P|226:43|292:30,1,146.999995513916,2|0,0:0|1:0,0:0:0:0:
349,0,85596,1,6,0:0:0:0:
208,124,85857,2,0,P|271:116|307:125,2,97.9999970092774,2|2|2,0:0|0:0|0:0,0:0:0:0:
167,207,86509,5,8,0:0:0:0:
167,207,86639,2,0,P|226:246|337:219,1,181.999991668702,14|0,0:0|1:0,0:0:0:0:
512,309,87031,2,0,P|453:348|342:321,1,181.999991668702,14|0,0:0|1:0,0:0:0:0:
475,198,87422,5,10,3:0:0:0:
97,159,87683,38,0,P|44:175|125:214,1,188.999994232178,14|0,3:0|1:0,0:0:0:0:
86,204,88139,1,0,1:0:0:0:
86,204,88205,1,10,0:0:0:0:
