osu file format v14

[General]
AudioFilename: audio.mp3
AudioLeadIn: 0
PreviewTime: 64244
Countdown: 0
SampleSet: Normal
StackLeniency: 0.2
Mode: 0
LetterboxInBreaks: 0
WidescreenStoryboard: 0

[Editor]
Bookmarks: 16976,35708,45074,59114,75505,89553,108285,129358,141066,150431,169163,183212,192578,201944,220675
DistanceSpacing: 2
BeatDivisor: 6
GridSize: 4
TimelineZoom: 2.999999

[Metadata]
Title:G Senjou no Cinderella
TitleUnicode:G線上のシンデレラ
Artist:Aina Suzuki, Arisa Komiya, Nanaka Suwa
ArtistUnicode:鈴木愛奈, 小宮有紗, 諏訪ななか
Creator:Lazer
Version:.
Source:
Tags:
BeatmapID:1254808
BeatmapSetID:593106

[Difficulty]
HPDrainRate:6
CircleSize:4
OverallDifficulty:7
ApproachRate:9
SliderMultiplier:1.4
SliderTickRate:1

[Events]
//Background and Video events
0,0,"60599669_p0.jpg",0,0
//Break Periods
//Storyboard Layer 0 (Background)
//Storyboard Layer 1 (Fail)
//Storyboard Layer 2 (Pass)
//Storyboard Layer 3 (Foreground)
//Storyboard Sound Samples

[TimingPoints]
1757,292.682926829268,4,1,0,50,1,0
1757,-200,4,1,0,50,0,0
1805,-200,4,1,0,5,0,0
2293,-200,4,1,0,35,0,0
2927,-100,4,1,0,70,0,0
2976,-100,4,1,0,30,0,0
3952,-100,4,1,0,70,0,0
4000,-100,4,1,0,30,0,0
5269,-100,4,1,0,70,0,0
5317,-100,4,1,0,30,0,0
6301,-76.9230769230769,4,1,0,50,0,0
7317,-133.333333333333,4,1,0,50,0,0
7610,-90.9090909090909,4,1,0,50,0,0
8976,-90.9090909090909,4,1,0,5,0,0
9074,-90.9090909090909,4,1,0,50,0,0
9269,-90.9090909090909,4,1,0,5,0,0
9366,-90.9090909090909,4,1,0,50,0,0
9561,-90.9090909090909,4,1,0,5,0,0
9659,-90.9090909090909,4,1,0,50,0,0
9952,-71.4285714285714,4,1,0,50,0,0
10635,-71.4285714285714,4,1,0,5,0,0
10732,-71.4285714285714,4,1,0,50,0,0
10927,-71.4285714285714,4,1,0,5,0,0
11025,-71.4285714285714,4,1,0,50,0,0
12293,-50,4,1,0,50,0,0
12342,-50,4,1,0,5,0,0
12391,-50,4,1,0,50,0,0
12488,-90.9090909090909,4,1,0,50,0,0
13854,-90.9090909090909,4,1,0,5,0,0
13952,-90.9090909090909,4,1,0,50,0,0
14342,-66.6666666666667,4,1,0,50,0,0
14830,-90.9090909090909,4,1,0,5,0,0
14878,-90.9090909090909,4,1,0,5,0,0
15074,-90.9090909090909,4,1,0,35,0,0
15415,-90.9090909090909,4,1,0,20,0,0
15805,-90.9090909090909,4,1,0,50,0,0
16488,-90.9090909090909,4,1,0,5,0,0
16586,-90.9090909090909,4,1,0,50,0,0
16878,-90.9090909090909,4,1,0,5,0,0
16976,-166.666666666667,4,2,0,50,0,0
17464,-166.666666666667,4,2,0,5,0,0
17561,-125,4,2,0,50,0,0
18049,-125,4,2,0,5,0,0
18147,-100,4,2,0,50,0,0
18635,-100,4,2,0,5,0,0
18732,-125,4,2,0,50,0,0
18878,-125,4,2,0,5,0,0
18927,-76.9230769230769,4,2,0,50,0,0
19220,-76.9230769230769,4,2,0,5,0,0
19317,-125,4,2,0,50,0,0
19513,-125,4,2,0,5,0,0
19610,-100,4,2,0,50,0,0
19805,-100,4,2,0,5,0,0
19903,-125,4,2,0,50,0,0
20098,-125,4,2,0,5,0,0
20196,-100,4,2,0,50,0,0
20391,-100,4,2,0,5,0,0
20488,-100,4,2,0,50,0,0
20683,-100,4,2,0,5,0,0
20781,-200,4,2,0,50,0,0
20976,-200,4,2,0,5,0,0
21074,-200,4,2,0,50,0,0
21269,-76.9230769230769,4,2,0,50,0,0
21561,-76.9230769230769,4,2,0,5,0,0
21659,-166.666666666667,4,2,0,50,0,0
22147,-166.666666666667,4,2,0,5,0,0
22244,-142.857142857143,4,2,0,50,0,0
22732,-142.857142857143,4,2,0,5,0,0
22830,-125,4,2,0,50,0,0
23317,-125,4,2,0,5,0,0
23415,-125,4,2,0,50,0,0
23561,-125,4,2,0,5,0,0
23610,-76.9230769230769,4,2,0,50,0,0
23903,-76.9230769230769,4,2,0,5,0,0
24000,-125,4,2,0,50,0,0
24196,-125,4,2,0,5,0,0
24293,-100,4,2,0,50,0,0
24488,-100,4,2,0,5,0,0
24586,-125,4,2,0,50,0,0
24781,-125,4,2,0,5,0,0
24878,-100,4,2,0,50,0,0
25074,-100,4,2,0,5,0,0
25171,-100,4,2,0,50,0,0
25366,-100,4,2,0,5,0,0
25464,-200,4,2,0,50,0,0
25659,-200,4,2,0,5,0,0
25756,-200,4,2,0,50,0,0
26049,-100,4,2,0,50,0,0
26244,-100,4,2,0,5,0,0
26342,-125,4,2,0,50,0,0
26537,-125,4,2,0,5,0,0
26635,-125,4,2,0,50,0,0
26927,-125,4,2,0,50,0,0
27122,-125,4,2,0,5,0,0
27220,-125,4,2,0,50,0,0
27513,-125,4,2,0,50,0,0
27708,-125,4,2,0,5,0,0
27805,-125,4,2,0,50,0,0
28000,-125,4,2,0,30,0,0
28098,-125,4,2,0,50,0,0
28293,-125,4,2,0,5,0,0
28391,-200,4,2,0,50,0,0
28586,-200,4,2,0,5,0,0
28683,-125,4,2,0,50,0,0
28878,-125,4,2,0,5,0,0
28976,-125,4,2,0,50,0,0
29269,-166.666666666667,4,2,0,50,0,0
29464,-166.666666666667,4,2,0,5,0,0
29561,-125,4,2,0,50,0,0
29756,-125,4,2,0,5,0,0
29854,-166.666666666667,4,2,0,50,0,0
30049,-166.666666666667,4,2,0,5,0,0
30147,-200,4,2,0,50,0,0
30244,-200,4,2,0,5,0,0
30342,-200,4,2,0,50,0,0
30537,-200,4,2,0,5,0,0
30635,-100,4,2,0,50,0,0
30830,-100,4,2,0,5,0,0
30927,-100,4,2,0,40,0,0
31025,-142.857142857143,4,2,0,50,0,0
31317,-142.857142857143,4,2,0,5,0,0
31513,-100,4,2,0,40,0,0
31610,-142.857142857143,4,2,0,50,0,0
31903,-142.857142857143,4,2,0,5,0,0
32098,-100,4,2,0,40,0,0
32196,-142.857142857143,4,2,0,50,0,0
32488,-142.857142857143,4,2,0,5,0,0
32683,-142.857142857143,4,2,0,50,0,0
32781,-142.857142857143,4,2,0,30,0,0
32878,-100,4,2,0,50,0,0
32976,-142.857142857143,4,2,0,50,0,0
33074,-142.857142857143,4,2,0,30,0,0
33171,-100,4,2,0,50,0,0
33269,-100,4,2,0,40,0,0
33366,-76.9230769230769,4,2,0,50,0,0
33610,-76.9230769230769,4,2,0,5,0,0
33659,-100,4,2,0,50,0,0
33854,-100,4,2,0,5,0,0
33952,-76.9230769230769,4,2,0,50,0,0
34196,-76.9230769230769,4,2,0,5,0,0
34244,-100,4,2,0,50,0,0
34439,-100,4,2,0,5,0,0
34537,-125,4,2,0,50,0,0
34732,-125,4,2,0,5,0,0
34830,-100,4,2,0,50,0,0
35025,-100,4,2,0,50,0,0
35317,-100,4,2,0,5,0,0
35415,-100,4,2,0,50,0,0
35708,-90.9090909090909,4,2,0,50,0,0
35952,-90.9090909090909,4,2,0,5,0,0
36000,-90.9090909090909,4,2,0,50,0,0
36244,-90.9090909090909,4,2,0,5,0,0
36293,-90.9090909090909,4,2,0,50,0,0
37415,-90.9090909090909,4,2,0,50,0,0
38293,-66.6666666666667,4,2,0,5,0,0
38342,-66.6666666666667,4,2,0,50,0,0
38586,-66.6666666666667,4,2,0,5,0,0
38635,-66.6666666666667,4,2,0,50,0,0
38878,-90.9090909090909,4,2,0,5,0,0
38927,-90.9090909090909,4,2,0,50,0,0
39171,-66.6666666666667,4,2,0,5,0,0
39220,-66.6666666666667,4,2,0,50,0,0
39464,-66.6666666666667,4,2,0,5,0,0
39513,-66.6666666666667,4,2,0,50,0,0
39659,-66.6666666666667,4,2,0,5,0,0
39708,-66.6666666666667,4,2,0,50,0,0
39952,-58.8235294117647,4,2,0,5,0,0
40000,-58.8235294117647,4,2,0,50,0,0
40391,-200,4,2,0,50,0,0
40586,-200,4,2,0,5,0,0
40683,-200,4,2,0,50,0,0
40878,-200,4,2,0,5,0,0
40976,-200,4,2,0,50,0,0
41171,-200,4,2,0,5,0,0
41269,-200,4,2,0,50,0,0
41464,-200,4,2,0,5,0,0
41561,-133.333333333333,4,2,0,50,0,0
41952,-66.6666666666667,4,2,0,5,0,0
42000,-66.6666666666667,4,2,0,50,0,0
42732,-133.333333333333,4,2,0,50,0,0
42927,-79.9999999999999,4,2,0,5,0,0
42976,-79.9999999999999,4,2,0,50,0,0
43122,-200,4,2,0,5,0,0
43171,-200,4,2,0,50,0,0
43269,-133.333333333333,4,2,0,5,0,0
43317,-133.333333333333,4,2,0,50,0,0
43513,-79.9999999999999,4,2,0,5,0,0
43561,-79.9999999999999,4,2,0,50,0,0
43708,-200,4,2,0,5,0,0
43756,-200,4,2,0,50,0,0
43854,-66.6666666666667,4,2,0,5,0,0
43903,-66.6666666666667,4,2,0,50,0,0
44098,-66.6666666666667,4,2,0,5,0,0
44147,-66.6666666666667,4,2,0,50,0,0
44781,-133.333333333333,4,2,0,50,0,0

[HitObjects]
64,120,1757,6,0,P|132:100|176:111,1,105,2|0,0:0|0:0,0:0:0:0:
124,204,2293,2,0,L|125:214,5,11.6666666666667,2|0|0|0|0|0,0:0|0:0|0:0|0:0|0:0|0:0,0:0:0:0:
60,299,2635,2,0,L|61:287,4,11.6666666666667,2|0|0|0|0,0:0|0:0|0:0|0:0|0:0,0:0:0:0:
249,214,2927,6,0,B|288:245|322:226|322:226|345:238|345:238|389:203|389:203|444:233|502:203|502:203|454:137|454:137|483:86|468:43,1,443.333333333333,8|0,0:0|0:0,0:0:0:0:
443,1,3952,2,0,B|373:-4|373:-4|258:43|258:43|207:26|207:26|154:66|154:66|116:51|116:51|167:81|158:142|158:142|202:157|223:205|223:205|260:217,1,583.333333333333,8|0,0:0|0:0,0:0:0:0:
253,243,5269,6,0,B|286:297|245:346|245:346|314:303|314:303|367:348|367:348|382:303|416:286,1,326.666666666667,8|0,0:0|0:0,0:0:0:0:
464,373,6049,1,8,0:0:0:0:
464,373,6342,6,0,P|402:301|415:175,1,181.999991668702
444,135,6732,2,0,L|497:148,1,30.3333319447836,8|0,0:0|0:0,0:0:0:0:
286,89,6927,1,0,0:0:0:0:
365,112,7025,1,0,0:0:0:0:
211,168,7220,1,0,0:0:0:0:
131,186,7317,2,0,P|103:217|95:257,1,70.0000026702882
208,270,7610,6,0,B|224:297|224:297|200:324|206:369,1,102.666669799805,8|0,0:0|0:0,0:0:0:0:
119,333,7903,2,0,L|125:300,1,25.6666674499512,8|0,0:0|0:0,0:0:0:0:
334,297,8098,1,0,0:0:0:0:
286,350,8196,2,0,L|413:331,1,102.666669799805,8|0,0:0|0:0,0:0:0:0:
477,316,8488,2,0,L|503:341,1,25.6666674499512,8|0,0:0|0:0,0:0:0:0:
339,153,8683,1,0,0:0:0:0:
242,132,8781,6,0,P|252:201|278:233,1,102.666669799805,8|0,0:0|0:0,0:0:0:0:
436,174,9074,2,0,P|426:105|400:73,1,102.666669799805,8|0,0:0|0:0,0:0:0:0:
346,15,9366,2,0,P|277:25|245:51,1,102.666669799805,8|0,0:0|0:0,0:0:0:0:
332,289,9659,2,0,P|401:279|433:253,1,102.666669799805,8|0,0:0|0:0,0:0:0:0:
242,132,9952,6,0,B|257:174|257:174|239:222|239:222|257:269,1,130.666662679037,8|0,0:0|0:0,0:0:0:0:
190,67,10244,2,0,P|174:83|164:100,1,32.6666656697591,8|0,0:0|0:0,0:0:0:0:
447,98,10439,1,0,0:0:0:0:
402,169,10537,2,0,P|435:181|490:172,1,65.3333313395183,8|0,0:0|0:0,0:0:0:0:
317,125,10732,1,0,0:0:0:0:
272,55,10830,2,0,P|302:43|334:43,1,65.3333313395183,8|0,0:0|0:0,0:0:0:0:
229,136,11025,2,0,P|228:155|232:169,1,32.6666656697591
187,239,11122,6,0,P|217:250|307:209,1,130.666662679037,8|0,0:0|0:0,0:0:0:0:
317,125,11415,1,8,0:0:0:0:
334,319,11610,1,0,0:0:0:0:
334,319,11708,2,0,B|339:345|315:362|315:362|286:339,1,65.3333313395183,8|0,0:0|0:0,0:0:0:0:
306,236,11903,1,0,0:0:0:0:
324,155,12000,1,8,0:0:0:0:
390,108,12097,1,0,0:0:0:0:
466,139,12195,1,0,0:0:0:0:
480,219,12293,6,0,P|480:261|477:298,1,46.6666666666667,8|0,0:0|0:0,0:0:0:0:
390,207,12488,1,0,0:0:0:0:
392,225,12586,1,8,0:0:0:0:
182,237,12781,1,0,0:0:0:0:
189,122,12878,2,8,B|234:143|234:143|268:191,1,102.666669799805,8|0,0:0|0:0,0:0:0:0:
182,237,13171,2,0,B|198:283|198:283|189:341,1,102.666669799805,8|0,0:0|0:0,0:0:0:0:
287,277,13464,6,0,P|333:294|399:290,1,102.666669799805,8|0,0:0|0:0,0:0:0:0:
491,360,13756,2,0,L|463:304,1,51.3333348999024,8|0,0:0|0:0,0:0:0:0:
414,183,13952,2,0,P|426:219|442:239,1,51.3333348999024,0|8,0:0|0:0,0:0:0:0:
512,223,14147,2,0,P|500:187|484:167,1,51.3333348999024
372,289,14342,2,0,L|382:361,1,70.0000026702882,8|0,0:0|0:0,0:0:0:0:
316,195,14537,1,0,0:0:0:0:
512,223,14635,5,12,0:0:0:0:
140,186,14830,2,0,P|102:211|85:233,1,51.3333348999024,0|8,0:0|0:0,0:0:0:0:
164,268,15074,2,0,L|196:274,3,25.6666674499512
118,78,15415,1,0,0:0:0:0:
195,62,15513,1,8,0:0:0:0:
420,83,15708,1,0,0:0:0:0:
391,107,15806,6,0,P|365:106|341:113,1,51.3333348999024,8|0,0:0|0:0,0:0:0:0:
397,190,16000,1,0,0:0:0:0:
425,214,16098,2,0,P|451:213|476:220,1,51.3333348999024,8|0,0:0|0:0,0:0:0:0:
256,192,16293,2,0,L|256:317,1,102.666669799805
236,316,16586,6,0,P|232:292|256:328,1,154.000004699707,8|4,0:0|0:0,0:0:0:0:
256,294,16976,6,0,B|312:288|312:288|336:288|356:284|356:284|360:292|364:308|328:312,1,139.999995727539
244,220,17561,2,0,B|308:212|308:212|320:208|320:208|340:210|340:210|364:210|384:206|384:206|388:214|392:230|356:234,1,186.666666666667
232,144,18147,2,0,B|288:136|288:136|308:128|308:128|324:132|324:132|352:134|374:127|374:127|398:128|418:125|418:125|422:133|425:150|389:152,1,233.333333333333
356,168,18732,6,0,L|292:160,1,56
144,144,18927,2,0,B|176:156|200:148|200:148|212:140|212:140|224:152|224:152|232:160|232:160|244:156|244:156|259:159|275:155|275:155|296:164|320:164,1,181.999991668702
396,104,19317,6,0,L|408:16,1,74.6666666666667
504,16,19610,2,0,L|492:112,1,93.3333333333333
360,288,19903,2,0,L|348:200,1,74.6666666666667
252,216,20196,2,0,L|268:312,1,93.3333333333333
404,372,20488,6,0,P|464:368|496:344,1,93.3333333333333
380,288,20781,2,0,P|412:296|428:292,1,46.6666666666667
468,268,21074,1,0,0:0:0:0:
376,216,21269,6,0,P|432:232|384:172,1,181.999991668702
184,240,21659,6,0,B|192:272|192:272|192:320|192:320|200:340|200:356|200:356|212:324,1,139.999995727539
100,228,22244,2,0,B|116:284|116:284|116:332|116:332|124:352|124:368|124:368|136:336,1,163.333328348796
20,224,22830,2,0,B|40:296|40:296|40:344|40:344|48:364|48:380|48:380|60:348,1,186.666666666667
152,148,23415,6,0,L|160:84,1,56
180,60,23610,2,0,B|152:72|116:68|116:68|104:56|104:56|88:60|88:60|68:48|44:48|44:48|20:48|-4:64,1,181.999991668702
32,168,24000,6,0,P|72:160|100:136,1,74.6666666666667
51,251,24293,2,0,P|97:241|136:216,1,93.3333333333333
321,277,24586,2,0,P|285:270|256:248,1,74.6666666666667
289,357,24879,2,0,P|247:346|200:300,1,93.3333333333333
176,296,25171,6,0,P|136:292|88:324,1,93.3333333333333
104,208,25464,2,0,P|81:215|57:231,1,46.6666666666667
28,272,25756,1,0,0:0:0:0:
248,364,25952,5,0,0:0:0:0:
260,344,26049,2,0,B|284:324|308:344|336:352|336:352|320:364|308:368,1,93.3333333333333
424,264,26342,6,0,P|416:240|432:180,1,74.6666666666667
480,128,26635,1,0,0:0:0:0:
292,228,26927,2,0,P|296:203|271:146,1,74.6666666666667
216,101,27220,1,0,0:0:0:0:
416,160,27513,2,0,P|408:136|424:76,1,74.6666666666667
472,24,27806,1,0,0:0:0:0:
169,123,28000,5,0,0:0:0:0:
169,123,28098,2,0,L|96:112,1,74.6666666666667
64,104,28391,2,0,P|60:80|76:60,1,46.6666666666667
32,112,28683,2,0,P|4:84|8:52,1,74.6666666666667
120,20,28976,5,0,0:0:0:0:
152,52,29074,1,0,0:0:0:0:
204,68,29171,1,0,0:0:0:0:
252,60,29269,2,0,L|312:44,1,55.9999982910157
376,60,29561,2,0,L|452:36,1,74.6666666666667
447,37,29854,6,0,P|440:68|456:96,1,55.9999982910157
488,116,30147,2,0,L|512:108,1,23.3333333333333
408,168,30342,6,0,P|384:160|356:156,1,46.6666666666667
464,220,30635,6,0,P|448:176|476:124,1,93.3333333333333
412,304,30927,5,0,0:0:0:0:
412,304,31025,2,0,P|468:300|520:300,1,97.9999970092775
264,348,31513,1,0,0:0:0:0:
264,348,31610,2,0,P|316:352|361:358,1,97.9999970092775
188,296,32098,1,0,0:0:0:0:
188,296,32196,2,0,P|136:300|90:306,1,97.9999970092775
68,332,32683,6,0,P|72:352|76:364,1,32.6666656697591
24,260,32878,1,0,0:0:0:0:
24,260,32976,2,0,P|32:240|32:224,1,32.6666656697591
24,152,33171,1,0,0:0:0:0:
24,152,33269,1,0,0:0:0:0:
24,152,33366,6,0,B|40:184|88:184|88:184|104:200|104:184|104:184|176:176,1,151.666659723918
172,176,33659,2,0,B|192:168|200:156|200:156|212:168|212:168|268:160,1,93.3333333333333
416,204,33952,2,0,B|424:208|431:221|431:221|424:160|424:160|424:144|424:144|420:136|420:136|416:88,1,151.666659723918
432,60,34245,2,0,B|452:51|459:39|459:39|472:50|472:50|512:41,1,93.3333333333333
253,162,34537,6,0,L|248:88,1,74.6666666666667
244,24,34830,1,0,0:0:0:0:
100,256,35025,2,0,P|36:260|0:192,1,140
40,124,35415,5,0,0:0:0:0:
37,108,35513,1,0,0:0:0:0:
34,92,35610,1,0,0:0:0:0:
30,71,35708,6,0,B|40:68|40:68|42:59|42:59|47:63|47:63|64:56|64:56|81:58|81:58|84:60|84:60|86:58|86:58|103:59|103:59|126:69|150:66,1,128.333337249756
225,42,36000,6,0,B|217:49|217:49|220:58|220:58|214:57|214:57|203:71|203:71|187:78|187:78|183:78|183:78|183:81|183:81|167:88|167:88|142:91|123:106,1,128.333337249756
109,195,36293,2,0,B|102:232|102:232|123:318,1,102.666669799805
220,329,36586,2,0,B|257:336|257:336|320:320,1,102.666669799805
362,240,36878,6,0,B|391:253|398:272|398:272|409:286|409:286|411:293|411:293|419:293|419:293|438:308|438:308|461:339,1,128.333337249756
463,225,37171,1,0,0:0:0:0:
441,117,37317,2,0,L|389:116,1,51.3333348999024
287,79,37464,2,0,P|281:116|306:184,1,102.666669799805
463,225,37756,1,0,0:0:0:0:
286,258,37903,2,0,L|230:269,1,51.3333348999024
144,359,38049,2,0,B|145:328|145:328|143:315|143:315|138:312|138:312|142:308|142:308|135:294|135:294|144:265|144:265|139:239,1,128.333337249756
68,193,38342,6,0,B|119:141|181:169|181:169|175:132|187:103,1,175.00000667572
288,167,38635,6,0,B|314:159|329:129|312:96|280:91|248:108|242:139|258:173|288:167,1,175.00000667572
357,63,38927,6,0,B|423:73|423:73|457:51|497:56,1,128.333337249756
485,172,39220,6,0,B|490:211|490:211|490:227|490:227|483:238|483:238|465:247|478:260|478:260|457:305|457:305|403:313,1,175.00000667572
298,283,39513,2,0,P|343:277|315:313,1,105.000004005432
228,345,39708,2,0,B|194:341|194:341|158:330|158:330|140:328|140:328|135:315|129:331|129:331|111:327|111:327|70:316|70:316|85:345,1,175.00000667572
19,260,40000,6,0,B|47:237|87:242|87:242|110:249|110:249|93:210|93:210|132:176|140:113|104:67,1,277.666671962738
3,91,40391,6,0,L|26:132,1,46.6666666666667
47,50,40683,2,0,L|45:101,1,46.6666666666667
150,62,40976,2,0,L|125:101,1,46.6666666666667
207,79,41269,2,0,L|161:103,1,46.6666666666667
77,196,41561,6,0,B|82:222|76:244|76:244|87:240|79:247|79:247|87:258|87:258|86:283,1,87.5000033378602
24,316,41854,2,0,P|32:328|51:343,1,35.0000013351441
174,305,42049,1,0,0:0:0:0:
196,329,42147,1,0,0:0:0:0:
251,321,42244,1,0,0:0:0:0:
307,314,42342,1,0,0:0:0:0:
405,332,42439,1,0,0:0:0:0:
397,276,42536,1,0,0:0:0:0:
390,220,42634,1,0,0:0:0:0:
292,202,42732,6,0,P|269:180|253:138,1,70.0000026702882
358,119,42976,6,0,B|372:125|392:118|392:118|395:121|395:121|398:118|398:118|411:133|455:139,1,87.5
479,225,43171,6,0,L|478:258,1,23.3333333333333
277,213,43317,6,0,P|254:191|238:149,1,70.0000026702882
343,130,43561,6,0,B|357:136|377:129|377:129|380:132|380:132|383:129|383:129|396:144|440:150,1,87.5
464,236,43756,6,0,L|463:269,1,23.3333333333333
383,346,43903,6,0,B|352:350|334:343|334:343|317:334|317:334|309:335|309:335|306:328|306:328|280:327|280:327|271:333|271:333|260:328|260:328|253:329,1,140.000005340576
177,297,44147,2,0,P|188:278|214:256,2,35.0000013351441
67,352,44342,2,0,B|90:328|90:328|76:274|108:237|108:237|94:217|94:217|98:182|81:148,1,210.000008010865
61,121,44683,1,0,0:0:0:0:
4,202,44781,1,0,0:0:0:0:
108,237,44878,1,0,0:0:0:0:
217,194,44976,1,0,0:0:0:0:
326,216,45074,1,0,0:0:0:0:
