osu file format v14

[General]
AudioFilename: audio.mp3
AudioLeadIn: 0
PreviewTime: 55239
Countdown: 0
SampleSet: Normal
StackLeniency: 0.7
Mode: 1
LetterboxInBreaks: 0
WidescreenStoryboard: 0

[Editor]
DistanceSpacing: 1.1
BeatDivisor: 4
GridSize: 32
TimelineZoom: 2.1

[Metadata]
Title:breath of stella
TitleUnicode:breath of stella
Artist:Aimiya Zero
ArtistUnicode:相宮零
Creator:hz404
Version:The True Journey
Source:終のステラ
Tags:tsui no stella of the end Original Soundtrack 針原翼 harihara tsubasa harryp はりーP 棚橋EDDYテルアキ tanahashi eddy teruaki ビジュアルアーツ visual arts visualarts art's key sounds label ksl キネティックノベル kinetic novel opening op vn video game theme videogame vgm japanese rock j-rock jrock pop j-pop jpop ksla-0194
BeatmapID:4444324
BeatmapSetID:2116318

[Difficulty]
HPDrainRate:5
CircleSize:5
OverallDifficulty:6.5
ApproachRate:10
SliderMultiplier:1.4
SliderTickRate:1

[Events]
//Background and Video events
0,0,"bg.jpg",0,50
//Break Periods
2,142968,147772
//Storyboard Layer 0 (Background)
//Storyboard Layer 1 (Fail)
//Storyboard Layer 2 (Pass)
//Storyboard Layer 3 (Foreground)
//Storyboard Layer 4 (Overlay)
//Storyboard Sound Samples

[TimingPoints]
950,340.909090909091,4,1,0,50,1,0
950,-117.647058823529,4,1,0,50,0,0
10410,-100,4,1,0,70,0,0
10485,-117.647058823529,4,1,0,70,0,0
10655,-115.115199594903,4,1,0,70,0,0
10826,-112.676056338028,4,1,0,70,0,0
10996,-110.351522996643,4,1,0,70,0,0
11167,-108.108108108108,4,1,0,70,0,0
11337,-105.966438781852,4,1,0,70,0,0
11508,-103.896103896104,4,1,0,70,0,0
11678,-101.91653902193,4,1,0,70,0,0
11849,-100,4,1,0,70,0,0
15864,-89.2857142857143,4,1,0,70,0,0
17228,-100,4,1,0,70,0,0
22682,-111.111111111111,4,1,0,60,0,0
32633,-111.111111111111,4,1,0,60,0,0
32803,-109.085092770313,4,1,0,60,0,0
32860,-108.437566249735,4,1,0,60,0,0
32917,-107.786323885787,4,1,0,60,0,0
32974,-107.142857142857,4,1,0,60,0,0
33144,-105.268573780613,4,1,0,60,0,0
33315,-103.448275862069,4,1,0,60,0,0
33592,-100,4,1,0,70,0,0
33655,-100,4,1,0,70,0,0
54803,-100,4,1,0,70,0,0
54974,-97.5539979974253,4,1,0,70,0,0
55144,-95.2380952380952,4,1,0,70,0,0
55315,-93.0169121658483,4,1,0,70,0,0
55400,-91.9509235539976,4,1,0,70,0,0
55452,-90.9090909090909,4,1,0,80,0,0
55485,-90.9090909090909,4,1,0,80,0,0
55495,-90.9090909090909,4,1,0,80,0,1
77313,-90.9090909090909,4,1,0,80,0,0
77474,-90.9090909090909,4,1,0,80,0,0
77644,-91.7411435339722,4,1,0,80,0,0
77815,-92.5935988697495,4,1,0,80,0,0
77985,-93.4569187736522,4,1,0,80,0,0
78155,-94.336488955323,4,1,0,80,0,0
78326,-95.2380952380952,4,1,0,80,0,0
81905,-95.2380952380952,4,1,0,80,0,0
81991,-96.6298499008779,4,1,0,80,0,0
82076,-98.0459770114943,4,1,0,80,0,0
82246,-101.006512729426,4,1,0,80,0,0
82332,-102.573352573353,4,1,0,80,0,0
82417,-104.170482994443,4,1,0,80,0,0
82502,-105.818136707604,4,1,0,80,0,0
82587,-107.518749606101,4,1,0,80,0,0
82672,-109.27491673072,4,1,0,80,0,0
82758,-111.111111111111,4,1,0,80,0,0
83023,-111.111111111111,4,1,0,70,0,0
92644,-111.111111111111,4,1,0,70,0,0
92815,-109.085092770313,4,1,0,70,0,0
92900,-108.105252034239,4,1,0,70,0,0
92985,-107.142857142857,4,1,0,70,0,0
93155,-105.268573780613,4,1,0,70,0,0
93326,-103.448275862069,4,1,0,70,0,0
93496,-101.699970175962,4,1,0,70,0,0
93667,-100,4,1,0,70,0,0
103894,-100,4,1,0,70,0,0
104150,-103.900060938452,4,1,0,70,0,0
104405,-108.099540339198,4,1,0,70,0,0
104576,-111.111111111111,4,1,0,70,0,0
109955,-100,4,1,0,70,0,0
114292,-100,4,1,0,70,0,0
114377,-99.2925509779442,4,1,0,70,0,0
114462,-98.595041322314,4,1,0,70,0,0
114547,-97.9072630283135,4,1,0,70,0,0
114633,-97.2210903756825,4,1,0,70,0,0
114803,-95.8926131339924,4,1,0,70,0,0
114888,-95.2418968545425,4,1,0,70,0,0
114974,-94.592451633365,4,1,0,70,0,0
115144,-93.3343764669066,4,1,0,70,0,0
115229,-92.7178052382063,4,1,0,70,0,0
115315,-92.102215702926,4,1,0,70,0,0
115452,-90.9090909090909,4,1,0,80,0,0
115485,-90.9090909090909,4,1,0,80,0,0
115495,-90.9090909090909,4,1,0,80,0,1
137313,-90.9090909090909,4,1,0,80,0,0
137398,-90.9090909090909,4,1,0,40,0,0
137569,-111.111111111111,4,1,0,40,0,0
148137,-111.111111111111,4,1,0,60,0,0
157725,-111.111111111111,4,1,0,70,0,0
157758,-111.111111111111,4,1,0,70,0,0
157928,-109.094790777114,4,1,0,70,0,0
158099,-107.139113114582,4,1,0,70,0,0
158269,-105.263157894737,4,1,0,70,0,0
158440,-103.441295546559,4,1,0,70,0,0
158525,-102.558956347215,4,1,0,70,0,0
158610,-101.691542288557,4,1,0,70,0,0
158780,-100,4,1,0,70,0,0
171735,-100,4,1,0,70,0,0
171820,-99.1759573436743,4,1,0,70,0,0
171905,-98.3653846153846,4,1,0,70,0,0
172076,-96.7741935483871,4,1,0,70,0,0
172246,-95.2425286286193,4,1,0,70,0,0
172332,-94.4860072042117,4,1,0,70,0,0
172417,-93.75,4,1,0,70,0,0
172502,-93.0253705556061,4,1,0,70,0,0
172587,-92.3118570655116,4,1,0,70,0,0
172672,-91.6092056953524,4,1,0,70,0,0
172725,-90.9090909090909,4,1,0,80,0,0
172758,-90.9090909090909,4,1,0,80,0,0
172768,-90.9090909090909,4,1,0,80,0,1
216404,-90.9090909090909,4,1,0,80,0,0
216489,-111.111111111111,4,1,0,50,0,0
221859,344.827586206897,4,1,0,50,1,0
221859,-109.89010989011,4,1,0,50,0,0
222548,340.909090909091,4,1,0,50,1,8
222548,-111.111111111111,4,1,0,50,0,8
223229,337.078651685393,4,1,0,50,1,0
223229,-112.359550561798,4,1,0,50,0,0
223734,365.853658536586,4,1,0,50,1,8
223916,368.098159509203,4,1,0,50,1,8
223916,-103.092783505155,4,1,0,50,0,8
224284,377.358490566038,4,1,0,50,1,8
224647,331.491712707183,4,1,0,50,1,0
224647,-113.636363636364,4,1,0,50,0,0
224812,363.636363636364,4,1,0,50,1,8
225175,437.956204379563,4,1,0,50,1,8
225393,365.853658536586,4,1,0,50,1,8
225761,370.37037037037,4,1,0,50,1,8
226175,472.440944881889,4,1,0,50,1,0
226175,-80,4,1,0,50,0,0
226620,500,4,1,0,50,1,8
227088,530.973451327434,4,1,0,50,1,8

[HitObjects]
256,192,950,5,0,0:0:0:0:
256,192,1290,1,0,0:0:0:0:
256,192,1461,1,0,0:0:0:0:
256,192,1631,1,8,0:0:0:0:
256,192,1972,1,8,0:0:0:0:
256,192,2143,1,0,0:0:0:0:
256,192,2313,1,8,0:0:0:0:
256,192,2484,1,0,0:0:0:0:
256,192,2654,1,8,0:0:0:0:
256,192,2825,1,8,0:0:0:0:
256,192,2995,1,0,0:0:0:0:
256,192,3677,1,8,0:0:0:0:
256,192,4018,1,0,0:0:0:0:
256,192,4188,1,0,0:0:0:0:
256,192,4359,1,8,0:0:0:0:
256,192,4529,1,8,0:0:0:0:
256,192,4700,1,0,0:0:0:0:
256,192,5040,1,8,0:0:0:0:
256,192,5381,1,0,0:0:0:0:
256,192,5552,1,8,0:0:0:0:
256,192,5722,1,0,0:0:0:0:
256,192,6404,1,0,0:0:0:0:
256,192,6745,1,0,0:0:0:0:
256,192,6915,1,0,0:0:0:0:
256,192,7086,1,8,0:0:0:0:
256,192,7427,1,0,0:0:0:0:
256,192,7768,1,8,0:0:0:0:
256,192,7938,1,8,0:0:0:0:
256,192,8109,1,0,0:0:0:0:
256,192,8279,1,8,0:0:0:0:
256,192,8450,1,0,0:0:0:0:
256,192,8790,1,8,0:0:0:0:
256,192,10495,1,8,0:0:0:0:
256,192,10665,1,8,0:0:0:0:
256,192,10836,1,0,0:0:0:0:
256,192,11006,1,0,0:0:0:0:
256,192,11177,1,8,0:0:0:0:
256,192,11347,1,0,0:0:0:0:
256,192,11518,1,8,0:0:0:0:
256,192,11688,1,8,0:0:0:0:
256,128,11859,1,4,0:0:0:0:
256,192,12029,12,0,14586,0:0:0:0:
256,192,15950,5,8,0:0:0:0:
256,192,16120,1,0,0:0:0:0:
256,192,16290,1,0,0:0:0:0:
256,192,16461,1,8,0:0:0:0:
256,192,16802,1,0,0:0:0:0:
256,192,16972,1,0,0:0:0:0:
256,192,17143,1,8,0:0:0:0:
256,128,17995,1,4,0:0:0:0:
256,192,18336,1,8,0:0:0:0:
256,192,18506,1,0,0:0:0:0:
256,192,18592,1,0,0:0:0:0:
256,192,18677,1,0,0:0:0:0:
256,192,18847,1,0,0:0:0:0:
256,192,19018,1,8,0:0:0:0:
256,192,19188,1,8,0:0:0:0:
256,192,19273,1,8,0:0:0:0:
256,192,19359,1,0,0:0:0:0:
256,192,19444,1,0,0:0:0:0:
256,192,19529,1,8,0:0:0:0:
256,192,19700,1,0,0:0:0:0:
256,192,19870,1,8,0:0:0:0:
256,192,19955,1,0,0:0:0:0:
256,192,20040,1,0,0:0:0:0:
256,192,20211,1,0,0:0:0:0:
256,192,20381,1,8,0:0:0:0:
256,192,20552,1,0,0:0:0:0:
256,192,20637,1,0,0:0:0:0:
256,192,20722,1,8,0:0:0:0:
256,192,20807,1,8,0:0:0:0:
256,192,20893,1,0,0:0:0:0:
256,192,21063,1,8,0:0:0:0:
256,192,21234,1,8,0:0:0:0:
256,192,21319,1,8,0:0:0:0:
256,192,21404,1,0,0:0:0:0:
256,192,21489,1,0,0:0:0:0:
256,192,21575,1,8,0:0:0:0:
256,192,21660,1,0,0:0:0:0:
256,192,21745,1,8,0:0:0:0:
256,192,21830,1,8,0:0:0:0:
256,192,21915,1,0,0:0:0:0:
256,192,22256,1,0,0:0:0:0:
256,192,22427,1,8,0:0:0:0:
256,128,22768,1,4,0:0:0:0:
256,192,22938,1,0,0:0:0:0:
256,192,23109,1,8,0:0:0:0:
256,192,23165,1,8,0:0:0:0:
256,192,23222,1,0,0:0:0:0:
256,192,23279,1,0,0:0:0:0:
256,192,23450,1,8,0:0:0:0:
256,192,23620,1,0,0:0:0:0:
256,192,23790,1,8,0:0:0:0:
256,192,24131,1,0,0:0:0:0:
256,192,24472,1,0,0:0:0:0:
256,192,24643,1,8,0:0:0:0:
256,192,24700,1,8,0:0:0:0:
256,192,24756,1,8,0:0:0:0:
256,192,24813,1,0,0:0:0:0:
256,192,24984,1,0,0:0:0:0:
256,192,25154,1,8,0:0:0:0:
256,192,25325,1,0,0:0:0:0:
256,192,25381,1,8,0:0:0:0:
256,192,25438,1,8,0:0:0:0:
256,192,25495,1,0,0:0:0:0:
256,192,25665,1,0,0:0:0:0:
256,192,25836,1,8,0:0:0:0:
256,192,25893,1,8,0:0:0:0:
256,192,25950,1,8,0:0:0:0:
256,192,26006,1,0,0:0:0:0:
256,192,26177,1,8,0:0:0:0:
256,192,26347,1,0,0:0:0:0:
256,192,26518,1,8,0:0:0:0:
256,192,26859,1,0,0:0:0:0:
256,192,27200,1,8,0:0:0:0:
256,192,27370,1,0,0:0:0:0:
256,192,27427,1,8,0:0:0:0:
256,192,27484,1,8,0:0:0:0:
256,192,27540,1,0,0:0:0:0:
256,192,27711,1,0,0:0:0:0:
256,192,27881,1,8,0:0:0:0:
256,192,28052,1,8,0:0:0:0:
256,192,28222,1,0,0:0:0:0:
256,192,28563,1,8,0:0:0:0:
256,192,28620,1,8,0:0:0:0:
256,192,28677,1,8,0:0:0:0:
256,192,28734,1,0,0:0:0:0:
256,192,28904,1,8,0:0:0:0:
256,192,29075,1,8,0:0:0:0:
256,192,29245,1,0,0:0:0:0:
256,192,29586,1,0,0:0:0:0:
256,192,29927,1,8,0:0:0:0:
256,192,30097,1,0,0:0:0:0:
256,192,30154,1,8,0:0:0:0:
256,192,30211,1,8,0:0:0:0:
256,192,30268,1,0,0:0:0:0:
256,192,30438,1,0,0:0:0:0:
256,192,30609,1,8,0:0:0:0:
256,192,30779,1,8,0:0:0:0:
256,192,30836,1,8,0:0:0:0:
256,192,30893,1,8,0:0:0:0:
256,192,30950,1,0,0:0:0:0:
256,192,31120,1,0,0:0:0:0:
256,192,31290,1,8,0:0:0:0:
256,192,31347,1,8,0:0:0:0:
256,192,31404,1,0,0:0:0:0:
256,192,31461,1,0,0:0:0:0:
256,192,31631,1,8,0:0:0:0:
256,192,31802,1,0,0:0:0:0:
256,192,31972,1,8,0:0:0:0:
256,192,32313,1,0,0:0:0:0:
256,192,32484,1,0,0:0:0:0:
256,192,32654,1,8,0:0:0:0:
256,192,32825,1,0,0:0:0:0:
256,192,32881,1,0,0:0:0:0:
256,192,32938,1,0,0:0:0:0:
256,192,32995,1,8,0:0:0:0:
256,192,33165,1,0,0:0:0:0:
256,128,33336,1,12,0:0:0:0:
256,128,33677,1,4,0:0:0:0:
256,192,34018,1,8,0:0:0:0:
256,192,34188,1,0,0:0:0:0:
256,192,34273,1,8,0:0:0:0:
256,192,34359,1,0,0:0:0:0:
256,192,34529,1,0,0:0:0:0:
256,192,34700,1,8,0:0:0:0:
256,192,34870,1,8,0:0:0:0:
256,192,34955,1,8,0:0:0:0:
256,192,35040,1,0,0:0:0:0:
256,192,35211,1,0,0:0:0:0:
256,192,35381,1,8,0:0:0:0:
256,192,35552,1,0,0:0:0:0:
256,192,35637,1,0,0:0:0:0:
256,192,35722,1,8,0:0:0:0:
256,192,35807,1,8,0:0:0:0:
256,192,35893,1,0,0:0:0:0:
256,192,36063,1,8,0:0:0:0:
256,192,36404,1,0,0:0:0:0:
256,192,36745,1,8,0:0:0:0:
256,192,36915,1,8,0:0:0:0:
256,192,37001,1,8,0:0:0:0:
256,192,37086,1,0,0:0:0:0:
256,192,37256,1,0,0:0:0:0:
256,192,37427,1,8,0:0:0:0:
256,192,37597,1,8,0:0:0:0:
256,192,37768,1,0,0:0:0:0:
256,192,37938,1,8,0:0:0:0:
256,192,38023,1,0,0:0:0:0:
256,192,38109,1,8,0:0:0:0:
256,192,38279,1,0,0:0:0:0:
256,192,38364,1,8,0:0:0:0:
256,192,38450,1,0,0:0:0:0:
256,192,38535,1,0,0:0:0:0:
256,192,38620,1,8,0:0:0:0:
256,192,38790,1,0,0:0:0:0:
256,192,38961,1,8,0:0:0:0:
256,192,39131,1,0,0:0:0:0:
256,192,39472,1,8,0:0:0:0:
256,192,39643,1,0,0:0:0:0:
256,192,39728,1,8,0:0:0:0:
256,192,39813,1,0,0:0:0:0:
256,192,39984,1,0,0:0:0:0:
256,192,40154,1,8,0:0:0:0:
256,192,40325,1,8,0:0:0:0:
256,192,40410,1,8,0:0:0:0:
256,192,40495,1,0,0:0:0:0:
256,192,40665,1,0,0:0:0:0:
256,192,40836,1,8,0:0:0:0:
256,192,41006,1,0,0:0:0:0:
256,192,41092,1,0,0:0:0:0:
256,192,41177,1,8,0:0:0:0:
256,192,41262,1,8,0:0:0:0:
256,192,41347,1,0,0:0:0:0:
256,192,41518,1,8,0:0:0:0:
256,192,41859,1,0,0:0:0:0:
256,192,42200,1,8,0:0:0:0:
256,192,42540,1,0,0:0:0:0:
256,192,42711,1,0,0:0:0:0:
256,192,42796,1,0,0:0:0:0:
256,192,42881,1,8,0:0:0:0:
256,192,43052,1,0,0:0:0:0:
256,192,43222,1,8,0:0:0:0:
256,192,43393,1,8,0:0:0:0:
256,192,43563,1,0,0:0:0:0:
256,192,43734,1,8,0:0:0:0:
256,192,43819,1,8,0:0:0:0:
256,192,43904,1,0,0:0:0:0:
256,192,44075,1,0,0:0:0:0:
256,192,44245,1,8,0:0:0:0:
256,192,44330,1,0,0:0:0:0:
256,192,44415,1,8,0:0:0:0:
256,192,44501,1,8,0:0:0:0:
256,192,44586,1,0,0:0:0:0:
256,192,44927,1,8,0:0:0:0:
256,192,45268,1,8,0:0:0:0:
256,192,45438,1,0,0:0:0:0:
256,192,45609,1,8,0:0:0:0:
256,192,45779,1,8,0:0:0:0:
256,192,45864,1,8,0:0:0:0:
256,192,45950,1,0,0:0:0:0:
256,192,46120,1,0,0:0:0:0:
256,192,46290,1,8,0:0:0:0:
256,192,46461,1,0,0:0:0:0:
256,192,46802,1,0,0:0:0:0:
256,192,46972,1,8,0:0:0:0:
256,192,47313,1,0,0:0:0:0:
256,192,47654,1,8,0:0:0:0:
256,192,47825,1,0,0:0:0:0:
256,192,47995,1,8,0:0:0:0:
256,192,48165,1,8,0:0:0:0:
256,192,48336,1,0,0:0:0:0:
256,192,48506,1,8,0:0:0:0:
256,192,48677,1,0,0:0:0:0:
256,192,48847,1,0,0:0:0:0:
256,192,49018,1,8,0:0:0:0:
256,192,49188,1,0,0:0:0:0:
256,192,49273,1,0,0:0:0:0:
256,192,49359,1,8,0:0:0:0:
256,192,49529,1,0,0:0:0:0:
256,192,49700,1,8,0:0:0:0:
256,128,50040,1,4,0:0:0:0:
256,192,50381,1,8,0:0:0:0:
256,192,50552,1,8,0:0:0:0:
256,192,50722,1,0,0:0:0:0:
256,192,50893,1,0,0:0:0:0:
256,192,51063,1,8,0:0:0:0:
256,192,51234,1,8,0:0:0:0:
256,192,51319,1,8,0:0:0:0:
256,192,51404,1,0,0:0:0:0:
256,192,51575,1,0,0:0:0:0:
256,192,51745,1,8,0:0:0:0:
256,192,51915,1,0,0:0:0:0:
256,192,52086,1,0,0:0:0:0:
256,192,52256,1,8,0:0:0:0:
256,192,52597,1,8,0:0:0:0:
256,128,52768,1,4,0:0:0:0:
256,192,53109,1,8,0:0:0:0:
256,192,53450,1,0,0:0:0:0:
256,192,53790,1,8,0:0:0:0:
256,192,53961,1,8,0:0:0:0:
256,192,54046,1,8,0:0:0:0:
256,192,54131,1,0,0:0:0:0:
256,192,54472,1,8,0:0:0:0:
256,192,54813,1,0,0:0:0:0:
256,192,54984,1,0,0:0:0:0:
256,192,55154,1,8,0:0:0:0:
256,192,55325,1,8,0:0:0:0:
256,192,55410,1,8,0:0:0:0:
256,192,55495,1,0,0:0:0:0:
256,192,55665,1,0,0:0:0:0:
256,192,55836,1,8,0:0:0:0:
256,192,56006,1,0,0:0:0:0:
256,192,56092,1,8,0:0:0:0:
256,192,56177,1,0,0:0:0:0:
256,192,56262,1,0,0:0:0:0:
256,192,56347,1,8,0:0:0:0:
256,192,56518,1,0,0:0:0:0:
256,192,56688,1,8,0:0:0:0:
256,192,56773,1,8,0:0:0:0:
256,192,56859,1,0,0:0:0:0:
256,192,56944,1,0,0:0:0:0:
256,192,57029,1,8,0:0:0:0:
256,192,57114,1,0,0:0:0:0:
256,192,57200,1,8,0:0:0:0:
256,192,57370,1,8,0:0:0:0:
256,192,57540,1,0,0:0:0:0:
256,192,57626,1,8,0:0:0:0:
256,192,57711,1,0,0:0:0:0:
256,192,57881,1,8,0:0:0:0:
256,192,58052,1,8,0:0:0:0:
256,192,58222,1,0,0:0:0:0:
256,192,58393,1,0,0:0:0:0:
256,192,58478,1,0,0:0:0:0:
256,192,58563,1,8,0:0:0:0:
256,192,58734,1,8,0:0:0:0:
256,192,58904,1,0,0:0:0:0:
256,192,58989,1,0,0:0:0:0:
256,192,59075,1,8,0:0:0:0:
256,192,59160,1,0,0:0:0:0:
256,192,59245,1,8,0:0:0:0:
256,192,59330,1,8,0:0:0:0:
256,192,59415,1,0,0:0:0:0:
256,192,59586,1,8,0:0:0:0:
256,192,59756,1,0,0:0:0:0:
256,192,59927,1,8,0:0:0:0:
256,192,60097,1,8,0:0:0:0:
256,192,60182,1,8,0:0:0:0:
256,192,60268,1,0,0:0:0:0:
256,192,60353,1,0,0:0:0:0:
256,192,60438,1,8,0:0:0:0:
256,192,60609,1,0,0:0:0:0:
256,192,60950,1,8,0:0:0:0:
256,192,61120,1,0,0:0:0:0:
256,192,61205,1,0,0:0:0:0:
256,192,61290,1,8,0:0:0:0:
256,192,61461,1,8,0:0:0:0:
256,192,61546,1,0,0:0:0:0:
256,192,61631,1,8,0:0:0:0:
256,192,61717,1,8,0:0:0:0:
256,192,61802,1,0,0:0:0:0:
256,192,61972,1,0,0:0:0:0:
256,192,62143,1,8,0:0:0:0:
256,192,62313,1,0,0:0:0:0:
256,192,62484,1,0,0:0:0:0:
256,192,62569,1,0,0:0:0:0:
256,192,62654,1,8,0:0:0:0:
256,192,62825,1,0,0:0:0:0:
256,192,62910,1,8,0:0:0:0:
256,192,62995,1,8,0:0:0:0:
256,192,63080,1,8,0:0:0:0:
256,192,63165,1,0,0:0:0:0:
256,192,63336,1,8,0:0:0:0:
256,192,63506,1,0,0:0:0:0:
256,192,63677,1,8,0:0:0:0:
256,192,63847,1,0,0:0:0:0:
256,192,63932,1,0,0:0:0:0:
256,192,64018,1,8,0:0:0:0:
256,192,64188,1,0,0:0:0:0:
256,192,64273,1,8,0:0:0:0:
256,192,64359,1,8,0:0:0:0:
256,192,64444,1,0,0:0:0:0:
256,192,64529,1,8,0:0:0:0:
256,192,64700,1,0,0:0:0:0:
256,192,64870,1,8,0:0:0:0:
256,192,65040,1,0,0:0:0:0:
256,192,65211,1,0,0:0:0:0:
256,192,65296,1,0,0:0:0:0:
256,192,65381,1,8,0:0:0:0:
256,128,65552,1,4,0:0:0:0:
256,192,65893,1,0,0:0:0:0:
256,192,66063,1,8,0:0:0:0:
256,192,66148,1,8,0:0:0:0:
256,192,66234,1,0,0:0:0:0:
256,128,66404,1,12,0:0:0:0:
256,192,66575,1,0,0:0:0:0:
256,192,66745,1,8,0:0:0:0:
256,192,66915,1,0,0:0:0:0:
256,192,67001,1,0,0:0:0:0:
256,192,67086,1,8,0:0:0:0:
256,192,67256,1,0,0:0:0:0:
256,192,67427,1,8,0:0:0:0:
256,192,67512,1,8,0:0:0:0:
256,192,67597,1,0,0:0:0:0:
256,192,67682,1,0,0:0:0:0:
256,192,67768,1,8,0:0:0:0:
256,192,67853,1,0,0:0:0:0:
256,192,67938,1,8,0:0:0:0:
256,192,68109,1,0,0:0:0:0:
256,192,68279,1,8,0:0:0:0:
256,192,68364,1,8,0:0:0:0:
256,192,68450,1,0,0:0:0:0:
256,192,68535,1,8,0:0:0:0:
256,192,68620,1,0,0:0:0:0:
256,192,68790,1,8,0:0:0:0:
256,192,68961,1,8,0:0:0:0:
256,192,69131,1,0,0:0:0:0:
256,192,69302,1,0,0:0:0:0:
256,192,69387,1,0,0:0:0:0:
256,192,69472,1,8,0:0:0:0:
256,192,69643,1,8,0:0:0:0:
256,192,69728,1,0,0:0:0:0:
256,192,69813,1,8,0:0:0:0:
256,192,69898,1,8,0:0:0:0:
256,192,69984,1,0,0:0:0:0:
256,192,70069,1,0,0:0:0:0:
256,192,70154,1,8,0:0:0:0:
256,192,70325,1,0,0:0:0:0:
256,192,70495,1,8,0:0:0:0:
256,192,70580,1,8,0:0:0:0:
256,192,70665,1,0,0:0:0:0:
256,192,70836,1,8,0:0:0:0:
256,192,71006,1,0,0:0:0:0:
256,192,71092,1,8,0:0:0:0:
256,192,71177,1,8,0:0:0:0:
256,192,71262,1,0,0:0:0:0:
256,192,71347,1,8,0:0:0:0:
256,192,71518,1,0,0:0:0:0:
256,192,71859,1,8,0:0:0:0:
256,192,72029,1,0,0:0:0:0:
256,192,72114,1,0,0:0:0:0:
256,192,72200,1,8,0:0:0:0:
256,192,72370,1,8,0:0:0:0:
256,192,72455,1,8,0:0:0:0:
256,192,72540,1,0,0:0:0:0:
256,192,72626,1,8,0:0:0:0:
256,192,72711,1,0,0:0:0:0:
256,192,72881,1,8,0:0:0:0:
256,192,73052,1,0,0:0:0:0:
256,192,73137,1,0,0:0:0:0:
256,192,73222,1,8,0:0:0:0:
256,192,73307,1,0,0:0:0:0:
256,192,73393,1,8,0:0:0:0:
256,192,73478,1,8,0:0:0:0:
256,192,73563,1,0,0:0:0:0:
256,192,73734,1,8,0:0:0:0:
256,192,73819,1,0,0:0:0:0:
256,192,73904,1,8,0:0:0:0:
256,192,74075,1,0,0:0:0:0:
256,192,74245,1,8,0:0:0:0:
256,192,74415,1,0,0:0:0:0:
256,192,74501,1,8,0:0:0:0:
256,192,74586,1,0,0:0:0:0:
256,192,74756,1,0,0:0:0:0:
256,192,74927,1,8,0:0:0:0:
256,192,75097,1,0,0:0:0:0:
256,192,75182,1,8,0:0:0:0:
256,192,75268,1,8,0:0:0:0:
256,192,75353,1,0,0:0:0:0:
256,192,75438,1,8,0:0:0:0:
256,192,75609,1,0,0:0:0:0:
256,192,75694,1,0,0:0:0:0:
256,192,75779,1,8,0:0:0:0:
256,192,75950,1,8,0:0:0:0:
256,192,76120,1,0,0:0:0:0:
256,192,76205,1,0,0:0:0:0:
256,192,76290,1,8,0:0:0:0:
256,192,76376,1,8,0:0:0:0:
256,192,76461,1,8,0:0:0:0:
256,192,76546,1,8,0:0:0:0:
256,192,76631,1,0,0:0:0:0:
256,192,76717,1,8,0:0:0:0:
256,192,76802,1,0,0:0:0:0:
256,192,76887,1,0,0:0:0:0:
256,192,76972,1,8,0:0:0:0:
256,192,77057,1,0,0:0:0:0:
256,192,77143,1,8,0:0:0:0:
256,192,77228,1,8,0:0:0:0:
256,192,77313,1,0,0:0:0:0:
256,192,77484,1,0,0:0:0:0:
256,192,77654,1,8,0:0:0:0:
256,192,77825,1,0,0:0:0:0:
256,192,77995,1,8,0:0:0:0:
256,192,78165,1,8,0:0:0:0:
256,192,78336,1,0,0:0:0:0:
256,192,78506,1,0,0:0:0:0:
256,192,78677,1,8,0:0:0:0:
256,192,78847,1,0,0:0:0:0:
256,192,79018,1,8,0:0:0:0:
256,192,79188,1,8,0:0:0:0:
256,128,79359,1,4,0:0:0:0:
256,128,79614,1,4,0:0:0:0:
256,128,79870,1,12,0:0:0:0:
256,192,80040,1,0,0:0:0:0:
256,192,80126,1,0,0:0:0:0:
256,192,80211,1,8,0:0:0:0:
256,192,80381,1,8,0:0:0:0:
256,192,80722,1,8,0:0:0:0:
256,192,80893,1,0,0:0:0:0:
256,192,81063,1,0,0:0:0:0:
256,192,81234,1,8,0:0:0:0:
256,192,81404,1,8,0:0:0:0:
256,192,81575,1,0,0:0:0:0:
256,192,81745,1,8,0:0:0:0:
256,192,81915,1,0,0:0:0:0:
256,192,82001,1,0,0:0:0:0:
256,192,82086,1,8,0:0:0:0:
256,192,82256,1,8,0:0:0:0:
256,192,82342,1,8,0:0:0:0:
256,192,82427,1,0,0:0:0:0:
256,192,82512,1,0,0:0:0:0:
256,192,82597,1,8,0:0:0:0:
256,192,82682,1,8,0:0:0:0:
256,192,82768,1,0,0:0:0:0:
256,192,83109,1,8,0:0:0:0:
256,192,83279,1,0,0:0:0:0:
256,192,83450,1,0,0:0:0:0:
256,192,83620,1,0,0:0:0:0:
256,192,83790,1,8,0:0:0:0:
256,192,83961,1,8,0:0:0:0:
256,192,84131,1,0,0:0:0:0:
256,192,84472,1,8,0:0:0:0:
256,192,84643,1,0,0:0:0:0:
256,192,84728,1,8,0:0:0:0:
256,192,84813,1,0,0:0:0:0:
256,192,84984,1,0,0:0:0:0:
256,192,85069,1,0,0:0:0:0:
256,192,85154,1,8,0:0:0:0:
256,192,85325,1,8,0:0:0:0:
256,192,85495,1,0,0:0:0:0:
256,192,85836,1,8,0:0:0:0:
256,192,86006,1,8,0:0:0:0:
256,192,86177,1,0,0:0:0:0:
256,192,86347,1,0,0:0:0:0:
256,192,86518,1,8,0:0:0:0:
256,192,86859,1,0,0:0:0:0:
256,192,87029,1,0,0:0:0:0:
256,192,87200,1,8,0:0:0:0:
256,192,87370,1,8,0:0:0:0:
256,192,87455,1,0,0:0:0:0:
256,192,87540,1,0,0:0:0:0:
256,192,87711,1,8,0:0:0:0:
256,192,87796,1,8,0:0:0:0:
256,192,87881,1,0,0:0:0:0:
256,192,88052,1,8,0:0:0:0:
256,192,88222,1,0,0:0:0:0:
256,192,88563,1,8,0:0:0:0:
256,192,88734,1,8,0:0:0:0:
256,192,88904,1,0,0:0:0:0:
256,192,89075,1,0,0:0:0:0:
256,192,89245,1,8,0:0:0:0:
256,192,89415,1,8,0:0:0:0:
256,192,89586,1,0,0:0:0:0:
256,192,89927,1,8,0:0:0:0:
256,192,90097,1,0,0:0:0:0:
256,192,90182,1,8,0:0:0:0:
256,192,90268,1,0,0:0:0:0:
256,192,90438,1,0,0:0:0:0:
256,192,90523,1,0,0:0:0:0:
256,192,90609,1,8,0:0:0:0:
256,192,90779,1,8,0:0:0:0:
256,192,90950,1,0,0:0:0:0:
256,192,91290,1,8,0:0:0:0:
256,192,91631,1,0,0:0:0:0:
256,192,91802,1,0,0:0:0:0:
256,192,91972,1,8,0:0:0:0:
256,192,92143,1,8,0:0:0:0:
256,192,92313,1,0,0:0:0:0:
256,192,92484,1,8,0:0:0:0:
256,192,92654,1,0,0:0:0:0:
256,192,92825,1,8,0:0:0:0:
256,192,92910,1,8,0:0:0:0:
256,192,92995,1,0,0:0:0:0:
256,192,93165,1,0,0:0:0:0:
256,192,93251,1,0,0:0:0:0:
256,192,93336,1,8,0:0:0:0:
256,192,93506,1,8,0:0:0:0:
256,128,93677,1,4,0:0:0:0:
256,192,94018,1,8,0:0:0:0:
256,192,94188,1,0,0:0:0:0:
256,192,94273,1,8,0:0:0:0:
256,192,94359,1,0,0:0:0:0:
256,192,94529,1,0,0:0:0:0:
256,192,94700,1,8,0:0:0:0:
256,192,94870,1,8,0:0:0:0:
256,192,94955,1,8,0:0:0:0:
256,192,95040,1,0,0:0:0:0:
256,192,95211,1,0,0:0:0:0:
256,192,95381,1,8,0:0:0:0:
256,192,95552,1,0,0:0:0:0:
256,192,95637,1,0,0:0:0:0:
256,192,95722,1,8,0:0:0:0:
256,192,95807,1,8,0:0:0:0:
256,192,95893,1,0,0:0:0:0:
256,192,96063,1,8,0:0:0:0:
256,192,96404,1,0,0:0:0:0:
256,192,96745,1,8,0:0:0:0:
256,192,97086,1,0,0:0:0:0:
256,192,97256,1,0,0:0:0:0:
256,192,97342,1,0,0:0:0:0:
256,192,97427,1,8,0:0:0:0:
256,192,97597,1,8,0:0:0:0:
256,192,97768,1,0,0:0:0:0:
256,192,97938,1,8,0:0:0:0:
256,192,98023,1,0,0:0:0:0:
256,192,98109,1,8,0:0:0:0:
256,192,98279,1,0,0:0:0:0:
256,192,98364,1,0,0:0:0:0:
256,192,98450,1,8,0:0:0:0:
256,192,98535,1,0,0:0:0:0:
256,192,98620,1,8,0:0:0:0:
256,192,98790,1,0,0:0:0:0:
256,192,99131,1,0,0:0:0:0:
256,192,99472,1,8,0:0:0:0:
256,192,99643,1,0,0:0:0:0:
256,192,99728,1,0,0:0:0:0:
256,192,99813,1,8,0:0:0:0:
256,192,99984,1,0,0:0:0:0:
256,192,100154,1,8,0:0:0:0:
256,192,100325,1,0,0:0:0:0:
256,192,100410,1,8,0:0:0:0:
256,192,100495,1,0,0:0:0:0:
256,192,100665,1,0,0:0:0:0:
256,192,100836,1,8,0:0:0:0:
256,192,101006,1,8,0:0:0:0:
256,192,101092,1,8,0:0:0:0:
256,192,101177,1,0,0:0:0:0:
256,192,101262,1,8,0:0:0:0:
256,192,101347,1,0,0:0:0:0:
256,192,101518,1,8,0:0:0:0:
256,192,101859,1,0,0:0:0:0:
256,192,102200,1,8,0:0:0:0:
256,192,102370,1,0,0:0:0:0:
256,192,102455,1,0,0:0:0:0:
256,192,102540,1,8,0:0:0:0:
256,192,102711,1,0,0:0:0:0:
256,192,102881,1,8,0:0:0:0:
256,192,103052,1,0,0:0:0:0:
256,192,103137,1,8,0:0:0:0:
256,192,103222,1,0,0:0:0:0:
256,192,103393,1,0,0:0:0:0:
256,192,103563,1,8,0:0:0:0:
256,192,103648,1,8,0:0:0:0:
256,192,103734,1,0,0:0:0:0:
256,192,103819,1,0,0:0:0:0:
256,192,103904,1,8,0:0:0:0:
256,192,104160,1,8,0:0:0:0:
256,192,104415,1,8,0:0:0:0:
256,128,104586,1,4,0:0:0:0:
256,192,105097,1,8,0:0:0:0:
256,192,105268,1,0,0:0:0:0:
256,192,105438,1,0,0:0:0:0:
256,192,105609,1,8,0:0:0:0:
256,192,105779,1,8,0:0:0:0:
256,192,105950,1,0,0:0:0:0:
256,192,106120,1,0,0:0:0:0:
256,192,106461,1,8,0:0:0:0:
256,192,106631,1,0,0:0:0:0:
256,192,106802,1,8,0:0:0:0:
256,192,106972,1,8,0:0:0:0:
256,192,107313,1,0,0:0:0:0:
256,192,107825,1,8,0:0:0:0:
256,192,107995,1,0,0:0:0:0:
256,192,108165,1,8,0:0:0:0:
256,192,108336,1,0,0:0:0:0:
256,192,108506,1,0,0:0:0:0:
256,192,108677,1,8,0:0:0:0:
256,192,108847,1,0,0:0:0:0:
256,192,109188,1,8,0:0:0:0:
256,192,109359,1,0,0:0:0:0:
256,192,109529,1,0,0:0:0:0:
256,192,109700,1,8,0:0:0:0:
256,128,110040,1,4,0:0:0:0:
256,192,110211,1,0,0:0:0:0:
256,192,110381,1,8,0:0:0:0:
256,192,110722,1,0,0:0:0:0:
256,192,110893,1,0,0:0:0:0:
256,192,111063,1,8,0:0:0:0:
256,192,111234,1,8,0:0:0:0:
256,192,111319,1,8,0:0:0:0:
256,192,111404,1,0,0:0:0:0:
256,192,111575,1,0,0:0:0:0:
256,192,111745,1,8,0:0:0:0:
256,192,111915,1,0,0:0:0:0:
256,192,112086,1,0,0:0:0:0:
256,192,112171,1,8,0:0:0:0:
256,192,112256,1,0,0:0:0:0:
256,192,112427,1,8,0:0:0:0:
256,192,112597,1,8,0:0:0:0:
256,128,112768,1,4,0:0:0:0:
256,192,113109,1,8,0:0:0:0:
256,192,113279,1,0,0:0:0:0:
256,192,113364,1,0,0:0:0:0:
256,192,113450,1,8,0:0:0:0:
256,192,113620,1,0,0:0:0:0:
256,192,113790,1,8,0:0:0:0:
256,192,113876,1,8,0:0:0:0:
256,192,113961,1,0,0:0:0:0:
256,192,114131,1,8,0:0:0:0:
256,192,114302,1,0,0:0:0:0:
256,192,114387,1,8,0:0:0:0:
256,192,114472,1,0,0:0:0:0:
256,192,114557,1,0,0:0:0:0:
256,192,114643,1,8,0:0:0:0:
256,192,114813,1,0,0:0:0:0:
256,192,114898,1,8,0:0:0:0:
256,192,114984,1,8,0:0:0:0:
256,192,115154,1,0,0:0:0:0:
256,192,115239,1,0,0:0:0:0:
256,192,115325,1,8,0:0:0:0:
256,128,115495,1,4,0:0:0:0:
256,192,115665,1,0,0:0:0:0:
256,192,115836,1,8,0:0:0:0:
256,192,116006,1,0,0:0:0:0:
256,192,116092,1,8,0:0:0:0:
256,192,116177,1,0,0:0:0:0:
256,192,116262,1,0,0:0:0:0:
256,192,116347,1,8,0:0:0:0:
256,192,116518,1,0,0:0:0:0:
256,192,116688,1,8,0:0:0:0:
256,192,116773,1,8,0:0:0:0:
256,192,116859,1,0,0:0:0:0:
256,192,116944,1,8,0:0:0:0:
256,192,117029,1,0,0:0:0:0:
256,192,117114,1,0,0:0:0:0:
256,192,117200,1,8,0:0:0:0:
256,192,117370,1,8,0:0:0:0:
256,192,117540,1,0,0:0:0:0:
256,192,117626,1,8,0:0:0:0:
256,192,117711,1,0,0:0:0:0:
256,192,117881,1,8,0:0:0:0:
256,192,118052,1,0,0:0:0:0:
256,192,118222,1,8,0:0:0:0:
256,192,118393,1,8,0:0:0:0:
256,192,118478,1,8,0:0:0:0:
256,192,118563,1,0,0:0:0:0:
256,192,118734,1,0,0:0:0:0:
256,192,118819,1,0,0:0:0:0:
256,192,118904,1,8,0:0:0:0:
256,192,118989,1,0,0:0:0:0:
256,192,119075,1,8,0:0:0:0:
256,192,119160,1,8,0:0:0:0:
256,192,119245,1,0,0:0:0:0:
256,192,119415,1,8,0:0:0:0:
256,192,119586,1,0,0:0:0:0:
256,192,119756,1,8,0:0:0:0:
256,192,119842,1,0,0:0:0:0:
256,192,119927,1,8,0:0:0:0:
256,192,120097,1,0,0:0:0:0:
256,192,120182,1,8,0:0:0:0:
256,192,120268,1,8,0:0:0:0:
256,192,120353,1,0,0:0:0:0:
256,192,120438,1,8,0:0:0:0:
256,192,120609,1,0,0:0:0:0:
256,192,120950,1,8,0:0:0:0:
256,192,121120,1,0,0:0:0:0:
256,192,121205,1,0,0:0:0:0:
256,192,121290,1,8,0:0:0:0:
256,192,121461,1,8,0:0:0:0:
256,192,121546,1,8,0:0:0:0:
256,192,121631,1,0,0:0:0:0:
256,192,121717,1,8,0:0:0:0:
256,192,121802,1,0,0:0:0:0:
256,192,121972,1,8,0:0:0:0:
256,192,122143,1,8,0:0:0:0:
256,192,122313,1,0,0:0:0:0:
256,192,122484,1,0,0:0:0:0:
256,192,122569,1,0,0:0:0:0:
256,192,122654,1,8,0:0:0:0:
256,192,122825,1,8,0:0:0:0:
256,192,122910,1,0,0:0:0:0:
256,192,122995,1,8,0:0:0:0:
256,192,123080,1,8,0:0:0:0:
256,192,123165,1,0,0:0:0:0:
256,192,123336,1,8,0:0:0:0:
256,192,123506,1,8,0:0:0:0:
256,192,123677,1,0,0:0:0:0:
256,192,123847,1,0,0:0:0:0:
256,192,123932,1,0,0:0:0:0:
256,192,124018,1,8,0:0:0:0:
256,192,124188,1,0,0:0:0:0:
256,192,124273,1,8,0:0:0:0:
256,192,124359,1,8,0:0:0:0:
256,192,124444,1,8,0:0:0:0:
256,192,124529,1,0,0:0:0:0:
256,192,124700,1,8,0:0:0:0:
256,192,124870,1,8,0:0:0:0:
256,192,125040,1,0,0:0:0:0:
256,192,125211,1,0,0:0:0:0:
256,192,125296,1,0,0:0:0:0:
256,192,125381,1,8,0:0:0:0:
256,128,125552,1,4,0:0:0:0:
256,192,125893,1,0,0:0:0:0:
256,192,126063,1,8,0:0:0:0:
256,192,126148,1,8,0:0:0:0:
256,192,126234,1,0,0:0:0:0:
256,128,126404,1,12,0:0:0:0:
256,192,126575,1,0,0:0:0:0:
256,192,126660,1,0,0:0:0:0:
256,192,126745,1,8,0:0:0:0:
256,192,126915,1,0,0:0:0:0:
256,192,127086,1,8,0:0:0:0:
256,192,127171,1,8,0:0:0:0:
256,192,127256,1,0,0:0:0:0:
256,192,127342,1,0,0:0:0:0:
256,192,127427,1,8,0:0:0:0:
256,192,127597,1,0,0:0:0:0:
256,192,127682,1,8,0:0:0:0:
256,192,127768,1,0,0:0:0:0:
256,192,127938,1,8,0:0:0:0:
256,192,128023,1,0,0:0:0:0:
256,192,128109,1,8,0:0:0:0:
256,192,128194,1,8,0:0:0:0:
256,192,128279,1,0,0:0:0:0:
256,192,128364,1,8,0:0:0:0:
256,192,128450,1,0,0:0:0:0:
256,192,128620,1,0,0:0:0:0:
256,192,128790,1,8,0:0:0:0:
256,192,128961,1,8,0:0:0:0:
256,192,129046,1,8,0:0:0:0:
256,192,129131,1,0,0:0:0:0:
256,192,129302,1,0,0:0:0:0:
256,192,129472,1,8,0:0:0:0:
256,192,129643,1,0,0:0:0:0:
256,192,129728,1,8,0:0:0:0:
256,192,129813,1,0,0:0:0:0:
256,192,129898,1,0,0:0:0:0:
256,192,129984,1,8,0:0:0:0:
256,192,130069,1,0,0:0:0:0:
256,192,130154,1,8,0:0:0:0:
256,192,130325,1,0,0:0:0:0:
256,192,130495,1,8,0:0:0:0:
256,192,130665,1,0,0:0:0:0:
256,192,130751,1,0,0:0:0:0:
256,192,130836,1,8,0:0:0:0:
256,192,131006,1,8,0:0:0:0:
256,192,131092,1,8,0:0:0:0:
256,192,131177,1,0,0:0:0:0:
256,192,131262,1,0,0:0:0:0:
256,192,131347,1,8,0:0:0:0:
256,192,131518,1,0,0:0:0:0:
256,192,131859,1,8,0:0:0:0:
256,192,132029,1,0,0:0:0:0:
256,192,132114,1,0,0:0:0:0:
256,192,132200,1,8,0:0:0:0:
256,192,132370,1,8,0:0:0:0:
256,192,132455,1,0,0:0:0:0:
256,192,132540,1,8,0:0:0:0:
256,192,132626,1,8,0:0:0:0:
256,192,132711,1,0,0:0:0:0:
256,192,132881,1,0,0:0:0:0:
256,192,133052,1,8,0:0:0:0:
256,192,133137,1,8,0:0:0:0:
256,192,133222,1,0,0:0:0:0:
256,192,133307,1,8,0:0:0:0:
256,192,133393,1,0,0:0:0:0:
256,192,133478,1,0,0:0:0:0:
256,192,133563,1,8,0:0:0:0:
256,192,133734,1,0,0:0:0:0:
256,192,133819,1,8,0:0:0:0:
256,192,133904,1,0,0:0:0:0:
256,192,134075,1,0,0:0:0:0:
256,192,134245,1,8,0:0:0:0:
256,192,134415,1,8,0:0:0:0:
256,192,134501,1,0,0:0:0:0:
256,192,134586,1,8,0:0:0:0:
256,192,134756,1,0,0:0:0:0:
256,192,134842,1,0,0:0:0:0:
256,192,134927,1,8,0:0:0:0:
256,192,135097,1,0,0:0:0:0:
256,192,135182,1,8,0:0:0:0:
256,192,135268,1,0,0:0:0:0:
256,192,135353,1,0,0:0:0:0:
256,192,135438,1,8,0:0:0:0:
256,192,135523,1,0,0:0:0:0:
256,192,135609,1,8,0:0:0:0:
256,192,135779,1,8,0:0:0:0:
256,192,135950,1,0,0:0:0:0:
256,192,136120,1,8,0:0:0:0:
256,192,136205,1,8,0:0:0:0:
256,192,136290,1,0,0:0:0:0:
256,192,136376,1,0,0:0:0:0:
256,192,136461,1,8,0:0:0:0:
256,192,136631,1,0,0:0:0:0:
256,192,136717,1,8,0:0:0:0:
256,192,136802,1,8,0:0:0:0:
256,192,136887,1,0,0:0:0:0:
256,192,136972,1,8,0:0:0:0:
256,192,137143,1,0,0:0:0:0:
256,192,137228,1,0,0:0:0:0:
256,192,137313,1,8,0:0:0:0:
256,192,137484,12,0,142768,0:0:0:0:
256,192,148222,5,0,0:0:0:0:
256,192,148563,1,0,0:0:0:0:
256,192,148734,1,8,0:0:0:0:
256,192,148904,1,0,0:0:0:0:
256,192,149245,1,0,0:0:0:0:
256,192,149415,1,8,0:0:0:0:
256,192,149501,1,8,0:0:0:0:
256,192,149586,1,0,0:0:0:0:
256,192,149756,1,8,0:0:0:0:
256,192,149927,1,0,0:0:0:0:
256,192,150268,1,0,0:0:0:0:
256,192,150609,1,0,0:0:0:0:
256,192,150779,1,0,0:0:0:0:
256,192,150864,1,8,0:0:0:0:
256,192,150950,1,0,0:0:0:0:
256,192,151120,1,8,0:0:0:0:
256,192,151290,1,0,0:0:0:0:
256,192,151631,1,0,0:0:0:0:
256,192,151972,1,0,0:0:0:0:
256,192,152143,1,8,0:0:0:0:
256,192,152228,1,8,0:0:0:0:
256,192,152313,1,0,0:0:0:0:
256,192,152484,1,8,0:0:0:0:
256,192,152654,1,0,0:0:0:0:
256,192,152825,1,0,0:0:0:0:
256,192,152995,1,8,0:0:0:0:
256,192,153165,1,0,0:0:0:0:
256,192,153251,1,8,0:0:0:0:
256,192,153336,1,0,0:0:0:0:
256,192,153506,1,8,0:0:0:0:
256,192,153677,1,0,0:0:0:0:
256,192,154018,1,8,0:0:0:0:
256,192,154188,1,8,0:0:0:0:
256,192,154359,1,0,0:0:0:0:
256,192,154700,1,0,0:0:0:0:
256,192,154870,1,8,0:0:0:0:
256,192,154955,1,8,0:0:0:0:
256,192,155040,1,0,0:0:0:0:
256,192,155211,1,8,0:0:0:0:
256,192,155381,1,0,0:0:0:0:
256,192,155722,1,0,0:0:0:0:
256,192,156063,1,0,0:0:0:0:
256,192,156234,1,0,0:0:0:0:
256,192,156319,1,8,0:0:0:0:
256,192,156404,1,0,0:0:0:0:
256,192,156575,1,0,0:0:0:0:
256,192,156745,1,8,0:0:0:0:
256,192,156915,1,0,0:0:0:0:
256,192,157001,1,0,0:0:0:0:
256,192,157086,1,8,0:0:0:0:
256,192,157256,1,8,0:0:0:0:
256,192,157427,1,0,0:0:0:0:
256,192,157597,1,8,0:0:0:0:
256,192,157682,1,8,0:0:0:0:
256,192,157768,1,0,0:0:0:0:
256,192,157938,1,0,0:0:0:0:
256,192,158109,1,8,0:0:0:0:
256,192,158279,1,0,0:0:0:0:
256,192,158450,1,0,0:0:0:0:
256,192,158535,1,8,0:0:0:0:
256,192,158620,1,0,0:0:0:0:
256,128,158790,1,12,0:0:0:0:
256,128,159131,1,4,0:0:0:0:
256,192,159472,1,8,0:0:0:0:
256,192,159643,1,8,0:0:0:0:
256,192,159813,1,0,0:0:0:0:
256,192,160154,1,8,0:0:0:0:
256,192,160325,1,0,0:0:0:0:
256,192,160410,1,0,0:0:0:0:
256,192,160495,1,8,0:0:0:0:
256,192,160665,1,8,0:0:0:0:
256,192,160836,1,0,0:0:0:0:
256,192,161177,1,8,0:0:0:0:
256,192,161518,1,0,0:0:0:0:
256,192,161688,1,8,0:0:0:0:
256,192,161773,1,8,0:0:0:0:
256,192,161859,1,0,0:0:0:0:
256,192,162029,1,8,0:0:0:0:
256,192,162200,1,0,0:0:0:0:
256,192,162370,1,0,0:0:0:0:
256,192,162540,1,8,0:0:0:0:
256,192,162881,1,8,0:0:0:0:
256,192,163052,1,0,0:0:0:0:
256,192,163137,1,0,0:0:0:0:
256,192,163222,1,8,0:0:0:0:
256,192,163393,1,0,0:0:0:0:
256,192,163563,1,8,0:0:0:0:
256,192,163904,1,8,0:0:0:0:
256,192,164075,1,0,0:0:0:0:
256,192,164160,1,0,0:0:0:0:
256,192,164245,1,8,0:0:0:0:
256,192,164415,1,0,0:0:0:0:
256,192,164501,1,8,0:0:0:0:
256,192,164586,1,0,0:0:0:0:
256,192,164927,1,8,0:0:0:0:
256,192,165097,1,8,0:0:0:0:
256,192,165268,1,0,0:0:0:0:
256,192,165609,1,8,0:0:0:0:
256,192,165779,1,0,0:0:0:0:
256,192,165864,1,0,0:0:0:0:
256,192,165950,1,8,0:0:0:0:
256,192,166120,1,8,0:0:0:0:
256,192,166290,1,0,0:0:0:0:
256,192,166631,1,8,0:0:0:0:
256,192,166802,1,0,0:0:0:0:
256,192,166972,1,0,0:0:0:0:
256,192,167143,1,8,0:0:0:0:
256,192,167228,1,8,0:0:0:0:
256,192,167313,1,0,0:0:0:0:
256,192,167484,1,8,0:0:0:0:
256,192,167654,1,0,0:0:0:0:
256,192,167825,1,0,0:0:0:0:
256,192,167995,1,8,0:0:0:0:
256,192,168336,1,0,0:0:0:0:
256,192,168506,1,0,0:0:0:0:
256,192,168592,1,0,0:0:0:0:
256,192,168677,1,8,0:0:0:0:
256,192,168847,1,0,0:0:0:0:
256,192,169188,1,0,0:0:0:0:
256,192,169273,1,0,0:0:0:0:
256,192,169359,1,8,0:0:0:0:
256,192,169529,1,0,0:0:0:0:
256,128,169700,1,12,0:0:0:0:
256,192,170040,1,0,0:0:0:0:
256,192,170211,1,0,0:0:0:0:
256,192,170381,1,8,0:0:0:0:
256,192,170552,1,0,0:0:0:0:
256,192,170893,1,8,0:0:0:0:
256,192,171063,1,0,0:0:0:0:
256,192,171234,1,8,0:0:0:0:
256,192,171404,1,8,0:0:0:0:
256,192,171575,1,0,0:0:0:0:
256,192,171745,1,8,0:0:0:0:
256,192,171830,1,8,0:0:0:0:
256,192,171915,1,0,0:0:0:0:
256,192,172086,1,8,0:0:0:0:
256,192,172256,1,0,0:0:0:0:
256,192,172342,1,8,0:0:0:0:
256,192,172427,1,0,0:0:0:0:
256,192,172512,1,0,0:0:0:0:
256,192,172597,1,8,0:0:0:0:
256,192,172682,1,8,0:0:0:0:
256,192,172768,1,0,0:0:0:0:
256,192,172938,1,0,0:0:0:0:
256,192,173109,1,8,0:0:0:0:
256,192,173279,1,0,0:0:0:0:
256,192,173364,1,0,0:0:0:0:
256,192,173450,1,8,0:0:0:0:
256,192,173535,1,0,0:0:0:0:
256,192,173620,1,8,0:0:0:0:
256,192,173790,1,0,0:0:0:0:
256,192,173961,1,8,0:0:0:0:
256,192,174046,1,8,0:0:0:0:
256,192,174131,1,0,0:0:0:0:
256,192,174217,1,0,0:0:0:0:
256,192,174302,1,8,0:0:0:0:
256,192,174387,1,8,0:0:0:0:
256,192,174472,1,0,0:0:0:0:
256,192,174643,1,8,0:0:0:0:
256,192,174813,1,0,0:0:0:0:
256,192,174898,1,8,0:0:0:0:
256,192,174984,1,0,0:0:0:0:
256,192,175069,1,0,0:0:0:0:
256,192,175154,1,8,0:0:0:0:
256,192,175325,1,8,0:0:0:0:
256,192,175495,1,0,0:0:0:0:
256,192,175665,1,0,0:0:0:0:
256,192,175751,1,0,0:0:0:0:
256,192,175836,1,8,0:0:0:0:
256,192,176006,1,8,0:0:0:0:
256,192,176092,1,8,0:0:0:0:
256,192,176177,1,0,0:0:0:0:
256,192,176262,1,8,0:0:0:0:
256,192,176347,1,0,0:0:0:0:
256,192,176432,1,0,0:0:0:0:
256,192,176518,1,8,0:0:0:0:
256,192,176688,1,8,0:0:0:0:
256,192,176859,1,0,0:0:0:0:
256,192,177029,1,8,0:0:0:0:
256,192,177114,1,0,0:0:0:0:
256,192,177200,1,8,0:0:0:0:
256,192,177370,1,0,0:0:0:0:
256,192,177455,1,8,0:0:0:0:
256,192,177540,1,8,0:0:0:0:
256,192,177626,1,8,0:0:0:0:
256,192,177711,1,0,0:0:0:0:
256,192,177881,1,8,0:0:0:0:
256,192,178052,1,0,0:0:0:0:
256,192,178222,1,8,0:0:0:0:
256,192,178307,1,8,0:0:0:0:
256,192,178393,1,0,0:0:0:0:
256,192,178478,1,0,0:0:0:0:
256,192,178563,1,8,0:0:0:0:
256,192,178734,1,8,0:0:0:0:
256,192,178819,1,0,0:0:0:0:
256,192,178904,1,0,0:0:0:0:
256,192,179075,1,0,0:0:0:0:
256,192,179245,1,8,0:0:0:0:
256,192,179415,1,0,0:0:0:0:
256,192,179586,1,8,0:0:0:0:
256,192,179671,1,8,0:0:0:0:
256,192,179756,1,0,0:0:0:0:
256,192,179842,1,0,0:0:0:0:
256,192,179927,1,8,0:0:0:0:
256,192,180097,1,8,0:0:0:0:
256,192,180182,1,0,0:0:0:0:
256,192,180268,1,8,0:0:0:0:
256,192,180438,1,0,0:0:0:0:
256,192,180609,1,8,0:0:0:0:
256,192,180779,1,0,0:0:0:0:
256,192,180950,1,8,0:0:0:0:
256,192,181035,1,8,0:0:0:0:
256,192,181120,1,0,0:0:0:0:
256,192,181205,1,0,0:0:0:0:
256,192,181290,1,8,0:0:0:0:
256,192,181376,1,0,0:0:0:0:
256,192,181461,1,8,0:0:0:0:
256,192,181546,1,8,0:0:0:0:
256,192,181631,1,0,0:0:0:0:
256,192,181802,1,8,0:0:0:0:
256,192,181972,1,0,0:0:0:0:
256,192,182057,1,0,0:0:0:0:
256,192,182143,1,8,0:0:0:0:
256,192,182228,1,8,0:0:0:0:
256,192,182313,1,0,0:0:0:0:
256,192,182484,1,8,0:0:0:0:
256,192,182569,1,0,0:0:0:0:
256,192,182654,1,8,0:0:0:0:
256,128,182825,1,4,0:0:0:0:
256,192,183165,1,0,0:0:0:0:
256,192,183336,1,8,0:0:0:0:
256,192,183421,1,8,0:0:0:0:
256,192,183506,1,0,0:0:0:0:
256,128,183677,1,12,0:0:0:0:
256,192,183847,1,0,0:0:0:0:
256,192,183932,1,0,0:0:0:0:
256,192,184018,1,8,0:0:0:0:
256,192,184188,1,8,0:0:0:0:
256,192,184359,1,0,0:0:0:0:
256,192,184444,1,0,0:0:0:0:
256,192,184529,1,8,0:0:0:0:
256,192,184614,1,0,0:0:0:0:
256,192,184700,1,8,0:0:0:0:
256,192,184785,1,8,0:0:0:0:
256,192,184870,1,0,0:0:0:0:
256,192,185040,1,8,0:0:0:0:
256,192,185211,1,8,0:0:0:0:
256,192,185296,1,0,0:0:0:0:
256,192,185381,1,8,0:0:0:0:
256,192,185552,1,0,0:0:0:0:
256,192,185637,1,0,0:0:0:0:
256,192,185722,1,8,0:0:0:0:
256,192,185807,1,8,0:0:0:0:
256,192,185893,1,0,0:0:0:0:
256,192,186063,1,8,0:0:0:0:
256,192,186234,1,8,0:0:0:0:
256,192,186404,1,0,0:0:0:0:
256,192,186575,1,0,0:0:0:0:
256,192,186660,1,8,0:0:0:0:
256,192,186745,1,0,0:0:0:0:
256,192,186830,1,0,0:0:0:0:
256,192,186915,1,8,0:0:0:0:
256,192,187001,1,8,0:0:0:0:
256,192,187086,1,0,0:0:0:0:
256,192,187256,1,0,0:0:0:0:
256,192,187427,1,8,0:0:0:0:
256,192,187597,1,8,0:0:0:0:
256,192,187682,1,8,0:0:0:0:
256,192,187768,1,0,0:0:0:0:
256,192,187938,1,8,0:0:0:0:
256,192,188023,1,0,0:0:0:0:
256,192,188109,1,8,0:0:0:0:
256,192,188279,1,0,0:0:0:0:
256,192,188364,1,8,0:0:0:0:
256,192,188450,1,8,0:0:0:0:
256,192,188535,1,0,0:0:0:0:
256,192,188620,1,8,0:0:0:0:
256,192,188790,1,0,0:0:0:0:
256,192,188961,1,8,0:0:0:0:
256,192,189131,1,0,0:0:0:0:
256,192,189302,1,0,0:0:0:0:
256,192,189387,1,0,0:0:0:0:
256,192,189472,1,8,0:0:0:0:
256,192,189557,1,0,0:0:0:0:
256,192,189643,1,8,0:0:0:0:
256,192,189728,1,8,0:0:0:0:
256,192,189813,1,0,0:0:0:0:
256,192,189984,1,0,0:0:0:0:
256,192,190154,1,8,0:0:0:0:
256,192,190325,1,0,0:0:0:0:
256,192,190410,1,8,0:0:0:0:
256,192,190495,1,0,0:0:0:0:
256,192,190580,1,0,0:0:0:0:
256,192,190665,1,8,0:0:0:0:
256,192,190751,1,0,0:0:0:0:
256,192,190836,1,8,0:0:0:0:
256,192,191006,1,8,0:0:0:0:
256,192,191092,1,8,0:0:0:0:
256,192,191177,1,0,0:0:0:0:
256,192,191347,1,0,0:0:0:0:
256,192,191518,1,8,0:0:0:0:
256,192,191688,1,0,0:0:0:0:
256,192,191773,1,0,0:0:0:0:
256,192,191859,1,8,0:0:0:0:
256,192,192029,1,8,0:0:0:0:
256,192,192114,1,0,0:0:0:0:
256,192,192200,1,8,0:0:0:0:
256,192,192370,1,0,0:0:0:0:
256,192,192455,1,8,0:0:0:0:
256,192,192540,1,8,0:0:0:0:
256,192,192626,1,8,0:0:0:0:
256,192,192711,1,0,0:0:0:0:
256,192,192796,1,0,0:0:0:0:
256,192,192881,1,8,0:0:0:0:
256,192,193052,1,0,0:0:0:0:
256,192,193222,1,8,0:0:0:0:
256,192,193393,1,0,0:0:0:0:
256,192,193478,1,0,0:0:0:0:
256,192,193563,1,8,0:0:0:0:
256,192,193648,1,0,0:0:0:0:
256,192,193734,1,8,0:0:0:0:
256,192,193819,1,8,0:0:0:0:
256,192,193904,1,0,0:0:0:0:
256,192,193989,1,8,0:0:0:0:
256,192,194075,1,0,0:0:0:0:
256,192,194160,1,0,0:0:0:0:
256,192,194245,1,8,0:0:0:0:
256,192,194330,1,8,0:0:0:0:
256,192,194415,1,8,0:0:0:0:
256,192,194501,1,8,0:0:0:0:
256,192,194586,1,0,0:0:0:0:
256,192,194927,1,8,0:0:0:0:
256,192,195097,1,0,0:0:0:0:
256,192,195182,1,0,0:0:0:0:
256,192,195268,1,8,0:0:0:0:
256,192,195353,1,8,0:0:0:0:
256,192,195438,1,0,0:0:0:0:
256,192,195609,1,8,0:0:0:0:
256,192,195779,1,0,0:0:0:0:
256,192,195864,1,8,0:0:0:0:
256,192,195950,1,0,0:0:0:0:
256,192,196120,1,0,0:0:0:0:
256,192,196205,1,0,0:0:0:0:
256,192,196290,1,8,0:0:0:0:
256,192,196461,1,8,0:0:0:0:
256,192,196631,1,0,0:0:0:0:
256,192,196717,1,0,0:0:0:0:
256,192,196802,1,0,0:0:0:0:
256,192,196887,1,0,0:0:0:0:
256,192,196972,1,8,0:0:0:0:
256,192,197143,1,0,0:0:0:0:
256,192,197313,1,8,0:0:0:0:
256,192,197484,1,0,0:0:0:0:
256,192,197569,1,0,0:0:0:0:
256,192,197654,1,8,0:0:0:0:
256,192,197825,1,0,0:0:0:0:
256,192,197995,1,8,0:0:0:0:
256,192,198080,1,8,0:0:0:0:
256,192,198165,1,0,0:0:0:0:
256,192,198251,1,0,0:0:0:0:
256,192,198336,1,8,0:0:0:0:
256,192,198506,1,0,0:0:0:0:
256,192,198592,1,8,0:0:0:0:
256,192,198677,1,0,0:0:0:0:
256,192,198847,1,0,0:0:0:0:
256,192,198932,1,0,0:0:0:0:
256,192,199018,1,8,0:0:0:0:
256,192,199188,1,8,0:0:0:0:
256,192,199359,1,0,0:0:0:0:
256,192,199444,1,8,0:0:0:0:
256,192,199529,1,0,0:0:0:0:
256,192,199614,1,0,0:0:0:0:
256,192,199700,1,8,0:0:0:0:
256,192,199870,1,8,0:0:0:0:
256,192,200040,1,0,0:0:0:0:
256,192,200211,1,0,0:0:0:0:
256,192,200296,1,0,0:0:0:0:
256,192,200381,1,8,0:0:0:0:
256,192,200552,1,0,0:0:0:0:
256,192,200722,1,8,0:0:0:0:
256,192,200893,1,8,0:0:0:0:
256,192,200978,1,8,0:0:0:0:
256,192,201063,1,0,0:0:0:0:
256,192,201234,1,8,0:0:0:0:
256,192,201319,1,0,0:0:0:0:
256,192,201404,1,0,0:0:0:0:
256,192,201575,1,0,0:0:0:0:
256,192,201745,1,8,0:0:0:0:
256,192,201915,1,0,0:0:0:0:
256,192,202001,1,8,0:0:0:0:
256,192,202086,1,0,0:0:0:0:
256,192,202171,1,0,0:0:0:0:
256,192,202256,1,8,0:0:0:0:
256,192,202427,1,0,0:0:0:0:
256,192,202597,1,8,0:0:0:0:
256,192,202768,1,0,0:0:0:0:
256,192,202938,1,0,0:0:0:0:
256,192,203023,1,0,0:0:0:0:
256,192,203109,1,8,0:0:0:0:
256,192,203279,1,8,0:0:0:0:
256,192,203364,1,8,0:0:0:0:
256,192,203450,1,0,0:0:0:0:
256,192,203535,1,0,0:0:0:0:
256,192,203620,1,8,0:0:0:0:
256,192,203790,1,0,0:0:0:0:
256,192,203961,1,8,0:0:0:0:
256,192,204046,1,8,0:0:0:0:
256,192,204131,1,0,0:0:0:0:
256,192,204302,1,0,0:0:0:0:
256,192,204472,1,8,0:0:0:0:
256,128,204643,1,4,0:0:0:0:
256,192,204984,1,0,0:0:0:0:
256,192,205154,1,8,0:0:0:0:
256,192,205239,1,8,0:0:0:0:
256,192,205325,1,0,0:0:0:0:
256,192,205410,1,8,0:0:0:0:
256,192,205495,1,0,0:0:0:0:
256,192,205665,1,0,0:0:0:0:
256,192,205836,1,8,0:0:0:0:
256,192,206006,1,0,0:0:0:0:
256,192,206092,1,0,0:0:0:0:
256,192,206177,1,8,0:0:0:0:
256,192,206347,1,0,0:0:0:0:
256,192,206432,1,0,0:0:0:0:
256,192,206518,1,8,0:0:0:0:
256,192,206603,1,0,0:0:0:0:
256,192,206688,1,8,0:0:0:0:
256,192,206773,1,8,0:0:0:0:
256,192,206859,1,0,0:0:0:0:
256,192,207029,1,8,0:0:0:0:
256,192,207114,1,0,0:0:0:0:
256,192,207200,1,8,0:0:0:0:
256,192,207370,1,0,0:0:0:0:
256,192,207455,1,8,0:0:0:0:
256,192,207540,1,8,0:0:0:0:
256,192,207626,1,0,0:0:0:0:
256,192,207711,1,8,0:0:0:0:
256,192,207881,1,0,0:0:0:0:
256,192,208052,1,8,0:0:0:0:
256,192,208137,1,8,0:0:0:0:
256,192,208222,1,0,0:0:0:0:
256,192,208393,1,8,0:0:0:0:
256,192,208478,1,0,0:0:0:0:
256,192,208563,1,8,0:0:0:0:
256,192,208648,1,8,0:0:0:0:
256,192,208734,1,0,0:0:0:0:
256,192,208819,1,0,0:0:0:0:
256,192,208904,1,8,0:0:0:0:
256,192,209075,1,8,0:0:0:0:
256,192,209245,1,0,0:0:0:0:
256,192,209415,1,8,0:0:0:0:
256,192,209501,1,8,0:0:0:0:
256,192,209586,1,0,0:0:0:0:
256,192,209756,1,8,0:0:0:0:
256,192,209842,1,0,0:0:0:0:
256,192,209927,1,8,0:0:0:0:
256,192,210097,1,0,0:0:0:0:
256,192,210182,1,0,0:0:0:0:
256,192,210268,1,8,0:0:0:0:
256,192,210353,1,8,0:0:0:0:
256,192,210438,1,0,0:0:0:0:
256,192,210609,1,8,0:0:0:0:
256,192,210779,1,8,0:0:0:0:
256,192,210950,1,0,0:0:0:0:
256,192,211120,1,0,0:0:0:0:
256,192,211205,1,0,0:0:0:0:
256,192,211290,1,8,0:0:0:0:
256,192,211461,1,0,0:0:0:0:
256,192,211546,1,8,0:0:0:0:
256,192,211631,1,0,0:0:0:0:
256,192,211717,1,0,0:0:0:0:
256,192,211802,1,8,0:0:0:0:
256,192,211887,1,0,0:0:0:0:
256,192,211972,1,8,0:0:0:0:
256,192,212143,1,8,0:0:0:0:
256,192,212313,1,0,0:0:0:0:
256,192,212484,1,8,0:0:0:0:
256,192,212569,1,8,0:0:0:0:
256,192,212654,1,0,0:0:0:0:
256,192,212825,1,0,0:0:0:0:
256,192,212910,1,8,0:0:0:0:
256,192,212995,1,0,0:0:0:0:
256,192,213165,1,0,0:0:0:0:
256,192,213336,1,8,0:0:0:0:
256,192,213506,1,0,0:0:0:0:
256,192,213592,1,8,0:0:0:0:
256,192,213677,1,8,0:0:0:0:
256,192,213847,1,0,0:0:0:0:
256,192,214018,1,8,0:0:0:0:
256,192,214188,1,0,0:0:0:0:
256,192,214273,1,0,0:0:0:0:
256,192,214359,1,8,0:0:0:0:
256,192,214444,1,0,0:0:0:0:
256,192,214529,1,8,0:0:0:0:
256,192,214614,1,8,0:0:0:0:
256,192,214700,1,0,0:0:0:0:
256,192,214870,1,8,0:0:0:0:
256,192,214955,1,0,0:0:0:0:
256,192,215040,1,8,0:0:0:0:
256,192,215211,1,0,0:0:0:0:
256,192,215296,1,8,0:0:0:0:
256,192,215381,1,8,0:0:0:0:
256,192,215467,1,0,0:0:0:0:
256,192,215552,1,8,0:0:0:0:
256,192,215722,1,0,0:0:0:0:
256,192,215807,1,0,0:0:0:0:
256,192,215893,1,8,0:0:0:0:
256,192,215978,1,0,0:0:0:0:
256,192,216063,1,8,0:0:0:0:
256,192,216148,1,8,0:0:0:0:
256,192,216234,1,0,0:0:0:0:
256,192,216319,1,8,0:0:0:0:
256,192,216404,1,0,0:0:0:0:
256,192,217086,1,8,0:0:0:0:
256,192,217597,1,0,0:0:0:0:
256,192,217682,1,0,0:0:0:0:
256,192,217768,1,8,0:0:0:0:
256,192,217938,1,0,0:0:0:0:
256,192,218109,1,0,0:0:0:0:
256,192,218279,1,8,0:0:0:0:
256,192,218620,1,0,0:0:0:0:
256,192,218790,1,8,0:0:0:0:
256,192,218961,1,8,0:0:0:0:
256,192,219131,1,0,0:0:0:0:
256,192,219643,1,8,0:0:0:0:
256,192,219728,1,8,0:0:0:0:
256,192,219813,1,0,0:0:0:0:
256,192,219984,1,0,0:0:0:0:
256,192,220154,1,8,0:0:0:0:
256,192,220495,1,0,0:0:0:0:
256,192,221177,1,0,0:0:0:0:
256,192,221859,1,8,0:0:0:0:
256,192,222548,1,0,0:0:0:0:
256,192,223229,1,8,0:0:0:0:
256,192,223916,1,8,0:0:0:0:
256,192,224647,12,0,227088,0:0:0:0:
