osu file format v14

[General]
AudioFilename: audio.mp3
AudioLeadIn: 0
PreviewTime: 55269
Countdown: 0
SampleSet: Soft
StackLeniency: 0.4
Mode: 0
LetterboxInBreaks: 0
WidescreenStoryboard: 1

[Editor]
Bookmarks: 93706,137342,142797
DistanceSpacing: 1
BeatDivisor: 4
GridSize: 32
TimelineZoom: 1.4

[Metadata]
Title:breath of stella
TitleUnicode:breath of stella
Artist:Aimiya Zero
ArtistUnicode:相宮零
Creator:gazimal
Version:insane
Source:終のステラ
Tags:Key Stella of the End VISUAL ARTS japanese rock jrock j-rock wring tsui no stella
BeatmapID:3886087
BeatmapSetID:1886461

[Difficulty]
HPDrainRate:5
CircleSize:4
OverallDifficulty:8
ApproachRate:9
SliderMultiplier:1.8
SliderTickRate:1

[Events]
//Background and Video events
0,0,"711392c4132bea53324122ac4fd74ca6.jpg",0,0
//Break Periods
2,12088,15379
2,137543,142368
//Storyboard Layer 0 (Background)
//Storyboard Layer 1 (Fail)
//Storyboard Layer 2 (Pass)
//Storyboard Layer 3 (Foreground)
//Storyboard Layer 4 (Overlay)
//Storyboard Sound Samples

[TimingPoints]
-384,340.909090909091,4,2,1,60,1,0
809,-100,4,2,1,40,0,0
979,-200,4,2,1,40,0,0
10525,-100,4,2,1,65,0,0
10695,-100,4,2,1,50,0,0
11206,-100,4,2,1,55,0,0
11547,-100,4,2,1,60,0,0
12059,-100,4,2,1,45,0,0
15979,-100,4,2,1,65,0,0
17343,-100,4,2,2,40,0,0
17513,-200,4,2,1,45,0,0
18025,-200,4,2,1,65,0,0
18536,-125,4,2,1,65,0,0
22797,-125,4,2,1,60,0,0
23138,-133.333333333333,4,2,1,30,0,0
23479,-133.333333333333,4,2,1,50,0,0
24672,-133.333333333333,4,2,1,30,0,0
25013,-133.333333333333,4,2,1,50,0,0
27400,-133.333333333333,4,2,1,30,0,0
27741,-133.333333333333,4,2,1,50,0,0
28593,-133.333333333333,4,2,1,30,0,0
28934,-133.333333333333,4,2,1,50,0,0
30127,-133.333333333333,4,2,1,30,0,0
30468,-133.333333333333,4,2,1,50,0,0
33366,-200,4,2,1,50,0,0
33621,-200,4,2,1,5,0,0
33706,-100,4,2,1,60,0,0
34218,-133.333333333333,4,2,1,60,0,0
34985,-133.333333333333,4,2,2,60,0,0
35070,-111.111111111111,4,2,1,60,0,0
36348,-111.111111111111,4,2,2,60,0,0
36434,-133.333333333333,4,2,1,60,0,0
39076,-133.333333333333,4,2,2,60,0,0
39161,-111.111111111111,4,2,1,60,0,0
40439,-111.111111111111,4,2,2,60,0,0
40525,-111.111111111111,4,2,1,60,0,0
41547,-133.333333333333,4,2,1,60,0,0
41803,-133.333333333333,4,2,2,60,0,0
41888,-133.333333333333,4,2,1,60,0,0
44616,-111.111111111111,4,2,1,60,0,0
45979,-133.333333333333,4,2,1,60,0,0
48706,-100,4,2,1,70,0,0
50411,-100,4,2,1,65,0,0
50752,-133.333333333333,4,2,1,65,0,0
52797,-166.666666666667,4,2,1,70,0,0
54161,-142.857142857143,4,2,1,75,0,0
54502,-125,4,2,1,75,0,0
54843,-111.111111111111,4,2,1,75,0,0
55184,-100,4,2,1,75,0,0
55525,-83.3333333333333,4,2,1,80,0,1
55780,-83.3333333333333,4,2,1,5,0,1
55866,-83.3333333333333,4,2,1,80,0,1
56206,-100,4,2,1,80,0,1
59530,-83.3333333333333,4,2,1,5,0,1
59616,-100,4,2,1,80,0,1
63962,-83.3333333333333,4,2,1,5,0,1
64047,-100,4,2,1,80,0,1
66434,-83.3333333333333,4,2,1,80,0,1
66689,-83.3333333333333,4,2,1,5,0,1
66775,-83.3333333333333,4,2,1,80,0,1
67116,-100,4,2,1,80,0,1
67712,-83.3333333333333,4,2,1,5,0,1
67797,-100,4,2,1,80,0,1
69417,-83.3333333333333,4,2,1,5,0,1
69502,-100,4,2,1,80,0,1
77343,-100,4,2,1,70,0,0
79388,-83.3333333333333,4,2,1,80,0,0
80070,-100,4,2,1,60,0,0
80240,-100,4,2,1,80,0,0
82797,-133.333333333333,4,2,1,60,0,0
83137,-133.333333333333,4,2,1,55,0,0
84075,-133.333333333333,4,2,2,55,0,0
84160,-133.333333333333,4,2,1,55,0,0
84672,-133.333333333333,4,2,2,55,0,0
84842,-133.333333333333,4,2,1,55,0,0
86803,-133.333333333333,4,2,1,5,0,0
86888,-133.333333333333,4,2,1,55,0,0
93706,-100,4,2,1,60,0,0
94388,-133.333333333333,4,2,1,60,0,0
94984,-133.333333333333,4,2,2,60,0,0
95070,-111.111111111111,4,2,1,60,0,0
96093,-133.333333333333,4,2,1,60,0,0
96348,-133.333333333333,4,2,2,60,0,0
96433,-133.333333333333,4,2,1,60,0,0
96689,-133.333333333333,4,2,1,5,0,0
96775,-133.333333333333,4,2,1,60,0,0
100439,-133.333333333333,4,2,2,60,0,0
100525,-111.111111111111,4,2,1,60,0,0
101802,-111.111111111111,4,2,2,60,0,0
101887,-111.111111111111,4,2,1,60,0,0
104616,-333.333333333332,4,2,1,60,0,0
104956,-333.333333333332,4,2,1,55,0,0
109388,-166.666666666666,4,2,1,55,0,0
110069,-166.666666666666,4,2,1,65,0,0
112797,-133.333333333333,4,2,1,70,0,0
115525,-83.3333333333333,4,2,1,80,0,1
115780,-133.333333333333,4,2,1,5,0,1
115866,-83.3333333333333,4,2,1,80,0,1
116206,-100,4,2,1,80,0,1
123962,-133.333333333333,4,2,1,5,0,1
124047,-100,4,2,1,80,0,1
126434,-83.3333333333333,4,2,1,80,0,1
126689,-133.333333333333,4,2,1,5,0,1
126775,-100,4,2,1,80,0,1
127371,-133.333333333333,4,2,1,5,0,1
127456,-100,4,2,1,80,0,1
129161,-83.3333333333333,4,2,1,80,0,1
129417,-133.333333333333,4,2,1,5,0,1
129502,-83.3333333333333,4,2,1,80,0,1
129672,-100,4,2,1,80,0,1
137343,-100,4,2,1,80,0,0
137427,-100,4,2,1,50,0,0
142968,-200,4,2,1,45,0,0
148252,-200,4,2,1,50,0,0
153706,-200,4,2,1,60,0,0
157201,-200,4,2,2,60,0,0
157286,-200,4,2,1,60,0,0
159076,-200,4,2,1,5,0,0
159161,-100,4,2,1,65,0,0
160525,-133.333333333333,4,2,1,65,0,0
164616,-100,4,2,1,65,0,0
165809,-133.333333333333,4,2,1,65,0,0
168706,-100,4,2,1,65,0,0
169985,-100,4,2,1,5,0,0
170069,-100,4,2,1,70,0,0
170581,-125,4,2,1,70,0,0
172797,-76.9230769230769,4,2,1,85,0,1
173053,-133.333333333333,4,2,1,5,0,1
173138,-76.9230769230769,4,2,1,85,0,1
173479,-100,4,2,1,85,0,1
180979,-83.3333333333333,4,2,1,85,0,1
181491,-100,4,2,1,85,0,1
182854,-83.3333333333333,4,2,1,85,0,1
183366,-100,4,2,1,85,0,1
186434,-83.3333333333333,4,2,1,85,0,1
186945,-100,4,2,1,85,0,1
194616,-83.3333333333333,4,2,1,85,0,0
194956,-83.3333333333333,4,2,1,70,0,0
195638,-100,4,2,1,70,0,0
195893,-100,4,2,2,70,0,0
195978,-100,4,2,1,70,0,0
196235,-100,4,2,1,5,0,0
196320,-100,4,2,1,70,0,0
197598,-100,4,2,1,5,0,0
197684,-100,4,2,1,70,0,0
198620,-100,4,2,2,70,0,0
198706,-100,4,2,1,70,0,0
198962,-100,4,2,1,5,0,0
199047,-100,4,2,1,70,0,0
204417,-100,4,2,1,5,0,0
204502,-100,4,2,1,70,0,0
205524,-100,4,2,1,85,0,0
214985,-100,4,2,1,5,0,0
215070,-100,4,2,1,85,0,0
221888,344.827586206897,4,2,1,85,1,0
222577,340.909090909091,4,2,1,85,1,0
223258,337.078651685393,4,2,1,85,1,0
223763,365.853658536586,4,2,1,85,1,0
223945,368.098159509203,4,2,1,85,1,0
224313,377.358490566038,4,2,1,85,1,0
224676,331.491712707183,4,2,1,85,1,0
224841,363.636363636364,4,2,1,85,1,0
225204,437.956204379563,4,2,1,85,1,0
225422,365.853658536586,4,2,1,85,1,0
225790,370.37037037037,4,2,1,85,1,0
226204,472.440944881889,4,2,1,85,1,0
226649,500,4,2,1,85,1,0
227117,530.973451327434,4,2,1,85,1,0

[Colours]
Combo1 : 164,164,255
Combo2 : 192,192,192
Combo3 : 79,167,255

[HitObjects]
108,249,979,6,0,P|151:266|177:321,2,90,2|2|2,0:0|0:0|0:0,0:0:0:0:
108,249,2002,1,2,0:0:0:0:
211,180,2172,1,2,0:0:0:0:
211,180,2343,2,0,P|235:143|277:127,2,90,2|2|2,0:0|0:0|0:0,0:0:0:0:
211,180,3366,1,2,0:0:0:0:
70,98,3536,1,2,0:0:0:0:
36,183,3706,6,0,L|141:160,1,90,2|2,0:0|0:0,0:0:0:0:
124,164,4218,1,0,0:0:0:0:
180,78,4388,2,0,L|168:24,2,45,2|2|2,0:0|0:0|0:0,0:0:0:0:
180,78,4900,1,0,0:0:0:0:
280,138,5070,6,0,L|257:31,1,90,2|2,0:0|0:0,0:0:0:0:
261,49,5581,1,0,0:0:0:0:
366,93,5752,2,0,P|398:63|442:61,1,90,2|2,0:0|0:0,0:0:0:0:
428,143,6263,1,0,0:0:0:0:
512,119,6434,6,0,L|489:223,1,90,2|2,0:0|0:0,0:0:0:0:
409,282,6945,1,2,0:0:0:0:
409,282,7116,2,0,P|455:306|485:342,1,90,2|2,0:0|0:0,0:0:0:0:
480,333,7627,1,2,0:0:0:0:
312,384,7797,6,0,L|333:282,1,90,2|2,0:0|0:0,0:0:0:0:
401,366,8309,1,2,0:0:0:0:
245,309,8479,2,0,B|204:292|173:325|173:325|156:354|130:358,1,135,2|2,0:0|0:0,0:0:0:0:
106,289,9161,5,2,0:0:0:0:
106,289,10525,6,0,L|126:193,1,90,8|0,3:2|1:0,0:0:0:0:
148,62,10866,1,0,1:0:0:0:
148,62,11036,1,0,1:0:0:0:
0,111,11206,1,8,1:2:0:0:
0,111,11377,1,8,1:2:0:0:
70,147,11547,1,8,1:2:0:0:
37,34,11718,1,8,1:2:0:0:
229,108,11888,5,4,3:2:0:0:
229,108,15979,5,10,3:2:0:0:
398,94,16150,1,2,3:2:0:0:
252,199,16320,1,2,3:2:0:0:
301,37,16491,2,0,L|339:217,1,180,14|2,0:0|3:2,0:0:0:0:
463,182,17002,2,0,L|451:237,1,45,8|0,0:0|0:0,0:0:0:0:
422,370,17172,1,8,0:0:0:0:
422,370,17513,6,0,L|368:358,2,45,2|2|2,0:0|0:0|0:0,0:0:0:0:
314,302,18025,1,4,3:2:0:0:
251,374,18195,1,2,0:0:0:0:
175,319,18366,1,10,0:0:0:0:
228,233,18536,2,0,L|309:215,1,72,2|0,0:0|3:2,0:0:0:0:
403,148,18877,6,0,L|321:130,2,72,2|10|2,0:0|0:0|0:0,0:0:0:0:
403,148,19303,1,2,0:0:0:0:
403,148,19388,1,2,3:2:0:0:
459,68,19559,1,2,0:0:0:0:
357,56,19729,2,0,B|308:35|277:70|277:70|261:106|218:105,1,144,10|0,0:0|3:2,0:0:0:0:
129,21,20241,6,0,L|145:100,2,72,2|10|2,3:2|0:0|0:0,0:0:0:0:
212,32,20752,1,2,3:2:0:0:
73,133,20922,1,2,3:2:0:0:
44,21,21093,1,10,0:0:0:0:
44,21,21263,1,2,0:0:0:0:
176,170,21434,5,2,3:2:0:0:
172,187,21519,1,0,0:0:0:0:
168,205,21604,1,2,1:2:0:0:
164,221,21689,1,0,1:2:0:0:
161,240,21774,1,10,0:0:0:0:
283,154,21945,2,0,B|276:131|249:126|249:126|259:142|258:159,2,72,6|2|2,3:2|0:0|3:2,0:0:0:0:
359,246,22456,2,0,P|422:212|493:205,1,144,10|4,0:0|0:0,0:0:0:0:
451,350,23138,6,0,L|419:343,4,22.5000008583069,0|0|0|0|0,3:2|1:2|1:2|1:2|1:2,0:0:0:0:
469,372,23479,6,0,L|394:356,1,67.5000025749208,0|0,1:2|1:2,0:0:0:0:
256,323,23820,1,0,3:2:0:0:
256,323,24161,6,0,L|271:249,2,67.5000025749208,2|2|2,3:2|0:0|3:2,0:0:0:0:
171,362,24672,6,0,L|177:391,3,22.5000008583069,0|0|0|0,1:2|1:2|1:2|3:2,0:0:0:0:
182,275,25013,1,0,1:0:0:0:
182,275,25184,2,0,P|144:279|106:305,1,67.5000025749208,0|0,3:2|1:0,0:0:0:0:
20,338,25525,6,0,P|35:303|32:257,2,67.5000025749208,2|2|2,3:2|0:0|3:2,0:0:0:0:
94,213,26036,1,0,1:0:0:0:
94,213,26206,1,0,3:2:0:0:
34,121,26377,2,0,L|104:135,1,67.5000025749208,0|0,1:0|3:2,0:0:0:0:
204,160,26718,1,2,0:0:0:0:
95,55,26888,5,2,3:2:0:0:
231,65,27059,2,0,L|160:79,1,67.5000025749208,2|2,0:0|3:2,0:0:0:0:
301,20,27400,6,0,L|333:26,3,22.5000008583069,0|0|0|0,1:2|1:2|1:2|3:2,0:0:0:0:
348,125,27741,5,8,0:0:0:0:
498,91,27911,1,0,3:2:0:0:
443,23,28081,1,8,0:0:0:0:
486,212,28252,5,2,3:2:0:0:
486,212,28593,6,0,L|460:206,4,22.5000008583069,2|0|0|0|0,3:2|1:2|1:2|1:2|1:2,0:0:0:0:
448,179,28934,6,0,L|373:194,1,67.5000025749208,0|0,3:2|1:0,0:0:0:0:
237,217,29275,1,0,3:2:0:0:
237,217,29616,6,0,P|261:229|289:263,2,67.5000025749208,2|2|2,3:2|0:0|3:2,0:0:0:0:
144,200,30127,6,0,P|154:192|164:179,3,22.5000008583069,0|0|0|0,1:2|1:2|1:2|3:2,0:0:0:0:
231,122,30468,1,0,1:0:0:0:
231,122,30638,2,0,L|299:136,1,67.5000025749208,0|0,3:2|1:2,0:0:0:0:
413,44,30979,6,0,L|344:58,2,67.5000025749208,2|2|2,3:2|0:0|3:2,0:0:0:0:
507,114,31491,1,0,1:2:0:0:
507,114,31661,1,0,3:2:0:0:
448,187,31831,2,0,P|426:163|387:148,1,67.5000025749208,0|0,1:0|3:2,0:0:0:0:
372,229,32172,1,2,0:0:0:0:
446,278,32343,6,0,L|512:263,2,67.5000025749208,2|2|2,3:2|0:0|3:2,0:0:0:0:
410,364,32854,6,0,L|432:359,2,22.5000008583069,0|0|0,1:2|1:2|1:2,0:0:0:0:
335,381,33025,5,8,0:0:0:0:
275,218,33195,1,8,0:0:0:0:
356,308,33366,6,0,L|285:293,1,67.5,2|0,3:3|0:0,0:0:0:0:
214,272,33706,6,0,B|164:249|120:291|120:291|95:341|39:325,1,180,4|8,3:2|0:0,0:0:0:0:
180,345,34218,1,2,0:0:0:0:
54,253,34388,2,0,L|69:181,1,67.5000025749208,2|0,3:2|3:2,0:0:0:0:
99,24,34729,1,10,0:0:0:0:
5,124,34900,5,2,0:0:0:0:
5,124,34985,1,2,0:2:0:0:
5,124,35070,2,0,L|167:89,2,161.999995056153,2|8|0,3:2|0:0|3:2,0:0:0:0:
99,24,35922,1,0,3:2:0:0:
204,176,36093,2,0,B|229:169|229:136|229:136|215:152|200:158,1,80.9999975280763,8|0,0:0|0:0,0:0:0:0:
238,47,36434,6,0,L|303:60,1,67.5000025749208,2|0,3:2|0:0,0:0:0:0:
476,14,36775,2,0,L|410:27,1,67.5000025749208,8|0,0:0|0:0,0:0:0:0:
491,221,37116,1,2,3:2:0:0:
491,221,37286,1,2,3:2:0:0:
316,207,37456,1,10,0:0:0:0:
316,207,37627,1,2,0:0:0:0:
468,126,37797,5,2,3:2:0:0:
377,116,37968,2,0,L|391:186,1,67.5000025749208,2|8,0:0|0:0,0:0:0:0:
427,343,38309,2,0,P|465:312|502:303,1,67.5000025749208,2|0,0:0|3:2,0:0:0:0:
305,384,38650,2,0,L|220:366,1,67.5000025749208,10|0,0:2|0:0,0:0:0:0:
85,358,38991,5,10,0:0:0:0:
85,358,39076,1,2,0:0:0:0:
85,358,39161,2,0,B|132:375|165:339|165:339|184:294|237:294,1,161.999995056153,2|8,3:2|0:0,0:0:0:0:
105,280,39672,1,2,0:0:0:0:
298,308,39843,2,0,B|309:289|328:279|328:279|309:277|291:260,1,80.9999975280763,2|0,3:2|3:2,0:0:0:0:
126,174,40184,1,10,0:0:0:0:
199,63,40354,5,2,0:0:0:0:
199,63,40439,1,2,0:0:0:0:
199,63,40525,2,0,L|235:240,2,161.999995056153,2|8|0,3:2|0:0|3:2,0:0:0:0:
126,174,41377,1,0,3:2:0:0:
303,187,41547,2,0,P|336:162|366:159,1,67.5000025749208,8|0,0:0|0:0,0:0:0:0:
391,344,41888,6,0,L|372:254,1,67.5000025749208,2|0,3:2|0:0,0:0:0:0:
494,141,42229,2,0,L|475:230,1,67.5000025749208,8|0,0:0|0:0,0:0:0:0:
305,344,42571,1,2,3:2:0:0:
305,344,42741,1,2,3:2:0:0:
463,285,42911,1,8,0:0:0:0:
463,285,43081,1,2,0:0:0:0:
303,187,43252,5,2,3:2:0:0:
419,94,43422,2,0,L|400:183,1,67.5000025749208,2|8,0:0|0:0,0:0:0:0:
347,30,43763,2,0,P|377:4|431:5,1,67.5000025749208,2|0,0:0|3:2,0:0:0:0:
324,105,44104,1,10,0:0:0:0:
174,16,44275,1,0,1:2:0:0:
179,41,44360,1,0,1:2:0:0:
184,66,44445,1,8,0:0:0:0:
189,91,44530,1,8,0:0:0:0:
195,116,44615,5,6,3:2:0:0:
195,116,44956,6,0,P|133:66|45:63,2,161.999995056153,2|2|2,3:2|3:2|3:2,0:0:0:0:
311,194,45809,5,8,0:0:0:0:
311,194,45894,1,8,0:2:0:0:
311,194,45979,2,0,L|301:237,1,33.7500012874604,10|0,3:2|0:0,0:0:0:0:
212,260,46150,2,0,L|231:168,1,67.5000025749208,10|0,0:0|3:2,0:0:0:0:
342,341,46491,2,0,P|316:319|283:311,1,67.5000025749208,2|0,0:0|3:2,0:0:0:0:
77,369,46831,1,2,0:0:0:0:
162,383,47002,2,0,L|142:291,1,67.5000025749208,0|0,3:2|0:0,0:0:0:0:
114,132,47343,5,2,3:2:0:0:
114,132,47684,6,0,P|89:176|29:190,1,101.250003862381,2|0,3:2|0:0,0:0:0:0:
43,191,48025,1,2,3:2:0:0:
28,107,48195,1,2,0:0:0:0:
187,73,48366,1,2,3:2:0:0:
95,44,48536,1,2,0:0:0:0:
202,160,48706,6,0,L|182:253,1,90,14|2,3:2|1:2,0:0:0:0:
183,248,48962,1,0,1:2:0:0:
183,248,49047,1,0,3:2:0:0:
350,384,49218,6,0,L|330:290,1,90,10|0,0:0|3:2,0:0:0:0:
331,295,49474,1,0,1:2:0:0:
331,295,49559,1,2,1:2:0:0:
474,143,49729,6,0,L|454:237,1,90,8|0,0:0|1:2,0:0:0:0:
461,239,49985,1,0,1:2:0:0:
461,239,50070,2,0,B|427:172|351:184|351:184|337:212|307:228,1,180,6|0,3:2|3:2,0:0:0:0:
206,99,50581,1,2,0:0:0:0:
272,156,50752,2,0,P|235:182|192:190,1,67.5000025749208,8|0,0:0|0:0,0:0:0:0:
28,167,51093,1,2,3:2:0:0:
127,69,51263,5,2,1:2:0:0:
127,69,51348,1,0,1:2:0:0:
127,69,51434,1,2,3:2:0:0:
29,20,51604,2,0,L|45:98,1,67.5000025749208,2|0,1:2|3:2,0:0:0:0:
80,241,51945,1,2,0:0:0:0:
28,167,52116,1,8,0:0:0:0:
214,188,52286,1,10,0:0:0:0:
90,346,52456,2,0,P|55:319|23:315,1,67.5000025749208,0|2,3:2|0:0,0:0:0:0:
332,329,52797,6,0,L|318:393,1,53.9999983520508,6|0,3:2|0:0,0:0:0:0:
214,188,53138,2,0,L|227:252,1,53.9999983520508,2|0,3:2|0:0,0:0:0:0:
405,108,53479,2,0,L|391:172,1,53.9999983520508,10|0,3:2|0:0,0:0:0:0:
128,33,53820,2,0,L|141:97,1,53.9999983520508,2|0,3:2|1:2,0:0:0:0:
99,170,54076,5,0,1:2:0:0:
99,170,54161,2,0,P|73:151|44:139,1,62.9999980773926,14|0,3:2|0:0,0:0:0:0:
234,89,54502,2,0,P|237:57|230:18,1,72,12|0,3:2|0:0,0:0:0:0:
393,160,54843,2,0,P|421:147|460:110,1,80.9999975280763,6|0,3:2|1:2,0:0:0:0:
351,326,55184,2,0,P|376:344|441:360,1,90,4|8,3:2|0:0,0:0:0:0:
421,274,55439,5,8,0:0:0:0:
421,274,55525,2,0,L|261:307,1,161.999995056153,6|0,3:2|0:0,0:0:0:0:
187,329,55866,1,10,0:0:0:0:
232,182,56036,1,2,0:0:0:0:
71,227,56206,2,0,L|165:247,1,90,2|0,3:2|3:2,0:0:0:0:
13,165,56547,1,10,0:0:0:0:
48,308,56718,1,2,0:0:0:0:
232,182,56888,6,0,B|239:131|203:98|203:98|142:109|115:47,1,180,2|10,3:2|0:0,0:0:0:0:
149,170,57400,1,2,0:0:0:0:
262,307,57570,2,0,P|307:272|353:261,1,90,0|0,3:2|3:2,0:0:0:0:
504,292,57911,1,8,0:0:0:0:
397,380,58081,5,2,0:0:0:0:
397,380,58167,1,2,0:0:0:0:
397,380,58252,2,0,L|436:196,1,180,2|10,3:2|0:0,0:0:0:0:
472,24,58763,1,2,0:0:0:0:
334,156,58934,1,2,3:2:0:0:
493,130,59104,1,2,3:2:0:0:
381,0,59275,2,0,L|411:141,1,135,8|0,0:0|0:0,0:0:0:0:
334,156,59616,6,0,P|284:128|249:125,1,90,2|0,3:2|0:0,0:0:0:0:
252,124,59871,1,2,0:0:0:0:
252,124,59956,1,10,0:0:0:0:
176,0,60127,1,2,0:0:0:0:
58,147,60297,5,2,3:2:0:0:
142,148,60468,1,2,3:2:0:0:
184,78,60638,1,10,0:0:0:0:
3,65,60809,5,2,0:0:0:0:
3,65,60894,1,2,0:0:0:0:
3,65,60979,2,0,L|41:246,1,180,2|10,3:2|0:0,0:0:0:0:
137,376,61491,1,2,0:0:0:0:
224,323,61661,2,0,B|180:271|112:276|112:276|97:308|66:318,1,180,0|8,3:2|0:0,0:0:0:0:
276,384,62172,1,2,0:0:0:0:
414,248,62343,6,0,B|435:197|511:203|511:203|491:224|487:272,1,180,2|10,3:2|0:0,0:0:0:0:
359,384,62854,1,2,0:0:0:0:
359,384,62939,1,2,0:0:0:0:
359,384,63025,2,0,L|319:199,1,180,0|8,3:2|0:0,0:0:0:0:
289,35,63536,1,2,0:0:0:0:
362,141,63706,6,0,B|379:148|391:165|391:165|500:142,1,135,2|0,3:2|0:0,0:0:0:0:
468,73,64047,2,0,L|423:82,1,45,10|0,0:0|0:0,0:0:0:0:
284,140,64218,2,0,L|187:120,1,90,2|0,0:0|3:2,0:0:0:0:
39,102,64559,1,2,3:2:0:0:
39,102,64644,1,2,0:0:0:0:
39,102,64729,2,0,P|85:82|102:33,1,90,8|2,0:0|0:0,0:0:0:0:
101,47,64985,1,2,0:0:0:0:
101,47,65070,5,2,3:2:0:0:
143,178,65241,1,2,3:2:0:0:
178,301,65411,1,10,0:0:0:0:
56,345,65581,5,6,3:2:0:0:
95,262,65751,1,2,0:0:0:0:
178,301,65922,1,2,3:2:0:0:
139,384,66093,1,10,0:0:0:0:
258,252,66263,5,2,0:0:0:0:
258,252,66348,1,2,0:0:0:0:
258,252,66434,2,0,P|314:306|406:316,1,161.999995056153,6|0,3:2|0:0,0:0:0:0:
469,294,66775,1,10,0:0:0:0:
453,374,66945,1,2,0:0:0:0:
363,228,67116,2,0,P|405:193|448:188,1,90,2|0,3:2|3:2,0:0:0:0:
329,127,67456,2,0,P|370:175|446:185,1,135,10|0,0:0|0:0,0:0:0:0:
363,228,67797,5,2,3:2:0:0:
506,138,67968,1,2,0:0:0:0:
352,34,68138,1,10,0:0:0:0:
432,111,68309,2,0,L|455:0,1,90,2|0,0:0|3:2,0:0:0:0:
329,127,68650,1,0,3:2:0:0:
174,81,68820,2,0,L|265:61,1,90,8|2,0:0|0:0,0:0:0:0:
30,88,69161,6,0,B|47:143|110:136|110:136|95:112|98:86,1,135,2|0,3:2|0:0,0:0:0:0:
109,30,69502,1,10,0:0:0:0:
15,189,69672,1,2,0:0:0:0:
193,165,69843,2,0,P|160:197|139:247,1,90,2|0,3:2|3:2,0:0:0:0:
66,384,70184,2,0,P|46:343|14:312,1,90,10|0,0:0|0:0,0:0:0:0:
243,250,70525,6,0,B|288:214|339:258|339:258|355:303|403:302,1,180,2|8,3:2|0:0,0:0:0:0:
281,320,71036,1,2,0:0:0:0:
411,228,71206,5,2,3:2:0:0:
370,158,71376,1,2,3:2:0:0:
288,158,71547,1,10,0:0:0:0:
409,87,71718,1,2,0:0:0:0:
193,165,71888,6,0,B|147:98|88:108|88:108|71:139|38:151,1,180,2|10,3:2|0:0,0:0:0:0:
8,50,72400,1,2,0:0:0:0:
8,50,72485,1,2,0:0:0:0:
8,50,72570,2,0,L|48:240,1,180,0|8,3:2|0:0,0:0:0:0:
82,384,73081,1,2,0:0:0:0:
164,237,73252,5,2,3:2:0:0:
193,326,73422,2,0,L|103:307,1,90,2|10,0:0|0:0,0:0:0:0:
299,384,73763,1,2,0:0:0:0:
299,384,73848,1,2,0:0:0:0:
299,384,73934,2,0,L|474:346,1,180,0|8,3:2|0:0,0:0:0:0:
361,183,74445,1,2,0:0:0:0:
432,276,74616,6,0,B|457:154|457:154|430:133|425:101,1,180,0|10,3:2|0:0,0:0:0:0:
283,224,75127,2,0,B|292:249|284:269|284:269|304:257|333:264,1,90,2|0,0:0|3:2,0:0:0:0:
501,83,75468,1,2,3:2:0:0:
361,183,75638,2,0,P|327:150|282:136,1,90,8|2,0:0|0:0,0:0:0:0:
62,163,75979,5,2,3:2:0:0:
206,85,76150,1,8,0:0:0:0:
193,100,76235,1,8,0:0:0:0:
168,114,76320,1,8,3:2:0:0:
128,102,76405,1,8,0:0:0:0:
110,69,76491,1,8,0:0:0:0:
118,33,76576,1,8,0:0:0:0:
153,4,76661,2,0,L|203:14,3,45,2|8|8|8,3:2|0:3|0:3|0:3,0:0:0:0:
288,47,77002,5,8,3:2:0:0:
321,39,77087,1,8,0:0:0:0:
354,32,77172,1,8,0:0:0:0:
387,25,77257,1,8,0:0:0:0:
420,18,77343,6,0,L|399:112,1,90,6|2,3:2|0:0,0:0:0:0:
494,69,77684,1,2,3:2:0:0:
301,147,77854,2,0,L|320:234,1,90,10|0,0:0|3:2,0:0:0:0:
227,198,78195,1,2,0:0:0:0:
419,253,78366,6,0,L|399:342,2,90,2|2|2,3:2|0:0|3:2,0:0:0:0:
493,304,78877,1,8,0:0:0:0:
318,384,79047,1,2,3:2:0:0:
315,372,79132,1,2,0:0:0:0:
313,361,79217,1,2,0:0:0:0:
310,350,79302,1,2,0:0:0:0:
308,339,79388,6,0,B|258:316|230:352|230:352|207:393|161:380,2,161.999995056153,10|10|10,0:0|0:0|0:0,0:0:0:0:
166,303,80070,5,0,3:2:0:0:
166,303,80155,1,0,3:2:0:0:
166,303,80241,2,0,P|150:281|125:270,1,45,10|0,0:0|0:0,0:0:0:0:
129,176,80411,2,0,P|69:199|45:228,1,90,10|0,0:0|0:0,0:0:0:0:
217,223,80752,5,10,0:0:0:0:
216,121,80922,2,0,P|165:81|128:75,1,90,8|0,0:3|3:2,0:0:0:0:
217,223,81263,5,10,0:0:0:0:
307,168,81434,2,0,P|316:104|303:69,1,90,8|8,3:3|0:3,0:0:0:0:
311,270,81775,6,0,P|370:246|394:217,1,90,10|8,0:0|0:3,0:0:0:0:
387,228,82030,1,8,0:3:0:0:
387,228,82116,1,10,3:2:0:0:
322,376,82286,1,8,0:3:0:0:
217,223,82456,5,8,3:2:0:0:
183,230,82541,1,8,0:0:0:0:
150,237,82626,1,8,0:0:0:0:
117,244,82711,1,8,0:0:0:0:
84,251,82797,6,0,P|148:265|185:320,1,135.000005149842,4|0,3:2|3:2,0:0:0:0:
98,341,83309,1,2,0:0:0:0:
252,384,83479,2,0,L|393:353,1,135.000005149842,2|2,3:2|3:2,0:0:0:0:
492,252,83991,5,2,0:0:0:0:
492,252,84076,1,2,0:0:0:0:
492,252,84161,2,0,L|462:388,1,135.000005149842,0|0,3:2|3:2,0:0:0:0:
408,276,84672,2,0,L|399:237,2,33.7500012874604,2|2|0,0:2|0:2|3:2,0:0:0:0:
320,190,85013,2,0,P|352:163|386:152,1,67.5000025749208,2|0,0:3|3:2,0:0:0:0:
400,243,85354,1,2,0:3:0:0:
311,280,85525,6,0,P|248:250|180:238,1,135.000005149842,0|0,3:2|3:2,0:0:0:0:
40,222,86036,2,0,L|56:297,2,67.5000025749208,2|2|2,0:0|3:2|0:0,0:0:0:0:
126,138,86547,2,0,L|151:18,1,101.250003862381,2|0,3:2|0:0,0:0:0:0:
147,38,86888,2,0,P|113:64|87:67,1,67.5000025749208,2|2,3:2|0:0,0:0:0:0:
230,0,87229,1,2,3:2:0:0:
289,117,87400,2,0,P|255:91|229:88,1,67.5000025749208,2|0,0:0|3:2,0:0:0:0:
372,155,87740,1,2,0:3:0:0:
431,38,87911,2,0,P|397:64|371:67,1,67.5000025749208,2|2,3:2|0:3,0:0:0:0:
147,38,88252,6,0,L|180:193,1,135.000005149842,0|0,3:2|3:2,0:0:0:0:
231,87,88763,1,2,0:0:0:0:
90,163,88934,2,0,P|61:145|20:145,1,67.5000025749208,2|0,3:2|0:0,0:0:0:0:
0,327,89275,1,2,3:2:0:0:
131,237,89445,1,2,0:0:0:0:
140,318,89616,6,0,B|105:317|76:341|76:341|83:307|60:270,1,135.000005149842,2|0,3:2|3:2,0:0:0:0:
210,273,90127,2,0,L|218:313,2,33.7500012874604,2|2|2,0:0|0:0|3:2,0:0:0:0:
284,204,90468,2,0,L|302:290,1,67.5000025749208,2|0,0:3|3:2,0:0:0:0:
197,183,90809,5,2,0:3:0:0:
264,77,90979,2,0,B|301:58|336:91|336:91|355:124|395:122,1,135.000005149842,0|0,3:2|3:2,0:0:0:0:
469,34,91491,2,0,L|395:49,1,67.5000025749208,0|2,0:0|3:2,0:0:0:0:
334,203,91831,1,2,0:0:0:0:
471,172,92002,1,2,3:2:0:0:
380,121,92172,1,2,0:0:0:0:
504,264,92343,6,0,P|464:290|431:370,1,135.000005149842,2|2,3:2|3:2,0:0:0:0:
334,203,92854,1,2,0:0:0:0:
237,340,93025,1,8,3:2:0:0:
369,291,93195,1,0,1:2:0:0:
254,229,93366,1,0,1:2:0:0:
311,384,93536,1,8,0:0:0:0:
151,273,93706,6,0,L|188:95,1,180,4|8,3:2|0:0,0:0:0:0:
21,91,94218,1,2,0:0:0:0:
90,30,94388,2,0,L|105:104,1,67.5000025749208,2|0,3:2|3:2,0:0:0:0:
283,173,94729,1,10,0:0:0:0:
346,63,94900,5,2,0:0:0:0:
346,63,94985,1,2,0:2:0:0:
346,63,95070,2,0,L|180:98,2,161.999995056153,2|8|0,3:2|0:0|3:2,0:0:0:0:
408,0,95922,1,0,3:2:0:0:
495,100,96093,2,0,L|418:83,1,67.5000025749208,8|0,0:0|0:0,0:0:0:0:
337,227,96434,6,0,P|389:195|427:209,1,101.250003862381,2|0,3:2|0:0,0:0:0:0:
501,225,96775,2,0,L|484:301,1,67.5000025749208,8|0,0:0|0:0,0:0:0:0:
413,384,97116,2,0,L|396:308,1,67.5000025749208,2|2,3:2|3:2,0:0:0:0:
507,366,97456,1,10,0:0:0:0:
320,343,97627,6,0,L|226:323,2,67.5000025749208,2|2|2,0:0|3:2|0:0,0:0:0:0:
247,247,98138,1,8,0:0:0:0:
109,309,98309,2,0,L|202:289,1,67.5000025749208,2|0,0:0|3:2,0:0:0:0:
21,359,98650,1,10,0:2:0:0:
46,248,98820,2,0,B|31:250|12:239|12:239|25:254|20:273,1,67.5000025749208,8|10,0:0|0:0,0:0:0:0:
168,213,99161,6,0,P|198:149|269:106,1,135.000005149842,2|8,3:2|0:0,0:0:0:0:
247,247,99672,1,2,0:0:0:0:
117,123,99843,2,0,P|81:93|53:89,1,67.5000025749208,2|0,3:2|3:2,0:0:0:0:
50,172,100184,1,10,0:0:0:0:
142,8,100354,5,2,0:0:0:0:
142,8,100439,1,2,0:0:0:0:
142,8,100525,2,0,L|299:41,2,161.999995056153,2|8|0,3:2|0:0|3:2,0:0:0:0:
249,112,101377,1,0,3:2:0:0:
395,41,101547,2,0,B|393:16|364:3|364:3|376:23|375:41,1,80.9999975280763,8|0,0:0|0:0,0:0:0:0:
371,187,101888,6,0,P|428:139|518:143,1,161.999995056153,2|8,3:2|0:0,0:0:0:0:
493,283,102400,1,2,0:0:0:0:
493,283,102570,1,2,3:2:0:0:
357,334,102741,1,2,3:2:0:0:
371,187,102911,1,10,0:0:0:0:
408,264,103081,1,2,0:0:0:0:
287,179,103252,5,2,3:2:0:0:
240,270,103422,2,0,L|329:251,1,80.9999975280763,2|8,0:0|0:0,0:0:0:0:
198,358,103763,2,0,L|135:344,2,40.4999987640381,2|0|8,1:2|1:2|3:2,0:0:0:0:
150,247,104104,1,10,0:0:0:0:
150,247,104189,1,0,1:0:0:0:
150,247,104275,1,0,3:2:0:0:
0,287,104445,1,0,1:2:0:0:
82,357,104616,6,0,L|76:331,1,26.9999991760254,6|0,3:2|0:0,0:0:0:0:
150,247,104956,2,0,L|169:229,1,26.9999991760254,2|0,0:0|0:0,0:0:0:0:
50,222,105297,2,0,L|69:204,1,26.9999991760254,2|0,0:0|0:0,0:0:0:0:
149,133,105638,2,0,L|173:141,1,26.9999991760254,2|0,0:0|0:0,0:0:0:0:
120,33,105979,6,0,L|144:41,1,26.9999991760254,2|0,0:0|0:0,0:0:0:0:
246,74,106320,2,0,L|251:98,1,26.9999991760254,2|2,0:0|0:0,0:0:0:0:
256,192,106661,5,2,0:0:0:0:
332,166,106831,1,2,0:0:0:0:
348,88,107002,1,2,0:0:0:0:
391,218,107172,1,2,0:0:0:0:
256,192,107343,6,0,L|221:184,1,26.9999991760254,2|0,0:0|0:0,0:0:0:0:
276,277,107684,2,0,L|241:269,1,26.9999991760254,2|0,0:0|0:0,0:0:0:0:
422,299,108025,2,0,L|456:291,1,26.9999991760254,2|0,0:0|0:0,0:0:0:0:
402,384,108366,2,0,L|436:376,1,26.9999991760254,2|0,0:0|0:0,0:0:0:0:
391,218,108706,6,0,L|357:226,1,26.9999991760254,2|2,0:0|0:0,0:0:0:0:
308,361,109047,1,2,0:0:0:0:
276,277,109218,1,2,0:0:0:0:
168,362,109388,6,0,L|236:347,1,53.9999983520508,2|2,0:3|0:0,0:0:0:0:
34,317,109729,2,0,L|102:302,1,53.9999983520508,2|0,0:3|0:0,0:0:0:0:
179,264,110070,5,12,3:2:0:0:
55,174,110241,1,12,3:2:0:0:
55,174,110751,5,8,3:2:0:0:
194,111,110922,1,8,3:2:0:0:
202,119,111263,5,0,3:2:0:0:
202,119,111348,1,0,3:2:0:0:
202,119,111434,1,8,3:2:0:0:
179,264,111604,1,8,3:2:0:0:
179,264,112116,5,8,3:2:0:0:
55,174,112286,1,8,3:2:0:0:
142,193,112456,1,2,3:2:0:0:
202,119,112627,1,2,0:0:0:0:
307,215,112797,6,0,L|237:200,1,67.5000025749208,6|0,3:2|0:0,0:0:0:0:
474,370,113138,2,0,L|404:355,1,67.5000025749208,10|0,0:0|0:0,0:0:0:0:
183,267,113394,1,0,1:2:0:0:
183,267,113479,2,0,L|113:281,1,67.5000025749208,2|0,3:2|3:2,0:0:0:0:
448,110,113820,2,0,L|378:124,1,67.5000025749208,12|2,0:0|0:0,0:0:0:0:
202,119,114161,6,0,L|146:107,1,33.7500012874604,6|0,3:2|0:0,0:0:0:0:
24,90,114331,1,0,1:2:0:0:
24,90,114417,1,0,1:2:0:0:
24,90,114502,2,0,L|31:127,2,33.7500012874604,8|0|0,0:0|3:2|3:2,0:0:0:0:
95,27,114843,1,8,1:2:0:0:
95,27,114929,1,8,1:2:0:0:
95,27,115014,2,0,L|102:64,1,33.7500012874604,8|0,0:0|1:2,0:0:0:0:
138,181,115184,5,8,3:2:0:0:
130,214,115269,1,8,0:0:0:0:
123,247,115354,1,8,0:0:0:0:
116,280,115439,1,8,0:0:0:0:
109,313,115525,6,0,B|146:272|197:293|197:293|222:334|270:335,1,161.999995056153,6|0,3:2|0:0,0:0:0:0:
270,258,115866,1,10,0:0:0:0:
161,372,116036,1,2,0:0:0:0:
313,384,116206,2,0,P|355:349|406:335,1,90,2|0,3:2|3:2,0:0:0:0:
387,337,116462,1,2,0:0:0:0:
387,337,116547,1,10,0:0:0:0:
352,219,116718,1,2,0:0:0:0:
512,156,116888,6,0,B|532:214|476:248|427:220|427:220|430:196|411:169,1,180,2|10,3:2|0:0,0:0:0:0:
456,16,117400,1,2,0:0:0:0:
352,117,117570,2,0,L|449:96,1,90,0|0,3:2|3:2,0:0:0:0:
270,170,117911,1,8,0:0:0:0:
309,26,118081,5,2,0:0:0:0:
309,26,118167,1,2,0:0:0:0:
309,26,118252,2,0,B|253:0|214:47|214:47|193:94|145:88,1,180,2|10,3:2|0:0,0:0:0:0:
0,45,118763,1,2,0:0:0:0:
68,113,118934,2,0,L|87:19,1,90,2|2,3:2|3:2,0:0:0:0:
86,24,119189,1,2,0:0:0:0:
86,24,119275,1,8,0:0:0:0:
179,168,119445,1,2,0:0:0:0:
10,260,119616,6,0,P|43:228|96:222,1,90,2|0,3:2|0:0,0:0:0:0:
85,220,119871,1,2,0:0:0:0:
85,220,119956,1,10,0:0:0:0:
163,383,120127,1,2,0:0:0:0:
322,292,120297,5,2,3:2:0:0:
243,248,120467,1,2,3:2:0:0:
165,293,120638,1,10,0:0:0:0:
348,384,120809,5,2,0:0:0:0:
348,384,120894,1,2,0:0:0:0:
348,384,120979,2,0,L|389:195,1,180,2|10,3:2|0:0,0:0:0:0:
427,44,121491,1,2,0:0:0:0:
502,119,121661,2,0,B|484:125|469:144|469:144|334:116,1,180,0|8,3:2|0:0,0:0:0:0:
201,7,122172,1,2,0:0:0:0:
259,149,122343,6,0,B|247:106|270:60|270:60|228:91|187:85,1,180,2|10,3:2|0:0,0:0:0:0:
45,22,122854,1,2,0:0:0:0:
45,22,122939,1,2,0:0:0:0:
45,22,123025,2,0,L|83:201,1,180,0|8,3:2|0:0,0:0:0:0:
178,163,123536,1,2,0:0:0:0:
64,311,123706,6,0,B|21:293|23:246|23:246|39:268|76:272,1,135,2|0,3:2|0:0,0:0:0:0:
130,355,124047,2,0,P|115:372|91:387,1,45,10|0,0:0|0:0,0:0:0:0:
229,266,124218,2,0,P|266:241|309:228,1,90,2|0,0:0|3:2,0:0:0:0:
453,377,124559,2,0,P|412:357|380:325,1,90,2|8,3:2|0:0,0:0:0:0:
437,128,124900,1,2,0:0:0:0:
437,128,124985,1,2,0:0:0:0:
437,128,125070,5,2,3:2:0:0:
317,87,125241,1,2,3:2:0:0:
197,46,125411,1,10,0:0:0:0:
131,168,125582,5,6,3:2:0:0:
225,140,125752,1,2,0:0:0:0:
197,46,125922,1,2,3:2:0:0:
103,74,126093,1,10,0:0:0:0:
206,241,126263,5,2,0:0:0:0:
206,241,126348,1,2,0:0:0:0:
206,241,126434,2,0,P|135:279|93:347,1,161.999995056153,6|0,3:2|0:0,0:0:0:0:
41,282,126775,2,0,P|78:305|93:347,1,90,10|2,0:0|0:0,0:0:0:0:
336,216,127116,2,0,B|315:170|261:180|261:180|288:201|291:238,1,135,2|0,3:2|0:0,0:0:0:0:
307,290,127456,1,10,0:0:0:0:
406,373,127627,6,0,L|383:268,2,90,2|2|2,0:0|3:2|0:0,0:0:0:0:
476,292,128138,1,10,0:0:0:0:
277,384,128309,2,0,P|240:356|191:346,1,90,2|0,0:0|3:2,0:0:0:0:
36,369,128650,1,0,3:2:0:0:
105,258,128820,2,0,L|128:370,1,90,8|2,0:0|0:0,0:0:0:0:
4,194,129161,6,0,B|-6:145|41:129|41:129|94:134|112:84,1,161.999995056153,2|0,3:2|0:0,0:0:0:0:
46,52,129502,1,10,0:0:0:0:
207,40,129672,2,0,L|114:20,1,90,2|0,0:0|3:2,0:0:0:0:
301,125,130013,2,0,L|393:105,1,90,2|8,3:2|0:0,0:0:0:0:
331,11,130354,1,2,0:0:0:0:
188,152,130525,5,2,3:2:0:0:
348,214,130695,1,2,0:0:0:0:
301,125,130866,1,8,0:0:0:0:
161,246,131036,1,2,0:0:0:0:
284,317,131206,5,2,3:2:0:0:
258,220,131377,1,2,3:2:0:0:
161,246,131547,1,10,0:0:0:0:
187,343,131718,1,2,0:0:0:0:
348,214,131888,6,0,B|401:187|446:231|446:231|456:281|499:285,1,180,2|10,3:2|0:0,0:0:0:0:
475,37,132400,1,2,0:0:0:0:
475,37,132485,1,2,0:0:0:0:
475,37,132570,2,0,L|276:79,1,180,0|8,3:2|0:0,0:0:0:0:
60,118,133081,1,2,0:0:0:0:
199,26,133252,5,2,3:2:0:0:
146,146,133422,2,0,L|125:48,1,90,2|10,0:0|0:0,0:0:0:0:
160,261,133763,1,2,0:0:0:0:
160,261,133848,1,2,0:0:0:0:
160,261,133934,2,0,B|126:254|75:291|75:291|87:227|58:202,1,180,0|8,3:2|0:0,0:0:0:0:
256,192,134445,1,2,0:0:0:0:
314,351,134616,6,0,B|338:290|411:288|411:288|437:320|475:324,1,180,2|10,3:2|0:0,0:0:0:0:
497,155,135127,2,0,L|478:243,1,90,2|0,0:0|3:2,0:0:0:0:
357,62,135468,2,0,L|375:150,1,90,2|8,3:2|0:0,0:0:0:0:
251,26,135809,5,2,1:2:0:0:
251,26,135894,1,0,1:2:0:0:
251,26,135979,2,0,B|265:-2|300:1|300:1|285:17|283:31,1,90,8|8,3:2|0:3,0:0:0:0:
242,112,136235,1,8,0:3:0:0:
242,112,136320,2,0,L|195:102,1,45,8|0,0:3|0:0,0:0:0:0:
41,75,136491,1,8,0:0:0:0:
153,197,136661,5,0,3:2:0:0:
165,209,136746,1,0,1:2:0:0:
171,229,136831,1,0,3:2:0:0:
161,258,136917,1,0,1:2:0:0:
126,277,137002,1,8,0:0:0:0:
93,304,137087,1,8,0:0:0:0:
94,342,137172,1,8,0:0:0:0:
129,370,137258,1,8,0:0:0:0:
173,356,137343,1,4,3:2:0:0:
173,356,142968,6,0,P|189:339|215:331,2,45,2|2|2,0:0|0:0|0:0,0:0:0:0:
245,233,143650,2,0,P|267:238|287:256,2,45,2|2|2,0:0|0:0|0:0,0:0:0:0:
245,233,144331,5,2,0:0:0:0:
313,167,144502,1,2,0:0:0:0:
222,142,144672,1,2,0:0:0:0:
154,212,144843,2,0,L|164:260,2,45,2|2|2,0:0|0:0|0:0,0:0:0:0:
31,117,145695,6,0,L|41:68,2,45,2|2|2,0:0|0:0|0:0,0:0:0:0:
168,77,146206,2,0,L|123:67,1,45,2|0,0:0|0:0,0:0:0:0:
233,9,146547,2,0,L|188:0,1,45,2|0,0:0|0:0,0:0:0:0:
300,87,146888,5,2,0:0:0:0:
389,93,147059,1,2,0:0:0:0:
439,19,147229,1,2,0:0:0:0:
431,167,147400,2,0,P|451:150|479:145,1,45,2|0,0:0|0:0,0:0:0:0:
492,223,147741,1,2,0:0:0:0:
492,223,147911,1,2,0:0:0:0:
429,359,148252,6,0,P|397:332|344:327,3,90,4|0|0|0,3:2|3:2|3:2|3:2,0:0:0:0:
306,252,149445,5,0,1:0:0:0:
306,252,149530,1,0,1:0:0:0:
306,252,149616,2,0,P|284:268|273:287,1,45,8|0,3:2|1:0,0:0:0:0:
209,367,149956,2,0,P|206:339|195:320,1,45,8|0,3:2|0:0,0:0:0:0:
112,260,150297,2,0,L|204:240,1,90,0|0,3:2|3:2,0:0:0:0:
28,277,150809,5,0,1:2:0:0:
28,277,150894,1,0,1:2:0:0:
28,277,150979,2,0,L|40:333,1,45,8|0,3:2|1:0,0:0:0:0:
103,216,151320,2,0,L|115:272,1,45,8|2,3:2|0:0,0:0:0:0:
81,114,151661,2,0,P|52:148|11:166,1,90,2|0,3:2|3:2,0:0:0:0:
113,23,152172,5,0,1:2:0:0:
113,23,152258,1,0,1:2:0:0:
113,23,152343,2,0,L|157:32,2,45,8|0|8,3:2|1:2|3:2,0:0:0:0:
158,118,152854,1,2,0:0:0:0:
242,30,153025,1,4,3:2:0:0:
269,117,153195,1,0,1:0:0:0:
269,117,153280,1,0,1:0:0:0:
269,117,153366,2,0,L|237:110,3,22.5,4|0|0|0,3:2|1:2|1:2|1:2,0:0:0:0:
361,45,153706,6,0,P|383:81|434:99,3,90,4|0|0|0,3:2|3:2|3:2|3:2,0:0:0:0:
457,182,154900,1,0,1:2:0:0:
457,182,154985,1,0,1:2:0:0:
457,182,155070,2,0,P|482:170|494:149,1,45,8|0,3:2|1:2,0:0:0:0:
367,163,155411,2,0,P|364:190|377:211,1,45,8|2,3:2|0:0,0:0:0:0:
477,282,155752,2,0,L|383:303,1,90,2|2,3:2|3:2,0:0:0:0:
297,365,156263,5,0,1:2:0:0:
297,365,156348,1,0,1:2:0:0:
297,365,156434,2,0,L|308:313,1,45,8|0,3:2|1:0,0:0:0:0:
217,261,156775,2,0,L|228:312,1,45,8|0,3:2|1:2,0:0:0:0:
126,225,157116,1,10,3:2:0:0:
126,225,157201,1,2,0:0:0:0:
126,225,157286,1,0,1:0:0:0:
199,171,157456,2,0,L|210:119,1,45,10|0,3:2|1:2,0:0:0:0:
231,25,157797,5,8,0:0:0:0:
349,51,157968,1,8,0:0:0:0:
467,77,158138,1,2,3:3:0:0:
403,183,158309,1,0,1:0:0:0:
403,183,158394,1,0,1:0:0:0:
403,183,158479,2,0,L|391:128,1,45,8|8,3:2|0:3,0:0:0:0:
482,262,158820,2,0,P|449:270|425:296,1,67.5,8|0,0:0|1:2,0:0:0:0:
480,363,159161,6,0,P|401:320|313:299,2,180,6|0|2,3:2|3:2|3:2,0:0:0:0:
326,216,160013,1,2,0:0:0:0:
245,354,160184,1,2,3:2:0:0:
221,227,160354,5,2,1:2:0:0:
221,227,160439,1,2,1:2:0:0:
221,227,160525,2,0,L|228:262,1,33.7500012874604,8|0,3:2|0:0,0:0:0:0:
137,231,160695,2,0,L|144:266,1,33.7500012874604,8|0,0:0|0:0,0:0:0:0:
162,372,160866,2,0,P|111:337|36:326,1,135.000005149842,0|2,3:2|3:2,0:0:0:0:
137,231,161377,1,2,0:0:0:0:
3,167,161547,1,2,3:2:0:0:
51,254,161718,5,2,1:2:0:0:
51,254,161803,1,0,1:2:0:0:
51,254,161888,2,0,L|58:219,1,33.7500012874604,8|0,3:2|0:0,0:0:0:0:
80,141,162059,2,0,L|87:106,1,33.7500012874604,8|0,0:0|0:0,0:0:0:0:
0,19,162229,2,0,L|19:108,1,67.5000025749208,0|2,3:2|0:0,0:0:0:0:
202,100,162570,2,0,B|197:47|139:47|139:47|171:71|171:100,1,135.000005149842,2|2,3:2|3:2,0:0:0:0:
259,190,163081,5,2,1:2:0:0:
259,190,163167,1,0,1:2:0:0:
259,190,163252,2,0,L|299:181,1,33.7500012874604,8|0,3:2|0:0,0:0:0:0:
283,105,163422,2,0,L|323:96,1,33.7500012874604,8|0,0:0|0:0,0:0:0:0:
405,63,163593,2,0,L|376:195,1,135.000005149842,0|2,3:2|3:2,0:0:0:0:
464,189,164104,1,8,0:0:0:0:
324,261,164275,2,0,L|332:302,3,33.7500012874604,0|4|4|4,3:2|3:0|3:0|3:0,0:0:0:0:
207,254,164616,6,0,B|149:234|120:270|120:270|94:326|35:312,2,180,4|0|2,3:2|3:2|3:2,0:0:0:0:
50,238,165468,1,2,0:0:0:0:
139,149,165638,1,2,3:2:0:0:
2,121,165809,5,2,1:2:0:0:
2,121,165894,1,2,1:2:0:0:
2,121,165979,2,0,L|13:176,1,33.7500012874604,10|0,3:2|0:0,0:0:0:0:
71,63,166149,2,0,L|82:118,1,33.7500012874604,8|0,0:0|0:0,0:0:0:0:
139,149,166320,2,0,P|183:111|266:96,1,135.000005149842,2|2,3:2|3:2,0:0:0:0:
366,150,166831,1,2,0:0:0:0:
329,18,167002,1,2,3:2:0:0:
438,83,167172,5,2,1:2:0:0:
438,83,167258,1,2,1:2:0:0:
438,83,167343,2,0,L|390:72,1,33.7500012874604,10|0,3:2|0:0,0:0:0:0:
497,11,167513,2,0,L|449:0,1,33.7500012874604,8|0,0:0|0:0,0:0:0:0:
329,18,167684,2,0,L|239:37,1,67.5000025749208,2|2,3:2|0:0,0:0:0:0:
432,164,168025,2,0,L|342:144,1,67.5000025749208,2|2,3:2|0:0,0:0:0:0:
159,106,168366,1,2,3:2:0:0:
267,194,168536,5,0,1:2:0:0:
267,194,168621,1,0,1:2:0:0:
267,194,168706,2,0,L|256:145,1,45,8|0,3:2|0:0,0:0:0:0:
186,234,168877,1,8,0:0:0:0:
335,322,169218,5,0,3:2:0:0:
335,322,169303,1,0,3:2:0:0:
335,322,169388,2,0,L|345:273,1,45,8|0,3:2|0:0,0:0:0:0:
416,362,169559,1,8,0:0:0:0:
242,311,169729,2,0,B|197:291|172:331|179:336|153:373|109:351,1,135,12|0,0:0|0:0,0:0:0:0:
125,356,170070,5,14,3:2:0:0:
83,280,170241,1,2,0:0:0:0:
4,317,170411,1,2,3:2:0:0:
186,234,170581,2,0,P|144:181|59:164,1,144,14|2,0:0|3:2,0:0:0:0:
72,162,171093,1,14,0:0:0:0:
134,90,171263,1,2,3:2:0:0:
99,11,171434,5,2,3:2:0:0:
226,101,171604,2,0,P|255:80|288:66,1,72,2|2,1:2|3:2,0:0:0:0:
396,147,171945,1,10,0:0:0:0:
365,52,172116,1,10,0:0:0:0:
460,22,172286,1,8,1:2:0:0:
491,118,172457,5,8,0:0:0:0:
483,153,172542,1,8,0:0:0:0:
476,188,172627,1,8,0:0:0:0:
468,223,172712,1,8,0:0:0:0:
461,258,172797,6,0,B|408:224|368:263|368:263|348:309|301:305,1,175.499991966248,6|0,3:2|0:0,0:0:0:0:
248,263,173138,1,10,0:0:0:0:
178,384,173309,1,2,0:0:0:0:
85,281,173479,2,0,L|173:299,1,90,2|0,3:2|3:2,0:0:0:0:
121,201,173820,1,10,0:0:0:0:
32,356,173991,1,2,0:0:0:0:
248,263,174161,6,0,L|209:81,1,180,2|10,3:2|0:0,0:0:0:0:
121,201,174672,1,2,0:0:0:0:
299,39,174843,2,0,B|278:14|249:21|249:21|267:34|276:46,1,90,0|0,3:2|3:2,0:0:0:0:
312,214,175184,1,8,0:0:0:0:
478,85,175354,2,0,L|429:95,1,45,2|0,0:0|0:0,0:0:0:0:
390,184,175525,6,0,B|350:119|282:124|282:124|267:152|234:162,1,180,2|10,3:2|0:0,0:0:0:0:
30,147,176036,1,2,0:0:0:0:
122,68,176206,2,0,L|212:87,1,90,2|0,3:2|3:2,0:0:0:0:
213,250,176547,2,0,B|186:238|184:206|184:206|196:223|218:233,1,90,10|2,0:0|0:0,0:0:0:0:
380,270,176888,6,0,P|340:307|317:349,1,90,2|0,3:2|0:0,0:0:0:0:
156,384,177229,1,10,0:0:0:0:
60,275,177400,1,2,0:0:0:0:
213,250,177570,5,2,3:2:0:0:
124,188,177741,1,2,3:2:0:0:
60,275,177911,1,10,0:0:0:0:
329,344,178081,5,2,0:0:0:0:
329,344,178167,1,2,0:0:0:0:
329,344,178252,2,0,L|288:154,1,180,2|10,3:2|0:0,0:0:0:0:
145,42,178763,1,2,0:0:0:0:
145,42,178848,1,2,0:0:0:0:
145,42,178934,2,0,B|154:119|222:129|222:129|240:98|281:91,1,180,0|8,3:2|0:0,0:0:0:0:
471,4,179445,1,2,0:0:0:0:
464,114,179616,6,0,P|418:72|303:29,1,180,2|10,3:2|0:0,0:0:0:0:
462,253,180127,1,2,0:0:0:0:
462,253,180212,1,2,0:0:0:0:
462,253,180297,2,0,B|523:241|527:172|527:172|497:201|452:201,1,180,0|8,3:2|0:0,0:0:0:0:
377,334,180809,2,0,P|389:352|415:366,1,45,2|0,0:0|0:0,0:0:0:0:
350,224,180979,6,0,B|289:188|234:246|234:246|211:296|159:291,1,215.999993408203,2|10,3:2|0:0,0:0:0:0:
56,295,181405,1,2,0:0:0:0:
56,295,181491,2,0,P|81:331|104:370,1,90,2|0,0:0|3:2,0:0:0:0:
210,136,181831,2,0,P|184:172|161:211,1,90,2|8,3:2|0:0,0:0:0:0:
40,54,182172,5,2,0:0:0:0:
40,54,182258,1,2,0:0:0:0:
40,54,182343,2,0,P|57:73|73:97,1,45,2|0,3:2|0:0,0:0:0:0:
54,217,182513,1,10,3:2:0:0:
31,216,182598,1,8,0:0:0:0:
18,197,182684,1,10,0:0:0:0:
22,176,182769,1,8,0:0:0:0:
39,166,182854,2,0,L|254:212,1,215.999993408203,6|2,3:2|3:2,0:0:0:0:
395,242,183366,2,0,L|384:194,1,45,10|0,0:0|0:0,0:0:0:0:
385,68,183536,5,2,0:0:0:0:
385,68,183621,1,0,1:0:0:0:
385,68,183706,2,0,B|435:66|460:24|460:24|438:70|466:117,1,180,6|10,3:2|0:0,0:0:0:0:
301,0,184218,1,2,0:0:0:0:
201,117,184388,5,2,3:2:0:0:
288,91,184559,1,2,3:2:0:0:
134,8,184729,5,10,0:0:0:0:
221,34,184900,1,2,0:0:0:0:
96,175,185070,5,2,3:2:0:0:
118,88,185241,1,2,0:0:0:0:
31,64,185411,1,10,0:0:0:0:
8,151,185581,2,0,L|27:241,1,90,2|0,0:0|3:2,0:0:0:0:
57,384,185922,1,0,3:2:0:0:
152,242,186093,1,8,0:0:0:0:
195,370,186263,2,0,L|144:360,1,45,2|0,0:0|0:0,0:0:0:0:
268,278,186434,6,0,B|308:197|395:217|395:217|418:255|461:260,1,215.999993408203,2|10,3:2|0:0,0:0:0:0:
356,318,186945,1,2,0:0:0:0:
465,176,187116,2,0,P|481:134|517:100,1,90,2|0,3:2|3:2,0:0:0:0:
302,0,187456,2,0,P|334:31|350:73,1,90,10|2,0:0|0:0,0:0:0:0:
232,185,187797,6,0,B|188:125|126:136|126:136|112:163|79:175,1,180,2|8,3:2|0:0,0:0:0:0:
158,230,188309,1,2,0:0:0:0:
197,56,188479,1,2,3:2:0:0:
106,25,188649,1,2,3:2:0:0:
54,104,188820,1,10,0:0:0:0:
158,230,188991,1,2,0:0:0:0:
350,73,189161,6,0,L|309:260,1,180,2|10,3:2|0:0,0:0:0:0:
115,372,189672,1,2,0:0:0:0:
115,372,189758,1,2,0:0:0:0:
115,372,189843,2,0,B|85:337|95:288|95:288|66:332|6:339,1,180,0|8,3:2|0:0,0:0:0:0:
176,314,190354,1,2,0:0:0:0:
279,354,190525,5,2,3:2:0:0:
311,248,190695,1,2,0:0:0:0:
211,209,190866,1,10,0:0:0:0:
464,252,191036,1,2,0:0:0:0:
464,252,191121,1,2,0:0:0:0:
464,252,191206,2,0,B|439:181|369:191|369:191|397:224|391:256,1,180,0|8,3:2|0:0,0:0:0:0:
416,360,191718,1,2,0:0:0:0:
311,248,191888,6,0,L|350:60,1,180,2|10,3:2|0:0,0:0:0:0:
181,57,192400,2,0,P|222:37|266:29,1,90,2|0,0:0|3:2,0:0:0:0:
52,97,192741,2,0,P|55:51|70:9,1,90,2|8,3:2|0:0,0:0:0:0:
39,225,193081,5,2,0:0:0:0:
39,225,193167,1,2,0:0:0:0:
39,225,193252,2,0,P|13:218|-8:197,1,45,2|0,3:2|0:0,0:0:0:0:
130,150,193422,5,8,0:3:0:0:
138,156,193508,1,8,0:3:0:0:
146,162,193593,1,8,0:3:0:0:
154,168,193678,1,8,0:3:0:0:
160,173,193763,2,0,L|146:235,1,45,8|0,0:0|0:0,0:0:0:0:
46,305,193934,5,0,1:2:0:0:
38,311,194020,1,0,1:3:0:0:
30,317,194105,1,0,1:3:0:0:
22,323,194190,1,0,1:3:0:0:
16,328,194275,2,0,L|30:390,1,45,8|0,3:2|0:0,0:0:0:0:
267,345,194445,5,8,0:0:0:0:
292,328,194530,1,8,0:0:0:0:
294,302,194616,2,0,B|231:263|179:309|179:309|155:365|103:356,2,215.999993408203,6|8|0,3:2|0:0|3:2,0:0:0:0:
394,384,195468,1,0,3:2:0:0:
497,243,195638,2,0,L|405:262,1,90,8|0,0:0|0:0,0:0:0:0:
282,118,195979,6,0,P|345:108|396:156,1,135,0|0,3:2|0:0,0:0:0:0:
394,152,196320,2,0,P|364:106|363:71,1,90,8|0,0:0|0:0,0:0:0:0:
241,4,196661,1,2,3:2:0:0:
93,92,196831,1,0,3:2:0:0:
183,113,197002,2,0,L|157:-4,1,90,8|0,0:0|0:0,0:0:0:0:
250,209,197343,6,0,L|216:365,1,135,2|0,3:2|0:0,0:0:0:0:
221,341,197684,2,0,P|191:307|148:300,1,90,8|0,0:0|0:0,0:0:0:0:
4,319,198025,1,2,3:2:0:0:
131,217,198195,1,0,3:2:0:0:
41,179,198366,2,0,L|60:272,1,90,8|0,0:0|0:0,0:0:0:0:
328,363,198706,6,0,P|409:359|432:309,1,135,2|0,3:2|0:0,0:0:0:0:
431,317,199047,2,0,L|411:223,1,90,8|0,0:0|0:0,0:0:0:0:
383,40,199388,1,0,3:2:0:0:
494,162,199559,1,0,3:2:0:0:
322,147,199729,1,8,0:0:0:0:
485,32,199900,2,0,B|480:2|447:-7|447:-7|465:15|463:42,1,90,0|0,0:0|3:2,0:0:0:0:
411,126,200241,5,2,0:0:0:0:
289,59,200411,1,10,0:0:0:0:
205,147,200581,2,0,L|224:239,1,90,2|0,0:0|3:2,0:0:0:0:
261,384,200922,1,2,3:2:0:0:
334,336,201093,2,0,P|302:306|259:298,1,90,10|2,0:0|0:0,0:0:0:0:
8,338,201434,6,0,L|184:300,1,180,2|10,3:2|0:0,0:0:0:0:
322,147,201945,1,2,0:0:0:0:
322,147,202116,1,2,3:2:0:0:
152,71,202286,1,2,3:2:0:0:
152,71,202456,1,8,0:0:0:0:
223,235,202627,1,2,0:0:0:0:
322,52,202797,6,0,B|366:1|440:17|440:17|452:50|484:62,1,180,2|8,3:2|0:0,0:0:0:0:
241,90,203309,2,0,L|152:71,1,90,2|0,0:0|3:2,0:0:0:0:
0,229,203650,2,0,L|88:210,1,90,2|8,3:2|0:0,0:0:0:0:
322,147,203991,5,2,0:0:0:0:
322,147,204076,1,2,0:0:0:0:
322,147,204161,2,0,L|289:301,1,135,2|0,3:2|0:0,0:0:0:0:
367,340,204502,2,0,L|380:277,1,45,8|0,0:0|0:0,0:0:0:0:
396,198,204672,1,4,3:2:0:0:
278,365,204843,2,0,B|219:385|190:343|190:343|164:292|117:305,1,180,2|8,0:0|0:0,0:0:0:0:
27,319,205354,5,2,0:0:0:0:
115,203,205525,1,2,3:2:0:0:
14,220,205695,1,2,0:0:0:0:
130,307,205866,1,10,0:0:0:0:
130,307,206036,1,2,0:0:0:0:
48,130,206206,5,2,3:2:0:0:
101,56,206377,1,2,0:0:0:0:
194,53,206547,1,10,0:0:0:0:
262,112,206718,1,2,0:0:0:0:
284,199,206888,5,2,3:2:0:0:
453,157,207059,1,2,0:0:0:0:
380,219,207229,1,10,0:0:0:0:
432,67,207400,2,0,B|422:37|386:38|386:38|401:49|405:65,1,90,2|0,0:0|3:2,0:0:0:0:
466,241,207741,1,2,3:2:0:0:
364,136,207911,1,8,0:0:0:0:
316,277,208081,1,2,0:0:0:0:
380,219,208252,5,2,3:2:0:0:
401,310,208422,1,2,0:0:0:0:
325,364,208593,1,8,0:0:0:0:
240,320,208763,2,0,L|218:226,1,90,2|0,0:0|3:2,0:0:0:0:
154,384,209104,2,0,L|132:290,1,90,2|8,3:2|0:0,0:0:0:0:
104,136,209445,1,2,0:0:0:0:
58,214,209616,5,2,3:2:0:0:
195,146,209786,1,2,0:0:0:0:
104,136,209956,1,8,0:0:0:0:
69,59,210127,1,2,0:0:0:0:
62,46,210212,1,2,0:0:0:0:
57,36,210297,2,0,L|248:76,1,180,2|8,3:2|0:0,0:0:0:0:
406,191,210809,5,2,0:0:0:0:
503,134,210979,1,2,3:2:0:0:
445,41,211150,1,2,0:0:0:0:
350,98,211320,1,8,0:0:0:0:
322,206,211491,1,2,0:0:0:0:
425,116,211661,1,2,3:2:0:0:
461,256,211831,1,2,3:2:0:0:
406,191,212002,1,10,0:0:0:0:
322,206,212172,1,2,0:0:0:0:
355,363,212343,5,2,3:2:0:0:
247,303,212513,2,0,L|341:284,1,90,2|10,0:0|0:0,0:0:0:0:
162,383,212854,2,0,L|73:365,1,90,2|0,0:0|3:2,0:0:0:0:
144,275,213195,1,2,3:2:0:0:
144,275,213366,1,10,0:0:0:0:
31,265,213536,5,2,0:0:0:0:
105,171,213706,1,2,3:2:0:0:
220,205,213877,1,2,0:0:0:0:
76,54,214047,1,10,0:0:0:0:
195,5,214218,5,2,0:0:0:0:
186,119,214388,1,2,3:2:0:0:
76,54,214559,1,2,3:2:0:0:
274,133,214729,2,0,P|305:101|394:90,1,135,8|2,0:0|0:0,0:0:0:0:
480,78,215070,6,0,L|469:127,1,45,0|0,3:2|0:0,0:0:0:0:
361,185,215241,1,8,0:3:0:0:
361,185,215326,1,8,0:3:0:0:
361,185,215411,2,0,L|371:234,1,45,8|8,0:3|0:0,0:0:0:0:
499,281,215581,6,0,P|482:266|447:262,1,45,8|0,0:0|0:0,0:0:0:0:
413,357,215752,1,8,0:0:0:0:
413,357,215837,1,8,0:0:0:0:
413,357,215922,2,0,P|430:372|465:376,1,45,8|0,3:2|0:0,0:0:0:0:
289,313,216093,2,0,L|234:324,1,45,12|0,0:0|0:0,0:0:0:0:
85,363,216263,5,8,0:0:0:0:
85,363,216348,1,8,0:0:0:0:
85,363,216434,1,4,3:2:0:0:
