osu file format v14

[General]
AudioFilename: audio.mp3
AudioLeadIn: 0
PreviewTime: 55154
Countdown: 0
SampleSet: Soft
StackLeniency: 0.4
Mode: 0
LetterboxInBreaks: 0
WidescreenStoryboard: 0

[Editor]
DistanceSpacing: 1.2
BeatDivisor: 4
GridSize: 32
TimelineZoom: 1.5

[Metadata]
Title:breath of stella
TitleUnicode:breath of stella
Artist:Aimiya Zero
ArtistUnicode:相宮零
Creator:Shurelia
Version:Philia
Source:終のステラ
Tags:tsui no of the end KEY opening op visual novel video game japanese rock pop j-pop jpop arts shizuku- ayesha altugle shikibe mayu kazato asa ponbot
BeatmapID:3845645
BeatmapSetID:1869159

[Difficulty]
HPDrainRate:6.2
CircleSize:4.2
OverallDifficulty:8.8
ApproachRate:9.1
SliderMultiplier:1.8
SliderTickRate:1

[Events]
//Background and Video events
0,0,"stellatheendbg.jpg",0,0
//Break Periods
2,142968,147638
//Storyboard Layer 0 (Background)
//Storyboard Layer 1 (Fail)
//Storyboard Layer 2 (Pass)
//Storyboard Layer 3 (Foreground)
//Storyboard Layer 4 (Overlay)
//Storyboard Sound Samples

[TimingPoints]
950,340.909090909091,4,2,1,32,1,0
950,-166.666666666667,4,2,1,32,0,0
10495,-166.666666666667,4,2,1,71,0,0
11944,-166.666666666667,4,2,1,53,0,0
14586,-166.666666666667,4,2,1,53,0,0
15950,-166.666666666667,4,2,1,71,0,0
16461,-100,4,2,1,71,0,0
17484,-100,4,2,1,53,0,0
17995,-100,4,2,1,71,0,0
22768,-100,4,2,1,42,0,0
23109,-166.666666666667,4,2,1,42,0,0
33677,-100,4,2,1,64,0,0
44586,-100,4,2,1,53,0,0
48677,-100,4,2,1,64,0,0
50040,-125,4,2,1,53,0,0
55495,-83.3333333333333,4,2,1,71,0,1
82768,-111.111111111111,4,2,1,42,0,0
93677,-100,4,2,1,53,0,0
104586,-100,4,2,1,31,0,0
109700,-166.666666666667,4,2,1,31,0,0
110040,-125,4,2,1,53,0,0
112768,-100,4,2,1,64,0,0
115495,-83.3333333333333,4,2,1,71,0,1
139955,-83.3333333333333,4,2,1,5,0,0
140040,-100,4,2,1,64,0,1
141319,-100,4,2,1,5,0,0
141404,-125,4,2,1,53,0,1
142682,-125,4,2,1,5,0,0
142768,-125,4,2,1,42,0,0
159131,-111.111111111111,4,2,1,53,0,0
169700,-500,4,2,1,53,0,0
169955,-500,4,2,1,5,0,0
170040,-500,4,2,1,64,0,0
170552,-100,4,2,1,64,0,0
172768,-76.9230769230769,4,2,1,77,0,1
180950,-71.4285714285714,4,2,1,77,0,1
183677,-76.9230769230769,4,2,1,77,0,1
191859,-71.4285714285714,4,2,1,77,0,1
194501,-71.4285714285714,4,2,1,70,0,0
194586,-76.9230769230769,4,2,1,70,0,1
205410,-76.9230769230769,4,2,1,70,0,0
205495,-76.9230769230769,4,2,1,70,0,1
216404,-166.666666666667,4,2,1,30,0,0
221859,344.827586206897,4,2,1,30,1,0
221859,-166.666666666667,4,2,1,30,0,0
222548,340.909090909091,4,2,1,30,1,0
223229,337.078651685393,4,2,1,30,1,0
223229,-166.666666666667,4,2,1,30,0,0
223734,365.853658536586,4,2,1,5,1,0
223916,368.098159509203,4,2,1,30,1,0
223916,-166.666666666667,4,2,1,30,0,0
224284,377.358490566038,4,2,1,5,1,0
224647,331.491712707183,4,2,1,30,1,0
224812,363.636363636364,4,2,1,30,1,0
224993,-166.666666666667,4,2,1,30,0,0
225175,437.956204379563,4,2,1,30,1,0
225393,365.853658536586,4,2,1,30,1,0
225393,-200,4,2,1,30,0,0
225761,370.37037037037,4,2,1,30,1,0
225761,-250,4,2,1,30,0,0
226175,472.440944881889,4,2,1,30,1,0
226175,-333.333333333333,4,2,1,30,0,0
226620,500,4,2,1,30,1,0
226620,-500,4,2,1,30,0,0
227088,530.973451327434,4,2,1,30,1,0
229211,-100,4,2,1,15,0,0

[Colours]
Combo1 : 132,193,255
Combo2 : 192,192,192
Combo3 : 0,170,170
Combo4 : 64,128,128

[HitObjects]
83,311,950,6,0,P|136:315|190:320,1,108,2|0,0:0|0:0,0:0:0:0:
256,363,1461,1,0,0:0:0:0:
326,349,1631,1,2,0:0:0:0:
326,349,1972,2,0,P|353:347|380:351,1,53.9999999999999
456,368,2313,2,0,P|446:316|450:262,1,108,2|0,0:0|0:0,0:0:0:0:
511,216,2825,2,0,P|506:163|483:115,1,108
492,14,3677,6,0,P|439:26|385:32,1,108,2|0,0:0|0:0,0:0:0:0:
325,76,4188,1,0,0:0:0:0:
272,26,4359,2,0,P|246:34|219:37,1,53.9999999999999,2|0,0:0|0:0,0:0:0:0:
149,28,4700,1,0,0:0:0:0:
149,27,5040,6,0,P|146:79|187:110,1,108,2|0,0:0|0:0,0:0:0:0:
258,111,5552,1,0,0:0:0:0:
218,174,5722,2,0,P|221:200|226:227,1,53.9999999999999,2|0,0:0|0:0,0:0:0:0:
322,301,6063,2,0,P|295:298|270:290,1,53.9999999999999
100,346,6404,6,0,P|120:297|170:282,1,108,2|0,0:0|0:0,0:0:0:0:
31,280,6915,2,0,P|28:226|43:174,1,108
106,133,7427,1,0,0:0:0:0:
29,17,7768,6,0,P|79:35|133:35,1,108,2|0,0:0|0:0,0:0:0:0:
211,48,8279,2,0,P|264:34|317:30,1,108
393,53,8790,1,0,0:0:0:0:
470,299,9131,5,2,0:0:0:0:
470,299,10495,5,4,1:2:0:0:
470,299,10836,5,0,1:2:0:0:
397,249,11006,1,0,1:2:0:0:
245,333,11177,5,0,1:2:0:0:
341,372,11347,1,0,1:2:0:0:
249,199,11518,5,0,1:2:0:0:
120,257,11688,1,0,1:2:0:0:
256,12,11859,5,4,1:2:0:0:
256,192,11944,12,2,14586,0:0:0:0:
256,12,15779,5,8,0:3:0:0:
242,14,15864,1,8,0:3:0:0:
223,19,15950,1,4,1:2:0:0:
139,180,16120,1,0,3:2:0:0:
78,55,16290,1,0,3:2:0:0:
332,172,16461,2,0,P|399:161|464:142,1,135,6|0,1:2|0:0,0:0:0:0:
477,129,16802,1,0,3:2:0:0:
387,84,16972,1,0,1:2:0:0:
439,325,17143,1,0,1:2:0:0:
446,332,17484,5,2,0:0:0:0:
446,332,17654,1,2,0:0:0:0:
502,384,17825,1,2,0:0:0:0:
332,370,17995,6,0,P|265:361|198:349,1,135,4|0,1:2|0:0,0:0:0:0:
126,363,18336,2,0,P|110:297|102:230,1,135,0|0,1:0|0:0,0:0:0:0:
104,186,18677,1,0,3:2:0:0:
191,265,18847,1,0,3:2:0:0:
13,260,19018,2,0,P|12:216|25:173,1,90,0|0,1:0|0:0,0:0:0:0:
0,30,19359,1,0,3:2:0:0:
101,110,19529,1,0,0:0:0:0:
191,7,19700,1,0,1:0:0:0:
201,26,19785,1,0,0:0:0:0:
211,45,19870,1,0,0:0:0:0:
380,12,20040,5,0,3:2:0:0:
292,140,20211,1,0,3:2:0:0:
476,108,20381,2,0,P|490:65|503:22,1,90,0|0,1:0|0:0,0:0:0:0:
498,241,20722,1,0,3:2:0:0:
389,161,20893,1,0,3:2:0:0:
512,346,21063,2,0,P|445:337|377:333,1,135,0|0,1:0|0:0,0:0:0:0:
353,358,21404,6,0,P|308:355|264:350,1,90,0|0,3:2|1:0,0:0:0:0:
244,338,21660,1,0,1:0:0:0:
224,327,21745,1,0,1:0:0:0:
203,319,21830,1,0,1:0:0:0:
179,314,21915,2,0,P|135:322|92:335,1,90,4|0,3:2|0:0,0:0:0:0:
2,182,22256,1,0,3:2:0:0:
109,224,22427,2,0,P|97:157|75:93,1,135,0|0,1:0|0:0,0:0:0:0:
27,33,22768,5,4,3:2:0:0:
195,129,23109,2,0,L|197:146,3,18,2|8|8|8,3:2|0:0|0:0|0:0,0:0:0:0:
233,69,23450,2,0,L|286:74,2,53.9999999999999,10|8|10,3:2|0:0|3:2,0:0:0:0:
285,148,23961,1,0,0:0:0:0:
285,148,24131,2,0,L|365:155,1,80.9999999999998,2|0,3:2|0:0,0:0:0:0:
387,156,24472,1,2,3:2:0:0:
436,103,24643,2,0,L|433:85,3,18,8|8|8|2,0:0|0:0|0:0|3:2,0:0:0:0:
466,168,24984,1,8,0:0:0:0:
417,229,25154,1,2,3:2:0:0:
476,280,25325,2,0,L|494:280,2,18,8|8|8,0:0|0:0|0:0,0:0:0:0:
420,330,25495,6,0,L|402:330,6,18,2|8|8|8|8|8|10,3:2|0:0|0:0|0:0|0:0|0:0|3:2,0:0:0:0:
338,373,26006,1,8,0:0:0:0:
301,309,26177,2,0,L|247:312,1,53.9999999999999,2|8,3:2|0:0,0:0:0:0:
144,247,26518,2,0,L|200:252,1,53.9999999999999,2|0,3:2|0:0,0:0:0:0:
255,199,26859,1,2,3:2:0:0:
202,142,27029,2,0,L|196:88,1,53.9999999999999,8|2,0:0|3:2,0:0:0:0:
251,15,27370,2,0,L|268:11,3,18,8|8|8|2,0:0|0:0|0:0|3:2,0:0:0:0:
267,84,27711,1,0,1:0:0:0:
153,9,27881,1,2,3:2:0:0:
267,84,28052,1,0,1:0:0:0:
122,80,28222,5,2,3:2:0:0:
122,80,28563,2,0,L|124:97,3,18,2|8|8|8,3:2|0:0|0:0|0:0,0:0:0:0:
68,150,28904,2,0,L|14:144,2,53.9999999999999,10|8|10,3:2|0:0|3:2,0:0:0:0:
103,217,29415,1,0,0:0:0:0:
38,258,29586,2,0,L|47:338,1,80.9999999999998,2|0,3:2|0:0,0:0:0:0:
117,368,29927,1,2,3:2:0:0:
173,313,30097,2,0,L|170:295,3,18,8|8|8|10,0:0|0:0|0:0|3:2,0:0:0:0:
235,361,30438,1,8,0:0:0:0:
235,361,30609,1,10,3:2:0:0:
288,300,30779,2,0,L|306:300,2,18,8|8|8,0:0|0:0|0:0,0:0:0:0:
245,238,30950,6,0,L|227:238,6,18,2|8|8|8|8|8|2,3:2|0:0|0:0|0:0|0:0|0:0|3:2,0:0:0:0:
297,186,31461,1,8,0:0:0:0:
239,141,31631,2,0,L|230:87,1,53.9999999999999,10|8,3:2|0:0,0:0:0:0:
350,128,31972,2,0,L|341:74,1,53.9999999999999,10|0,3:2|0:0,0:0:0:0:
439,183,32313,1,2,3:2:0:0:
439,183,32484,2,0,L|448:237,1,53.9999999999999,0|0,0:0|3:2,0:0:0:0:
480,304,32825,2,0,L|497:300,3,18,8|8|8|2,0:0|0:0|0:0|1:2,0:0:0:0:
450,375,33165,1,0,1:0:0:0:
386,339,33336,1,2,1:2:0:0:
385,339,33677,6,0,P|318:342|253:358,1,135,6|0,1:2|0:0,0:0:0:0:
273,280,34018,2,0,P|228:284|191:308,1,90,2|0,1:2|0:0,0:0:0:0:
59,380,34359,1,2,3:2:0:0:
19,282,34529,1,0,3:2:0:0:
129,221,34700,1,2,1:2:0:0:
109,313,34870,1,0,0:0:0:0:
46,196,35040,6,0,P|57:130|102:81,1,135,2|0,3:2|0:0,0:0:0:0:
154,25,35381,2,0,P|199:29|243:39,1,90,2|0,1:2|0:0,0:0:0:0:
372,116,35722,1,2,3:2:0:0:
269,171,35893,1,0,3:2:0:0:
343,27,36063,1,2,1:2:0:0:
468,59,36234,1,0,3:2:0:0:
453,185,36404,6,0,P|444:251|433:318,1,135,2|0,3:2|0:0,0:0:0:0:
375,363,36745,2,0,P|350:327|346:283,1,90,2|0,1:2|0:0,0:0:0:0:
357,124,37086,1,2,3:2:0:0:
274,263,37256,1,0,3:2:0:0:
228,121,37427,1,2,1:2:0:0:
372,206,37597,1,0,0:0:0:0:
425,32,37768,6,0,P|359:49|292:53,1,135,2|0,3:2|0:0,0:0:0:0:
234,8,38109,2,0,P|190:4|145:9,1,90,2|2,1:2|0:0,0:0:0:0:
14,66,38450,1,2,3:2:0:0:
81,291,38620,1,0,3:2:0:0:
81,291,38961,1,0,3:2:0:0:
128,369,39131,6,0,P|190:343|256:334,1,135,6|0,1:2|0:0,0:0:0:0:
320,370,39472,2,0,P|364:373|407:359,1,90,2|0,1:2|0:0,0:0:0:0:
512,248,39813,1,2,3:2:0:0:
412,287,39984,1,0,3:2:0:0:
347,192,40154,1,2,1:2:0:0:
454,150,40325,1,0,0:0:0:0:
510,46,40495,6,0,B|473:40|431:80|379:62,1,135,2|0,3:2|0:0,0:0:0:0:
323,117,40836,2,0,P|280:102|249:71,1,90,2|0,1:2|0:0,0:0:0:0:
156,7,41177,1,2,3:2:0:0:
170,124,41347,1,0,3:2:0:0:
57,31,41518,1,2,1:2:0:0:
65,142,41688,1,0,3:2:0:0:
71,243,41859,6,0,L|204:262,1,135,2|0,3:2|0:0,0:0:0:0:
164,331,42200,2,0,P|209:338|253:329,1,90,2|0,1:2|0:0,0:0:0:0:
380,271,42540,1,2,3:2:0:0:
429,346,42711,1,0,3:2:0:0:
262,246,42881,1,2,1:2:0:0:
318,155,43052,1,0,0:0:0:0:
199,126,43222,6,0,P|132:135|64:141,1,135,2|0,3:2|0:0,0:0:0:0:
11,88,43563,2,0,P|38:53|80:39,1,90,2|2,1:2|0:0,0:0:0:0:
273,83,43904,1,2,3:2:0:0:
246,5,44075,1,0,3:2:0:0:
398,94,44245,1,2,1:2:0:0:
386,137,44330,1,8,0:3:0:0:
390,181,44415,1,4,3:3:0:0:
410,221,44501,1,4,0:3:0:0:
442,236,44586,5,4,3:2:0:0:
442,236,44927,1,2,3:2:0:0:
442,236,45268,1,2,3:2:0:0:
442,236,45609,1,2,3:2:0:0:
424,337,45779,1,0,1:0:0:0:
424,337,45864,1,0,1:0:0:0:
424,337,45950,5,2,3:2:0:0:
341,311,46120,1,0,1:0:0:0:
259,282,46290,1,2,3:2:0:0:
176,253,46461,1,2,0:0:0:0:
176,253,46631,1,2,3:2:0:0:
96,286,46802,1,0,0:0:0:0:
29,231,46972,1,2,3:2:0:0:
65,156,47143,1,0,0:0:0:0:
44,126,47228,1,0,0:0:0:0:
22,97,47313,5,2,3:2:0:0:
22,97,47654,1,2,3:2:0:0:
22,97,47995,1,2,3:2:0:0:
83,36,48165,1,0,0:0:0:0:
169,26,48336,1,2,3:2:0:0:
252,46,48506,1,0,0:0:0:0:
269,77,48592,1,0,0:0:0:0:
293,115,48677,5,4,1:2:0:0:
332,284,48847,1,0,1:0:0:0:
151,200,49018,1,2,3:2:0:0:
220,360,49188,5,4,1:2:0:0:
468,280,49359,1,2,3:2:0:0:
282,150,49529,1,0,1:0:0:0:
458,370,49700,5,2,3:2:0:0:
464,325,49785,1,0,1:0:0:0:
468,280,49870,1,0,1:0:0:0:
474,235,49955,1,0,1:0:0:0:
478,199,50040,6,0,P|480:127|481:55,1,144,6|0,3:2|3:2,0:0:0:0:
290,156,50552,1,0,0:0:0:0:
290,156,50637,1,0,0:0:0:0:
290,156,50722,2,0,P|312:184|343:200,1,72,0|0,1:2|0:0,0:0:0:0:
389,106,51063,1,0,3:2:0:0:
295,21,51234,1,0,1:2:0:0:
295,21,51319,1,0,1:2:0:0:
295,21,51404,5,0,3:2:0:0:
208,75,51575,2,0,P|173:70|138:61,1,72,0|0,1:2|3:2,0:0:0:0:
0,54,51915,2,0,P|26:30|63:17,1,72,0|0,0:0|1:2,0:0:0:0:
171,156,52256,1,0,1:2:0:0:
98,228,52427,1,0,3:2:0:0:
98,227,52597,2,0,P|102:245|105:263,1,36
87,337,52768,6,0,P|52:333|20:317,1,72,6|0,3:2|0:0,0:0:0:0:
102,139,53109,2,0,P|137:140|170:155,1,72,2|0,3:2|0:0,0:0:0:0:
358,295,53450,2,0,P|350:330|332:360,1,72,2|0,1:2|0:0,0:0:0:0:
102,139,53790,2,0,P|110:104|132:75,1,72,2|0,3:2|1:2,0:0:0:0:
193,22,54046,1,0,1:2:0:0:
192,22,54131,6,0,P|246:29|300:31,1,108,6|0,3:2|0:0,0:0:0:0:
277,104,54472,2,0,P|312:104|347:94,1,72,2|0,1:2|0:0,0:0:0:0:
490,15,54813,2,0,P|455:16|423:32,1,72,0|2,3:2|0:0,0:0:0:0:
409,172,55154,1,2,3:2:0:0:
420,205,55239,1,0,0:0:0:0:
426,240,55325,1,0,1:2:0:0:
422,275,55410,1,0,1:2:0:0:
394,321,55495,6,0,P|321:351|243:331,1,162,6|0,3:2|0:0,0:0:0:0:
196,272,55836,2,0,P|147:294|106:329,1,108,2|0,1:2|0:0,0:0:0:0:
19,164,56177,1,2,3:2:0:0:
10,273,56347,1,0,3:2:0:0:
162,184,56518,1,2,1:2:0:0:
141,76,56688,1,0,0:0:0:0:
242,20,56859,6,0,P|321:37|401:46,1,162,2|0,3:2|0:0,0:0:0:0:
456,104,57200,2,0,P|419:142|369:162,1,108,2|0,1:2|0:0,0:0:0:0:
207,201,57540,1,2,3:2:0:0:
374,290,57711,1,0,3:2:0:0:
204,312,57881,1,2,1:2:0:0:
362,168,58052,1,0,3:2:0:0:
201,122,58222,6,0,P|120:134|41:151,1,162,2|0,3:2|0:0,0:0:0:0:
13,226,58563,2,0,P|43:270|88:298,1,108,2|0,1:2|0:0,0:0:0:0:
252,246,58904,1,2,3:2:0:0:
251,377,59075,1,0,3:2:0:0:
384,373,59245,2,0,P|436:362|490:363,1,108,2|0,1:2|0:0,0:0:0:0:
512,277,59586,6,0,P|501:196|497:115,1,162,2|0,3:2|0:0,0:0:0:0:
508,42,59927,2,0,P|457:24|403:29,1,108,2|2,1:2|0:0,0:0:0:0:
277,131,60268,1,2,3:2:0:0:
328,234,60438,1,0,3:2:0:0:
422,163,60609,1,2,1:2:0:0:
373,56,60779,2,0,P|348:44|323:35,1,53.9999983520508,2|0,3:2|0:0,0:0:0:0:
230,19,60950,6,0,P|150:27|70:17,1,162,6|0,3:2|0:0,0:0:0:0:
36,9,61290,1,2,1:2:0:0:
90,160,61461,2,0,P|143:159|197:150,1,108,0|2,0:0|3:2,0:0:0:0:
0,209,61802,1,0,3:2:0:0:
104,274,61972,2,0,P|99:327|97:381,1,108,2|0,1:2|0:0,0:0:0:0:
368,323,62313,6,0,P|338:250|264:223,1,162,2|0,3:2|0:0,0:0:0:0:
239,240,62654,1,2,1:2:0:0:
452,373,62825,2,0,P|454:320|447:266,1,108,0|2,0:0|3:2,0:0:0:0:
388,89,63165,1,0,3:2:0:0:
467,123,63336,1,2,1:2:0:0:
393,174,63506,1,0,3:2:0:0:
81,218,63677,6,0,P|77:138|67:57,1,162,6|0,3:2|0:0,0:0:0:0:
51,41,64018,1,2,1:2:0:0:
180,2,64188,2,0,P|229:18|251:66,1,108,0|2,0:0|3:2,0:0:0:0:
183,195,64529,2,0,P|176:142|172:88,1,108,0|2,3:2|1:2,0:0:0:0:
393,174,64870,1,0,0:0:0:0:
276,217,65040,6,0,P|271:190|275:163,1,54,2|0,3:2|0:0,0:0:0:0:
358,62,65211,2,0,P|384:57|411:61,1,54,0|0,3:2|0:0,0:0:0:0:
506,150,65381,2,0,P|510:176|506:203,1,54,2|0,1:2|0:0,0:0:0:0:
438,311,65552,2,0,B|379:308|340:360|283:349,1,162,4|0,3:2|0:0,0:0:0:0:
260,339,65893,1,0,3:2:0:0:
93,366,66063,1,2,1:2:0:0:
33,259,66234,1,2,1:2:0:0:
33,259,66319,1,2,1:2:0:0:
32,258,66404,6,0,P|22:179|55:106,1,162,6|0,3:2|0:0,0:0:0:0:
1,45,66745,2,0,P|54:32|106:41,1,108,2|0,1:2|0:0,0:0:0:0:
232,148,67086,1,2,3:2:0:0:
122,176,67256,1,0,3:2:0:0:
224,16,67427,2,0,P|276:31|330:34,1,108,2|0,1:2|0:0,0:0:0:0:
484,9,67768,5,2,3:2:0:0:
378,97,67938,1,2,0:0:0:0:
512,139,68109,1,2,1:2:0:0:
415,216,68279,2,0,P|361:209|308:201,1,107.999996704102,2|2,3:2|3:2,3:2:0:0:
122,246,68620,1,2,3:2:0:0:
248,265,68790,1,2,1:2:0:0:
146,113,68961,1,0,3:2:0:0:
0,357,69131,6,0,P|80:358|161:365,1,162,2|0,3:2|0:0,0:0:0:0:
232,338,69472,2,0,P|219:285|192:239,1,108,2|0,1:2|0:0,0:0:0:0:
42,130,69813,1,2,3:2:0:0:
62,17,69984,1,0,3:2:0:0:
184,41,70154,2,0,P|237:43|301:31,1,108,2|0,1:2|0:0,0:0:0:0:
438,206,70495,6,0,P|362:192|330:121,1,162,2|0,3:2|0:0,0:0:0:0:
399,21,70836,2,0,P|407:75|409:129,1,108,2|2,1:2|0:0,0:0:0:0:
512,240,71177,1,2,3:2:0:0:
512,125,71347,1,0,3:2:0:0:
352,232,71518,1,2,1:2:0:0:
355,352,71688,1,0,3:2:0:0:
234,161,71859,6,0,P|155:177|74:186,1,162,6|0,3:2|0:0,0:0:0:0:
62,176,72200,1,2,1:2:0:0:
49,11,72370,2,0,P|101:16|128:61,1,108,0|2,0:0|3:2,0:0:0:0:
156,206,72711,1,0,3:2:0:0:
29,259,72881,2,0,P|35:313|30:367,1,108,2|0,1:2|0:0,0:0:0:0:
221,302,73222,5,2,3:2:0:0:
125,355,73393,1,0,0:0:0:0:
298,380,73563,1,2,1:2:0:0:
407,340,73734,2,0,P|459:352|513:361,1,108,2|2,0:0|3:2,0:0:0:0:
382,215,74075,1,0,3:2:0:0:
402,141,74245,1,2,1:2:0:0:
459,197,74415,1,0,3:2:0:0:
223,316,74586,6,0,P|142:317|61:308,1,162,6|0,3:2|0:0,0:0:0:0:
43,297,74927,1,2,1:2:0:0:
86,186,75097,2,0,P|81:132|68:79,1,108,2|2,0:0|3:2,0:0:0:0:
0,18,75438,1,0,3:2:0:0:
184,65,75609,2,0,P|235:79|289:79,1,108,2|2,1:2|0:0,0:0:0:0:
420,0,75950,5,2,3:2:0:0:
474,93,76120,1,0,1:2:0:0:
472,114,76205,1,0,1:2:0:0:
470,135,76290,1,2,1:2:0:0:
468,156,76376,1,0,1:2:0:0:
466,177,76461,1,0,1:2:0:0:
463,198,76546,1,0,1:2:0:0:
482,248,76631,5,8,0:3:0:0:
430,265,76717,1,8,0:3:0:0:
376,261,76802,1,8,0:3:0:0:
325,242,76887,1,8,0:3:0:0:
288,202,76972,1,4,0:3:0:0:
269,151,77057,1,4,0:3:0:0:
263,96,77143,1,4,0:3:0:0:
283,45,77228,1,4,0:3:0:0:
326,12,77313,5,6,3:2:0:0:
217,13,77484,1,2,0:2:0:0:
109,10,77654,1,2,0:2:0:0:
269,151,77825,1,0,1:2:0:0:
377,154,77995,1,0,0:0:0:0:
485,160,78165,1,2,0:2:0:0:
264,294,78336,1,0,3:2:0:0:
485,160,78506,1,2,0:2:0:0:
264,294,78677,5,2,0:2:0:0:
156,285,78847,1,0,1:2:0:0:
48,273,79018,1,2,0:2:0:0:
57,165,79188,1,2,0:2:0:0:
65,111,79273,1,2,0:2:0:0:
71,56,79359,5,2,1:2:0:0:
420,181,79614,1,2,1:2:0:0:
41,360,79870,1,2,1:2:0:0:
146,282,80040,5,0,3:2:0:0:
146,282,80126,1,0,1:2:0:0:
146,282,80211,1,2,1:2:0:0:
280,248,80381,2,0,L|268:355,1,108,2|0,1:2|0:0,0:0:0:0:
30,179,80722,1,2,1:2:0:0:
181,132,80893,2,0,L|196:25,1,108,2|0,1:2|1:0,0:0:0:0:
196,25,81148,1,0,1:0:0:0:
196,25,81234,1,2,1:2:0:0:
492,105,81404,6,0,L|477:211,1,108,2|0,1:2|1:0,0:0:0:0:
477,211,81660,1,0,1:0:0:0:
477,211,81745,1,2,1:2:0:0:
181,217,81915,1,0,1:0:0:0:
181,217,82001,1,0,1:0:0:0:
181,217,82086,1,6,1:2:0:0:
196,329,82256,5,0,1:0:0:0:
249,340,82342,1,0,1:0:0:0:
302,346,82427,1,2,1:2:0:0:
355,353,82512,1,0,1:0:0:0:
408,362,82597,1,2,1:2:0:0:
455,372,82682,1,2,1:2:0:0:
505,381,82768,6,0,P|499:341|497:301,1,81.0000000000001,6|0,3:2|0:0,0:0:0:0:
399,250,83109,1,2,3:2:0:0:
399,250,83279,1,2,0:0:0:0:
482,194,83450,2,0,P|491:116|445:51,1,162,2|2,3:2|3:2,0:0:0:0:
445,51,83961,1,2,0:0:0:0:
321,123,84131,2,0,P|361:128|401:133,2,81.0000000000001,2|0|2,3:2|0:0|3:2,0:0:0:0:
264,32,84643,1,2,0:0:0:0:
264,32,84813,2,0,L|183:20,1,81.0000000000001,2|2,3:2|0:0,0:0:0:0:
40,82,85154,2,0,P|79:91|120:97,1,81.0000000000001,2|2,3:2|0:0,0:0:0:0:
211,177,85495,5,2,3:2:0:0:
211,177,85836,1,2,3:2:0:0:
127,184,86006,1,2,0:0:0:0:
127,262,86177,2,0,P|148:296|166:333,1,81.0000000000001,2|2,3:2|0:0,0:0:0:0:
240,368,86518,2,0,P|300:356|359:340,1,121.5,2|2,3:2|0:0,0:0:0:0:
399,356,86859,5,2,3:2:0:0:
471,266,87029,1,2,0:0:0:0:
421,157,87200,1,2,3:2:0:0:
302,155,87370,2,0,P|225:176|144:181,1,162,2|2,0:0|0:0,0:0:0:0:
65,306,87881,2,0,P|53:268|47:228,1,81.0000000000001,2|2,3:2|0:0,0:0:0:0:
14,70,88222,6,0,P|74:75|134:67,1,121.5,2|0,3:2|0:0,0:0:0:0:
168,35,88563,1,2,3:2:0:0:
244,17,88734,1,2,0:0:0:0:
313,65,88904,2,0,P|394:68|475:63,1,162,2|2,3:2|3:2,0:0:0:0:
326,165,89415,6,0,P|286:163|246:168,2,81.0000000000001,2|2|0,0:0|3:2|0:0,0:0:0:0:
327,165,89927,1,2,3:2:0:0:
454,249,90097,2,0,P|449:209|441:170,1,81.0000000000001,2|2,0:0|3:2,0:0:0:0:
454,250,90438,1,2,0:0:0:0:
318,365,90609,2,0,P|309:326|306:286,1,81.0000000000001,2|2,3:2|0:0,0:0:0:0:
162,229,90950,5,2,3:2:0:0:
162,229,91120,1,0,0:0:0:0:
88,314,91290,2,0,P|48:310|8:304,1,81.0000000000001,2|2,3:2|0:0,0:0:0:0:
0,192,91631,1,2,3:2:0:0:
0,192,91802,1,2,0:0:0:0:
111,116,91972,1,2,3:2:0:0:
111,116,92143,1,2,0:0:0:0:
13,14,92313,6,0,B|117:43|87:22|172:37,1,162,2|2,3:2|3:2,0:0:0:0:
237,122,92825,1,2,0:0:0:0:
316,63,92995,2,0,L|311:22,3,40.5,2|8|8|8,1:2|0:3|0:3|0:3,0:0:0:0:
337,159,93336,5,8,3:3:0:0:
342,180,93421,1,0,0:0:0:0:
343,202,93506,1,0,1:2:0:0:
341,224,93592,1,0,1:2:0:0:
325,241,93677,6,0,P|259:233|196:208,1,135,6|0,1:2|0:0,0:0:0:0:
143,156,94018,2,0,P|99:147|55:156,1,90,2|2,1:2|0:0,0:0:0:0:
34,343,94359,1,2,3:2:0:0:
109,260,94529,1,0,3:2:0:0:
274,298,94700,1,2,1:2:0:0:
221,384,94870,1,2,0:0:0:0:
358,351,95040,6,0,P|424:362|491:370,1,135,2|0,3:2|0:0,0:0:0:0:
494,296,95381,2,0,P|462:266|457:222,1,90,2|0,1:2|0:0,0:0:0:0:
490,75,95722,5,2,3:2:0:0:
389,169,95893,1,0,3:2:0:0:
512,162,96063,1,2,1:2:0:0:
384,82,96234,1,0,3:2:0:0:
303,88,96404,6,0,P|236:96|174:72,1,135,2|0,3:2|0:0,0:0:0:0:
117,23,96745,2,0,P|72:20|27:24,1,90,2|0,1:2|0:0,0:0:0:0:
0,128,97086,1,2,3:2:0:0:
119,130,97256,1,0,3:2:0:0:
0,222,97427,1,2,1:2:0:0:
127,222,97597,1,2,0:0:0:0:
216,222,97768,6,0,P|283:217|350:216,1,135,2|0,3:2|0:0,0:0:0:0:
315,142,98109,2,0,P|359:137|404:144,1,90,2|2,1:2|0:0,0:0:0:0:
483,216,98450,1,2,3:2:0:0:
493,326,98620,1,0,3:2:0:0:
364,369,98790,1,2,1:2:0:0:
275,300,98961,1,0,3:2:0:0:
182,359,99131,6,0,P|114:351|48:340,1,135,6|0,3:2|0:0,0:0:0:0:
9,263,99472,2,0,P|54:260|99:265,1,90,2|2,1:2|0:0,0:0:0:0:
107,172,99813,1,2,3:2:0:0:
154,87,99984,1,0,3:2:0:0:
283,116,100154,1,2,1:2:0:0:
340,20,100325,1,0,0:0:0:0:
489,154,100495,6,0,P|483:86|468:20,1,135,2|0,3:2|0:0,0:0:0:0:
403,80,100836,2,0,P|399:124|397:169,1,90,2|0,1:2|0:0,0:0:0:0:
467,286,101177,1,2,3:2:0:0:
372,265,101347,1,0,3:2:0:0:
241,349,101518,1,2,1:2:0:0:
335,347,101688,1,0,3:2:0:0:
244,260,101859,6,0,P|179:263|152:322,1,135,6|0,3:2|0:0,0:0:0:0:
96,366,102200,2,0,P|53:368|19:339,1,90,2|2,1:2|0:0,0:0:0:0:
24,248,102540,1,2,3:2:0:0:
1,162,102711,1,0,3:2:0:0:
65,5,102881,1,2,1:2:0:0:
84,95,103052,1,2,0:0:0:0:
174,157,103222,6,0,P|241:147|307:131,1,135,2|0,3:2|0:0,0:0:0:0:
247,72,103563,2,0,P|289:57|333:54,1,90,2|0,1:2|1:2,0:0:0:0:
353,63,103819,1,0,1:2:0:0:
365,77,103904,1,2,3:2:0:0:
392,180,104075,5,0,3:2:0:0:
358,226,104160,1,0,0:0:0:0:
307,232,104245,1,2,1:2:0:0:
271,235,104330,1,8,0:3:0:0:
235,240,104415,1,4,3:3:0:0:
198,243,104501,1,4,0:3:0:0:
176,246,104586,5,4,0:0:0:0:
124,315,105268,1,2,0:0:0:0:
193,366,105950,1,2,0:0:0:0:
276,362,106290,5,2,0:0:0:0:
358,352,106461,1,2,0:0:0:0:
428,292,106631,1,2,0:0:0:0:
428,292,106802,1,2,0:0:0:0:
346,262,106972,1,2,0:0:0:0:
369,178,107143,1,2,0:0:0:0:
452,198,107313,5,2,0:0:0:0:
481,116,107995,1,2,0:0:0:0:
468,34,108677,1,2,0:0:0:0:
387,65,109018,5,2,0:0:0:0:
301,51,109188,1,2,0:0:0:0:
219,77,109359,1,2,0:0:0:0:
134,56,109529,1,2,0:0:0:0:
54,90,109700,2,0,P|34:55|35:15,1,80.9999999999998,2|0,0:0|0:0,0:0:0:0:
34,15,110040,6,0,L|69:25,1,36,4|0,3:2|0:0,0:0:0:0:
219,77,110211,2,0,L|187:93,1,36,0|0,3:2|0:0,0:0:0:0:
88,195,110381,1,2,0:2:0:0:
88,195,110722,6,0,L|81:159,1,36,0|0,1:2|0:0,0:0:0:0:
126,299,110893,2,0,L|119:333,1,36,0|0,3:2|0:0,0:0:0:0:
247,263,111063,1,2,0:2:0:0:
343,346,111234,5,0,3:2:0:0:
343,346,111319,1,0,3:2:0:0:
343,346,111404,2,0,L|378:353,1,36,0|0,3:2|0:0,0:0:0:0:
489,297,111575,2,0,L|454:287,1,36,0|0,3:2|0:0,0:0:0:0:
358,210,111745,1,2,0:0:0:0:
358,210,112086,6,0,L|363:174,1,36,0|0,1:2|0:0,0:0:0:0:
423,30,112256,2,0,L|431:64,1,36,0|0,3:2|0:0,0:0:0:0:
512,139,112427,2,0,L|445:167,1,72,2|0,0:2|0:0,0:0:0:0:
166,232,112768,6,0,P|99:232|50:188,1,135,6|0,3:2|0:0,0:0:0:0:
16,129,113109,2,0,P|35:88|46:45,1,90,2|0,3:2|1:2,0:0:0:0:
77,26,113364,1,0,1:2:0:0:
113,22,113450,1,2,1:2:0:0:
281,127,113620,1,0,3:2:0:0:
347,3,113790,2,0,P|390:15|434:20,1,90,2|0,3:2|1:2,0:0:0:0:
512,104,114131,5,6,3:2:0:0:
353,132,114302,1,0,1:2:0:0:
317,129,114387,1,0,1:2:0:0:
281,127,114472,1,2,1:2:0:0:
448,215,114643,1,0,1:2:0:0:
311,282,114813,1,0,3:2:0:0:
275,279,114898,1,0,1:2:0:0:
239,277,114984,1,0,1:2:0:0:
417,374,115154,1,2,3:2:0:0:
209,365,115325,1,0,1:2:0:0:
173,360,115410,1,0,1:2:0:0:
130,352,115495,6,0,P|123:271|125:190,1,162,6|0,3:2|0:0,0:0:0:0:
42,206,115836,2,0,P|54:153|88:112,1,108,2|2,1:2|0:0,0:0:0:0:
283,52,116177,1,2,3:2:0:0:
154,10,116347,1,0,3:2:0:0:
238,166,116518,2,0,P|290:181|334:212,1,108,2|2,1:2|0:0,0:0:0:0:
498,360,116859,6,0,P|421:348|396:275,1,162,2|0,3:2|0:0,0:0:0:0:
469,255,117200,2,0,P|479:202|489:149,1,108,2|2,1:2|0:0,0:0:0:0:
438,10,117540,1,2,3:2:0:0:
394,109,117711,1,0,3:2:0:0:
222,111,117881,1,2,1:2:0:0:
250,2,118052,1,0,3:2:0:0:
144,9,118222,6,0,P|69:39|12:96,1,162,2|0,3:2|0:0,0:0:0:0:
64,142,118563,2,0,P|75:195|80:249,1,108,2|2,1:2|0:0,0:0:0:0:
101,384,118904,1,2,3:2:0:0:
1,353,119075,1,0,3:2:0:0:
192,356,119245,2,0,P|200:302|201:248,1,108,2|2,1:2|0:0,0:0:0:0:
217,128,119586,6,0,P|250:57|326:37,1,162,2|0,3:2|0:0,0:0:0:0:
394,81,119927,2,0,P|442:58|486:27,1,108,2|2,1:2|0:0,0:0:0:0:
314,165,120268,1,2,3:2:0:0:
210,208,120438,1,0,3:2:0:0:
419,283,120609,1,2,1:2:0:0:
451,284,120694,1,2,0:0:0:0:
481,294,120779,1,2,3:2:0:0:
499,320,120864,1,2,0:0:0:0:
494,358,120950,6,0,P|413:360|333:363,1,162,4|0,3:2|0:0,0:0:0:0:
304,373,121290,1,2,1:2:0:0:
211,322,121461,2,0,P|157:320|103:327,1,108,2|2,0:0|3:2,0:0:0:0:
0,382,121802,1,0,3:2:0:0:
23,280,121972,2,0,P|26:226|30:172,1,108,2|0,1:2|0:0,0:0:0:0:
27,26,122313,6,0,P|105:46|185:59,1,162,2|0,3:2|0:0,0:0:0:0:
224,55,122654,1,2,1:2:0:0:
330,11,122825,2,0,P|382:21|409:66,1,108,2|2,0:0|3:2,0:0:0:0:
315,163,123165,1,0,3:2:0:0:
234,131,123336,1,2,1:2:0:0:
299,86,123506,1,0,3:2:0:0:
446,313,123677,6,0,P|457:232|485:157,1,162,6|0,3:2|0:0,0:0:0:0:
510,131,124018,1,2,1:2:0:0:
491,0,124188,2,0,P|438:13|385:22,1,108,2|2,0:0|3:2,0:0:0:0:
186,75,124529,2,0,P|237:91|290:100,1,108,0|2,3:2|1:2,0:0:0:0:
290,100,124870,1,0,0:0:0:0:
192,182,125040,6,0,P|165:175|144:153,1,54,2|0,3:2|0:0,0:0:0:0:
39,97,125211,2,0,P|66:92|93:96,1,54,0|0,3:2|0:0,0:0:0:0:
151,22,125381,2,0,P|167:42|175:68,1,54,2|0,1:2|0:0,0:0:0:0:
65,195,125552,2,0,P|54:275|48:356,1,162,4|0,3:2|0:0,0:0:0:0:
33,380,125893,1,0,3:2:0:0:
134,325,126063,1,2,1:2:0:0:
245,357,126234,1,2,1:2:0:0:
245,357,126319,1,2,1:2:0:0:
245,357,126404,6,0,B|305:384|350:336|404:349,1,162,6|0,3:2|0:0,0:0:0:0:
472,373,126745,2,0,P|491:322|495:268,1,108,2|2,1:2|0:0,0:0:0:0:
405,200,127086,1,2,3:2:0:0:
479,139,127256,1,0,3:2:0:0:
305,196,127427,2,0,P|252:186|200:174,1,108,2|0,1:2|0:0,0:0:0:0:
53,1,127768,5,2,3:2:0:0:
138,46,127938,1,2,0:0:0:0:
229,3,128109,1,2,1:2:0:0:
325,91,128279,2,0,P|324:144|305:195,1,108,2|2,0:0|3:2,0:0:0:0:
149,271,128620,1,0,3:2:0:0:
43,170,128790,1,2,1:2:0:0:
0,305,128961,1,0,3:2:0:0:
105,381,129131,6,0,P|184:368|264:355,1,162,2|0,3:2|0:0,0:0:0:0:
291,288,129472,2,0,P|345:295|393:320,1,108,2|2,1:2|0:0,0:0:0:0:
512,227,129813,1,2,3:2:0:0:
418,223,129984,2,0,P|414:169|426:117,1,108,0|2,3:2|1:2,0:0:0:0:
426,117,130325,1,2,0:0:0:0:
269,0,130495,5,0,3:2:0:0:
392,21,130665,1,2,0:0:0:0:
195,68,130836,1,2,1:2:0:0:
318,195,131006,2,0,P|332:143|319:91,1,108,2|2,0:0|3:2,0:0:0:0:
107,156,131347,1,0,3:2:0:0:
237,162,131518,1,2,1:2:0:0:
106,171,131688,1,0,3:2:0:0:
4,89,131859,6,0,P|18:168|27:249,1,162,6|0,3:2|0:0,0:0:0:0:
23,271,132200,1,2,1:2:0:0:
146,373,132370,2,0,P|150:320|121:275,1,108,2|2,0:0|3:2,0:0:0:0:
92,165,132711,1,0,3:2:0:0:
208,59,132881,2,0,P|259:76|310:92,1,108,2|0,1:2|0:0,0:0:0:0:
437,184,133222,5,2,3:2:0:0:
413,50,133393,1,0,0:0:0:0:
446,200,133563,1,2,1:2:0:0:
476,337,133734,2,0,P|422:330|369:321,1,108,2|2,0:0|3:2,0:0:0:0:
208,307,134075,1,0,3:2:0:0:
286,384,134245,1,2,1:2:0:0:
286,234,134415,1,0,3:2:0:0:
24,369,134586,6,0,P|29:289|43:209,1,162,6|0,3:2|0:0,0:0:0:0:
57,193,134927,1,2,1:2:0:0:
139,105,135097,6,0,P|132:51|118:-4,1,108,2|2,0:0|3:2,0:0:0:0:
396,80,135438,2,0,P|382:133|374:186,1,108,0|2,3:2|1:2,0:0:0:0:
138,254,135779,1,2,0:0:0:0:
340,342,135950,1,2,3:2:0:0:
340,342,136120,5,0,1:2:0:0:
329,301,136205,1,0,1:2:0:0:
315,260,136290,1,2,1:2:0:0:
305,218,136376,1,0,1:2:0:0:
295,176,136461,1,0,1:2:0:0:
287,135,136546,1,0,1:2:0:0:
282,111,136631,5,8,0:3:0:0:
307,160,136717,1,8,0:3:0:0:
350,195,136802,1,8,0:3:0:0:
404,203,136887,1,8,0:3:0:0:
456,192,136972,1,4,0:3:0:0:
494,155,137057,1,4,0:3:0:0:
510,103,137143,1,4,0:3:0:0:
512,49,137228,1,4,0:3:0:0:
478,7,137313,6,0,B|270:7|134:78|24:35|24:35|47:91|63:130|63:130|160:159|372:71|460:89|460:89|456:150|442:196|442:196|352:182|182:252|45:228|45:228|46:264|70:329|70:329|120:318|167:328,1,1674,6|0,3:2|0:0,0:0:0:0:
167,328,140040,6,0,B|225:356|349:302|441:323|441:323|452:269|450:206|450:206|364:240|250:184|171:214,1,675,2|0,0:2|0:0,0:0:0:0:
172,214,141404,6,0,B|107:240|29:207|29:207|46:161|55:107|55:107|130:123|276:68|343:111,1,540,2|0,0:2|0:0,0:0:0:0:
340,109,142768,5,2,0:2:0:0:
21,25,148222,5,2,3:2:0:0:
92,29,148563,1,2,3:2:0:0:
163,34,148904,1,2,3:2:0:0:
234,40,149245,1,2,3:2:0:0:
312,50,149415,1,8,0:0:0:0:
312,50,149501,1,8,0:0:0:0:
312,50,149586,5,10,3:2:0:0:
352,109,149756,1,8,0:0:0:0:
295,154,149927,1,10,3:2:0:0:
223,148,150268,1,2,3:2:0:0:
151,138,150609,1,2,3:2:0:0:
83,130,150779,1,8,0:0:0:0:
83,130,150864,1,8,0:0:0:0:
83,130,150950,5,10,3:2:0:0:
26,183,151120,1,8,0:0:0:0:
75,240,151290,1,10,3:2:0:0:
146,251,151631,1,2,3:2:0:0:
216,265,151972,1,2,3:2:0:0:
295,281,152143,1,8,0:0:0:0:
295,281,152228,1,8,0:0:0:0:
295,281,152313,5,10,3:2:0:0:
329,343,152484,1,8,0:0:0:0:
268,382,152654,1,10,3:2:0:0:
268,382,152995,1,10,3:2:0:0:
329,343,153165,1,8,0:0:0:0:
329,343,153251,1,8,0:0:0:0:
329,343,153336,1,10,3:2:0:0:
400,382,153506,1,8,0:0:0:0:
400,382,153592,1,8,0:0:0:0:
400,382,153677,5,2,3:2:0:0:
438,321,153847,1,0,0:0:0:0:
374,287,154018,1,2,3:2:0:0:
427,239,154359,1,2,3:2:0:0:
361,208,154700,1,2,3:2:0:0:
430,168,154870,1,8,0:0:0:0:
430,168,154955,1,8,0:0:0:0:
430,168,155040,5,10,3:2:0:0:
359,131,155211,1,8,0:0:0:0:
417,94,155381,1,10,3:2:0:0:
357,53,155722,1,2,3:2:0:0:
296,91,156063,1,2,3:2:0:0:
233,53,156234,1,8,0:0:0:0:
233,53,156319,1,8,0:0:0:0:
233,53,156404,5,10,3:2:0:0:
189,111,156575,1,8,0:0:0:0:
131,67,156745,1,10,3:2:0:0:
100,139,156915,1,8,0:0:0:0:
100,139,157001,1,8,0:0:0:0:
100,139,157086,1,10,3:2:0:0:
49,75,157256,1,0,0:0:0:0:
12,146,157427,1,8,3:2:0:0:
68,211,157597,1,8,0:0:0:0:
68,211,157682,1,8,0:0:0:0:
68,211,157768,5,0,1:2:0:0:
136,347,157938,1,10,3:2:0:0:
237,282,158109,2,0,L|305:303,1,72,10|8,3:2|0:0,0:0:0:0:
329,330,158364,1,8,0:0:0:0:
320,365,158450,1,0,1:2:0:0:
453,340,158620,1,8,0:0:0:0:
386,265,158790,2,0,L|394:227,1,36,12|0,1:2|0:0,0:0:0:0:
504,202,158961,2,0,L|485:171,1,36,8|8,0:0|0:0,0:0:0:0:
409,54,159131,6,0,P|405:94|404:135,1,81.0000000000001,6|0,3:2|0:0,0:0:0:0:
250,44,159472,2,0,P|246:84|245:125,1,81.0000000000001,2|0,3:2|0:0,0:0:0:0:
121,54,159813,2,0,L|127:14,3,40.5,2|2|2|2,3:2|0:0|0:0|0:0,0:0:0:0:
114,90,160154,1,2,3:2:0:0:
109,105,160239,1,2,0:0:0:0:
103,120,160325,1,8,0:0:0:0:
100,135,160410,1,8,0:0:0:0:
96,150,160495,5,10,3:2:0:0:
0,184,160665,1,8,0:0:0:0:
88,256,160836,2,0,P|128:262|168:264,1,81.0000000000001,2|0,3:2|0:0,0:0:0:0:
267,331,161177,2,0,P|265:351|264:371,3,40.5,2|2|2|2,3:2|0:0|0:0|0:0,0:0:0:0:
269,306,161518,1,2,3:2:0:0:
269,289,161603,1,2,0:0:0:0:
270,272,161688,1,8,0:0:0:0:
270,255,161773,1,8,0:0:0:0:
271,238,161859,6,0,B|351:246,1,81.0000000000001,2|8,3:2|0:0,0:0:0:0:
484,141,162200,2,0,B|403:131,1,81.0000000000001,2|0,3:2|0:0,0:0:0:0:
167,15,162540,2,0,L|287:30,1,121.5,2|0,3:2|0:0,0:0:0:0:
286,46,162881,1,2,3:2:0:0:
286,62,162967,1,2,0:0:0:0:
286,78,163052,1,8,0:0:0:0:
286,94,163137,1,8,0:0:0:0:
284,110,163222,5,10,3:2:0:0:
175,186,163393,1,8,0:0:0:0:
93,93,163563,2,0,B|12:84,1,81.0000000000001,2|0,3:2|0:0,0:0:0:0:
12,84,163904,2,0,P|29:142|36:202,1,121.5,2|0,3:2|0:0,0:0:0:0:
38,218,164245,1,2,3:2:0:0:
39,234,164330,1,2,0:0:0:0:
37,250,164415,1,4,3:3:0:0:
35,266,164501,1,4,3:3:0:0:
28,281,164586,6,0,P|69:283|103:304,1,81.0000000000001,6|0,3:2|0:0,0:0:0:0:
245,336,164927,2,0,P|214:361|174:369,1,81.0000000000001,2|0,3:2|0:0,0:0:0:0:
171,239,165268,2,0,L|168:198,3,40.5,2|2|2|2,3:2|0:0|0:0|0:0,0:0:0:0:
203,243,165609,1,2,3:2:0:0:
219,242,165694,1,2,0:0:0:0:
235,244,165779,1,8,0:0:0:0:
251,245,165864,1,8,0:0:0:0:
266,247,165950,5,10,3:2:0:0:
328,174,166120,1,8,0:0:0:0:
387,252,166290,2,0,B|395:332,1,81.0000000000001,2|0,3:2|0:0,0:0:0:0:
483,185,166631,2,0,L|481:144,3,40.5,2|2|2|2,3:2|0:0|0:0|0:0,0:0:0:0:
487,217,166972,1,2,3:2:0:0:
487,233,167057,1,2,0:0:0:0:
488,249,167143,1,8,0:0:0:0:
490,265,167228,1,8,0:0:0:0:
490,281,167313,6,0,B|409:285,1,81.0000000000001,2|8,3:2|0:0,0:0:0:0:
303,353,167654,2,0,B|222:344,1,81.0000000000001,2|0,3:2|0:0,0:0:0:0:
146,259,167995,2,0,L|26:279,1,121.5,2|0,3:2|0:0,0:0:0:0:
23,263,168336,1,2,3:2:0:0:
23,246,168421,1,2,0:0:0:0:
30,231,168506,1,8,0:0:0:0:
39,217,168592,1,8,0:0:0:0:
53,209,168677,5,10,3:2:0:0:
201,179,168847,1,8,0:0:0:0:
91,104,169018,2,0,P|79:66|60:30,1,81.0000000000001,2|0,3:2|3:2,0:0:0:0:
44,33,169273,1,0,3:2:0:0:
30,42,169359,1,2,3:2:0:0:
197,90,169529,1,12,0:0:0:0:
270,33,169700,6,0,P|283:32|296:33,1,27,2|4,3:2|3:3,0:0:0:0:
318,40,170040,5,6,1:2:0:0:
484,203,170211,1,0,0:0:0:0:
497,7,170381,1,2,3:2:0:0:
315,199,170552,2,0,P|336:263|335:331,1,135,2|0,1:2|0:0,0:0:0:0:
331,348,170893,1,2,0:0:0:0:
103,360,171063,1,6,1:2:0:0:
220,259,171234,1,2,0:0:0:0:
1,195,171404,5,2,3:2:0:0:
100,270,171575,2,0,P|116:204|113:137,1,135,6|0,1:2|0:0,0:0:0:0:
107,121,171915,1,0,1:2:0:0:
0,0,172086,1,6,3:2:0:0:
195,16,172256,1,0,1:2:0:0:
0,158,172427,1,6,3:2:0:0:
265,289,172597,1,0,1:2:0:0:
265,289,172682,1,0,1:2:0:0:
265,289,172768,6,0,P|352:279|439:282,1,175.5,6|0,3:2|0:0,0:0:0:0:
457,290,173109,1,2,1:2:0:0:
363,384,173279,1,2,0:0:0:0:
512,182,173450,2,0,P|429:158|377:89,1,175.5,2|0,3:2|0:0,0:0:0:0:
386,60,173790,1,2,1:2:0:0:
512,7,173961,1,2,0:0:0:0:
318,181,174131,6,0,P|230:172|147:144,1,175.5,2|0,3:2|0:0,0:0:0:0:
136,123,174472,1,2,1:2:0:0:
199,0,174643,1,2,0:0:0:0:
259,92,174813,1,2,3:2:0:0:
92,26,174984,1,0,3:2:0:0:
85,265,175154,1,2,1:2:0:0:
91,293,175239,1,2,0:0:0:0:
98,321,175325,1,2,3:2:0:0:
109,347,175410,1,2,0:0:0:0:
131,363,175495,6,0,P|217:364|281:307,1,175.5,2|0,3:2|0:0,0:0:0:0:
274,283,175836,1,2,1:2:0:0:
375,368,176006,1,2,0:0:0:0:
176,253,176177,2,0,P|175:166|214:88,1,175.5,2|0,3:2|0:0,0:0:0:0:
243,77,176518,1,2,1:2:0:0:
94,43,176688,1,0,0:0:0:0:
290,182,176859,6,0,P|378:184|462:160,1,175.5,2|0,3:2|0:0,0:0:0:0:
475,134,177200,1,2,1:2:0:0:
363,0,177370,1,2,0:0:0:0:
374,96,177540,1,2,3:2:0:0:
464,31,177711,1,0,3:2:0:0:
277,50,177881,1,2,1:2:0:0:
247,46,177967,1,2,0:0:0:0:
217,41,178052,1,2,3:2:0:0:
188,37,178137,1,2,0:0:0:0:
159,30,178222,6,0,P|167:118|171:205,1,175.5,6|0,3:2|0:0,0:0:0:0:
163,234,178563,1,2,1:2:0:0:
47,178,178734,2,0,P|36:120|29:62,1,117,2|2,0:0|3:2,0:0:0:0:
80,272,179075,1,0,3:2:0:0:
25,359,179245,1,2,1:2:0:0:
212,331,179415,1,2,0:0:0:0:
212,331,179501,1,2,0:0:0:0:
211,331,179586,6,0,P|299:339|385:356,1,175.5,2|0,3:2|0:0,0:0:0:0:
403,371,179927,1,2,1:2:0:0:
485,247,180097,2,0,P|496:305|507:363,1,117,2|2,0:0|3:2,0:0:0:0:
358,267,180438,1,0,3:2:0:0:
415,187,180609,1,2,1:2:0:0:
247,238,180779,2,0,L|294:203,1,58.4999973220826,0|0,3:2|0:0,0:0:0:0:
496,62,180950,6,0,P|405:41|316:7,1,189,6|0,3:2|0:0,0:0:0:0:
305,23,181290,1,2,1:2:0:0:
142,22,181461,2,0,P|202:37|236:88,1,126,2|2,0:0|3:2,0:0:0:0:
130,242,181802,2,0,P|137:179|149:118,1,126,0|2,3:2|1:2,0:0:0:0:
149,118,182143,1,2,0:0:0:0:
5,7,182313,5,2,3:2:0:0:
9,213,182484,1,0,1:2:0:0:
13,244,182569,1,0,1:2:0:0:
15,275,182654,1,2,1:2:0:0:
325,365,182825,2,0,P|308:274|246:204,1,189,4|0,3:2|0:0,0:0:0:0:
228,195,183165,1,0,3:2:0:0:
187,316,183336,1,2,1:2:0:0:
301,105,183506,1,2,1:2:0:0:
301,105,183592,1,2,1:2:0:0:
301,105,183677,6,0,P|388:114|471:86,1,175.5,6|0,3:2|0:0,0:0:0:0:
484,72,184018,1,2,1:2:0:0:
365,12,184188,1,2,0:0:0:0:
400,231,184359,1,2,3:2:0:0:
512,173,184529,1,0,3:2:0:0:
395,355,184700,1,2,1:2:0:0:
290,304,184870,1,0,0:0:0:0:
134,196,185040,6,0,P|165:279|186:364,1,175.5,2|0,3:2|0:0,0:0:0:0:
169,369,185381,1,2,1:2:0:0:
0,331,185552,1,2,0:0:0:0:
86,291,185722,1,2,3:2:0:0:
74,384,185893,1,0,3:2:0:0:
19,230,186063,1,2,1:2:0:0:
21,200,186148,1,2,0:0:0:0:
24,170,186234,1,2,3:2:0:0:
28,141,186319,1,2,0:0:0:0:
30,111,186404,6,0,P|68:36|152:32,1,175.5,2|0,3:2|0:0,0:0:0:0:
173,53,186745,1,2,1:2:0:0:
125,150,186915,1,2,0:0:0:0:
249,277,187086,2,0,P|333:252|417:227,1,175.5,2|0,3:2|0:0,0:0:0:0:
433,213,187427,1,2,1:2:0:0:
462,0,187597,1,0,0:0:0:0:
512,94,187768,6,0,P|425:82|341:60,1,175.5,2|0,3:2|0:0,0:0:0:0:
335,31,188109,1,2,1:2:0:0:
261,106,188279,1,2,0:0:0:0:
172,15,188450,1,2,3:2:0:0:
118,131,188620,1,0,3:2:0:0:
6,71,188790,1,2,1:2:0:0:
10,99,188876,1,2,0:0:0:0:
11,128,188961,1,2,3:2:0:0:
11,157,189046,1,2,0:0:0:0:
9,185,189131,6,0,P|51:262|62:349,1,175.5,6|0,3:2|0:0,0:0:0:0:
38,359,189472,1,2,1:2:0:0:
135,210,189643,2,0,P|191:193|247:179,1,117,2|2,0:0|3:2,0:0:0:0:
458,354,189984,1,0,3:2:0:0:
207,359,190154,1,2,1:2:0:0:
369,273,190325,1,2,0:0:0:0:
375,244,190410,1,0,0:0:0:0:
383,216,190495,1,2,3:2:0:0:
512,194,190665,5,2,0:0:0:0:
299,115,190836,1,2,1:2:0:0:
435,0,191006,2,0,P|436:58|427:116,1,117,2|2,0:0|3:2,0:0:0:0:
287,340,191347,1,0,3:2:0:0:
128,101,191518,1,2,1:2:0:0:
30,194,191688,1,2,3:2:0:0:
30,194,191773,1,2,0:0:0:0:
29,194,191859,6,0,P|123:187|210:221,1,189,6|0,3:2|0:0,0:0:0:0:
202,242,192200,1,2,1:2:0:0:
111,382,192370,2,0,P|82:327|102:269,1,126,2|2,0:0|3:2,0:0:0:0:
389,70,192711,2,0,P|431:114|433:176,1,126,0|2,3:2|1:2,0:0:0:0:
247,384,193052,1,2,0:0:0:0:
389,329,193222,5,2,3:2:0:0:
485,374,193393,1,0,1:2:0:0:
485,374,193478,1,0,1:2:0:0:
485,374,193563,1,2,1:2:0:0:
500,233,193734,1,0,1:2:0:0:
502,201,193819,1,0,1:2:0:0:
502,169,193904,1,8,0:3:0:0:
506,137,193989,1,8,0:3:0:0:
507,105,194075,1,8,0:3:0:0:
370,0,194245,1,4,0:3:0:0:
201,12,194415,1,4,0:3:0:0:
201,12,194501,1,4,0:3:0:0:
201,12,194586,6,0,P|110:29|17:30,1,175.5,6|0,3:2|0:0,0:0:0:0:
6,98,194927,2,0,P|63:112|107:150,1,116.999994644165,2|0,1:2|0:0,0:0:0:0:
151,325,195268,1,2,3:2:0:0:
58,262,195438,1,0,3:2:0:0:
223,149,195609,1,2,1:2:0:0:
312,229,195779,1,0,0:0:0:0:
239,375,195950,6,0,P|152:360|64:355,1,175.5,2|0,3:2|0:0,0:0:0:0:
0,312,196290,2,0,P|13:254|15:196,1,117,2|0,1:2|0:0,0:0:0:0:
7,41,196631,1,2,3:2:0:0:
85,65,196802,1,0,3:2:0:0:
166,59,196972,1,2,1:2:0:0:
239,24,197143,1,0,3:2:0:0:
166,59,197313,5,2,3:2:0:0:
243,131,197484,1,0,0:0:0:0:
345,108,197654,1,2,1:2:0:0:
390,12,197825,1,0,0:0:0:0:
345,108,197995,5,2,3:2:0:0:
438,195,198165,1,0,3:2:0:0:
376,308,198336,1,2,1:2:0:0:
248,297,198506,1,0,0:0:0:0:
376,308,198677,5,2,3:2:0:0:
255,378,198847,1,0,0:0:0:0:
119,341,199018,1,2,1:2:0:0:
10,252,199188,2,0,L|25:136,1,116.999994644165
50,0,199529,1,0,3:2:0:0:
234,58,199700,1,2,1:2:0:0:
123,107,199870,1,0,3:2:0:0:
284,160,200040,6,0,P|371:144|452:111,1,175.5,6|0,3:2|0:0,0:0:0:0:
504,168,200381,2,0,P|500:226|491:284,1,117,2|0,1:2|0:0,0:0:0:0:
311,352,200722,1,2,3:2:0:0:
432,380,200893,1,0,3:2:0:0:
354,232,201063,1,2,1:2:0:0:
226,267,201234,1,0,0:0:0:0:
172,377,201404,6,0,P|86:359|0:346,1,175.5,2|0,3:2|0:0,0:0:0:0:
51,276,201745,2,0,P|69:220|84:164,1,117,2|0,1:2|0:0,0:0:0:0:
5,42,202086,1,2,3:2:0:0:
64,86,202256,1,0,3:2:0:0:
126,41,202427,1,2,1:2:0:0:
66,0,202597,1,0,3:2:0:0:
303,188,202768,6,0,P|312:100|330:14,1,175.5,6|0,3:2|0:0,0:0:0:0:
346,0,203109,1,2,1:2:0:0:
510,101,203279,2,0,P|453:111|398:130,1,116.999994644165,0|2,0:0|3:2,0:0:0:0:
46,193,203620,2,0,P|105:197|161:212,1,116.999994644165,0|2,3:2|1:2,0:0:0:0:
160,211,203961,1,0,0:0:0:0:
311,272,204131,5,2,3:2:0:0:
183,290,204302,1,0,3:2:0:0:
379,220,204472,1,2,1:2:0:0:
110,352,204643,2,0,P|52:358|-4:367,1,116.999994644165,4|2,3:2|3:2,0:0:0:0:
164,218,204984,1,0,3:2:0:0:
16,153,205154,1,2,1:2:0:0:
15,123,205239,1,0,0:0:0:0:
14,93,205325,1,2,1:2:0:0:
16,66,205410,1,2,1:2:0:0:
41,52,205495,5,6,3:2:0:0:
155,30,205665,1,0,0:0:0:0:
271,40,205836,1,2,1:2:0:0:
376,90,206006,1,0,0:0:0:0:
454,177,206177,2,0,L|461:293,1,117,2|0,3:2|3:2,0:0:0:0:
461,293,206518,1,2,1:2:0:0:
370,366,206688,1,0,0:0:0:0:
345,203,206859,5,2,3:2:0:0:
117,180,207029,1,0,0:0:0:0:
234,166,207200,1,2,1:2:0:0:
22,248,207370,2,0,L|43:362,1,117,0|2,0:0|3:2,0:0:0:0:
234,166,207711,2,0,L|255:51,1,117,0|2,3:2|1:2,0:0:0:0:
255,51,208052,1,0,3:2:0:0:
33,6,208222,5,2,3:2:0:0:
108,95,208393,1,0,0:0:0:0:
110,211,208563,1,2,1:2:0:0:
75,322,208734,2,0,P|128:349|183:368,1,117,0|2,0:0|3:2,0:0:0:0:
411,377,209075,2,0,P|421:319|425:261,1,117,0|2,3:2|1:2,0:0:0:0:
425,261,209415,1,0,0:0:0:0:
225,293,209586,5,2,3:2:0:0:
284,75,209756,1,0,0:0:0:0:
234,171,209927,1,2,1:2:0:0:
386,21,210097,2,0,P|445:28|503:28,1,117,0|2,0:0|3:2,0:0:0:0:
503,28,210438,1,0,3:2:0:0:
490,144,210609,1,2,1:2:0:0:
494,260,210779,1,0,3:2:0:0:
494,260,210864,1,2,1:2:0:0:
494,260,210950,5,6,3:2:0:0:
390,313,211120,1,0,0:0:0:0:
297,241,211290,2,0,P|239:232|181:224,1,117,2|0,1:2|0:0,0:0:0:0:
51,308,211631,1,2,3:2:0:0:
22,168,211802,2,0,P|15:110|31:54,1,116.999994644165,0|2,3:2|1:2,0:0:0:0:
31,54,212143,1,0,0:0:0:0:
196,97,212313,5,2,3:2:0:0:
325,3,212484,2,0,P|376:30|432:46,1,117,0|2,0:0|1:2,0:0:0:0:
209,243,212825,2,0,P|153:259|101:287,1,117,0|2,0:0|3:2,0:0:0:0:
101,287,213165,1,0,3:2:0:0:
137,354,213336,1,2,1:2:0:0:
211,351,213506,1,0,3:2:0:0:
357,297,213677,5,6,3:2:0:0:
350,83,213847,1,0,0:0:0:0:
394,196,214018,1,2,1:2:0:0:
250,21,214188,1,0,0:0:0:0:
350,83,214359,1,2,3:2:0:0:
114,2,214529,2,0,P|127:59|135:117,1,116.999994644165,0|2,3:2|1:2,0:0:0:0:
134,116,214870,1,0,0:0:0:0:
162,303,215040,5,2,3:2:0:0:
50,264,215211,1,0,1:2:0:0:
50,264,215296,1,0,1:2:0:0:
50,264,215381,1,2,1:2:0:0:
248,384,215552,1,0,1:2:0:0:
349,371,215722,5,8,0:3:0:0:
378,366,215807,1,8,0:3:0:0:
407,365,215893,1,8,0:3:0:0:
436,363,215978,1,8,0:3:0:0:
464,358,216063,2,0,L|449:301,1,58.5,4|4,0:3|0:3,0:0:0:0:
362,236,216234,2,0,L|371:178,1,58.5,4|4,0:3|0:3,0:0:0:0:
462,104,216404,6,0,P|357:131|252:155,1,216,6|2,3:2|0:0,0:0:0:0:
9,29,217597,1,2,0:0:0:0:
9,29,217682,1,2,0:0:0:0:
9,29,217768,2,0,P|171:39|332:57,1,323.999999999999,2|2,0:2|0:0,0:0:0:0:
9,109,219131,6,0,P|49:209|88:309,1,216,2|2,0:2|0:0,0:0:0:0:
388,231,220495,2,0,P|228:205|67:221,1,323.999999999999,2|2,0:2|0:0,0:0:0:0:
271,367,221859,6,0,P|378:353|486:349,1,215.999993408203,2|2,0:2|0:2,0:0:0:0:
297,190,223229,2,0,P|372:159|441:116,1,161.999995056153,2|0,0:2|0:0,0:0:0:0:
441,116,223916,2,0,P|387:109|340:83,1,107.999996704102,2|0,0:2|0:0,0:0:0:0:
185,19,224647,5,2,0:2:0:0:
185,19,224812,1,2,0:2:0:0:
109,49,224993,2,0,L|124:100,1,54.2969983520508,2|2,0:2|0:2,0:0:0:0:
56,128,225393,2,0,L|83:163,1,45,2|0,0:2|0:0,0:0:0:0:
17,214,225761,2,0,L|56:231,1,36,2|0,0:2|0:0,0:0:0:0:
21,303,226175,2,0,L|47:297,1,27,2|0,0:2|0:0,0:0:0:0:
66,370,226620,2,0,L|82:361,1,18,2|0,0:2|0:0,0:0:0:0:
153,381,227088,1,2,0:2:0:0:
256,192,227220,12,2,229211,0:0:0:0:
