osu file format v14

[General]
AudioFilename: audio.ogg
AudioLeadIn: 0
PreviewTime: 54980
Countdown: 0
SampleSet: Soft
StackLeniency: 0.6
Mode: 0
LetterboxInBreaks: 0
WidescreenStoryboard: 0

[Editor]
DistanceSpacing: 0.9
BeatDivisor: 4
GridSize: 16
TimelineZoom: 1.3

[Metadata]
Title:breath of stella
TitleUnicode:breath of stella
Artist:Aimiya Zero
ArtistUnicode:相宮零
Creator:Matsuyuki Ame
Version:with you...
Source:終のステラ
Tags:rk657 Key Stella of the End VISUAL ARTS japanese rock jrock j-rock tsui no stella Kinetic Novel キネティックノベル HarryP 針原翼 Harihara Tsubasa pop jpop j-pop
BeatmapID:3962688
BeatmapSetID:1920042

[Difficulty]
HPDrainRate:5.2
CircleSize:4.2
OverallDifficulty:9
ApproachRate:9.4
SliderMultiplier:1.9
SliderTickRate:1

[Events]
//Background and Video events
0,0,"Philia.jpg",0,0
Video,-710,"video.mp4"
//Break Periods
//Storyboard Layer 0 (Background)
//Storyboard Layer 1 (Fail)
//Storyboard Layer 2 (Pass)
//Storyboard Layer 3 (Foreground)
//Storyboard Layer 4 (Overlay)
//Storyboard Sound Samples

[TimingPoints]
-673,340.909090909091,4,2,1,40,1,0
690,-166.666666666667,4,2,1,40,0,0
10236,-166.666666666667,4,2,1,75,0,0
10406,-166.666666666667,4,2,1,30,0,0
10577,-166.666666666667,4,2,1,40,0,0
10747,-166.666666666667,4,2,1,45,0,0
10917,-166.666666666667,4,2,1,55,0,0
11088,-166.666666666667,4,2,1,65,0,0
11258,-166.666666666667,4,2,1,70,0,0
11429,-166.666666666667,4,2,1,75,0,0
11599,-166.666666666667,4,2,1,50,0,0
15690,-166.666666666667,4,2,1,75,0,0
16202,-76.9230769230769,4,2,1,75,0,0
17224,-76.9230769230769,4,2,1,60,0,0
17736,-90.9090909090909,4,2,1,75,0,0
21145,-76.9230769230769,4,2,1,75,0,0
22167,-66.6666666666667,4,2,1,75,0,0
22508,-125,4,2,1,50,0,0
22849,-125,4,2,1,30,0,0
23190,-125,4,2,1,50,0,0
24383,-125,4,2,1,30,0,0
24554,-125,4,2,1,50,0,0
25065,-125,4,2,1,30,0,0
25236,-125,4,2,1,50,0,0
25577,-125,4,2,1,30,0,0
25804,-125,4,2,1,50,0,0
27111,-125,4,2,1,30,0,0
27281,-125,4,2,1,50,0,0
27452,-125,4,2,1,60,0,0
27963,-125,4,2,1,50,0,0
28304,-125,4,2,1,30,0,0
28645,-125,4,2,1,50,0,0
29838,-125,4,2,1,30,0,0
30008,-125,4,2,1,50,0,0
30520,-125,4,2,1,30,0,0
30690,-125,4,2,1,50,0,0
31031,-125,4,2,1,30,0,0
31372,-125,4,2,1,50,0,0
32565,-125,4,2,1,55,0,0
32736,-83.3333333333333,4,2,1,70,0,0
32906,-71.4285714285714,4,2,1,70,0,0
33247,-71.4285714285714,4,2,1,30,0,0
33417,-83.3333333333333,4,2,1,70,0,0
33758,-100,4,2,1,70,0,0
38872,-83.3333333333333,4,2,1,70,0,0
39213,-100,4,2,1,70,0,0
43986,-100,4,2,1,60,0,0
44327,-100,4,2,1,65,0,0
44667,-125,4,2,1,65,0,0
48417,-125,4,2,1,75,0,0
49781,-111.111111111111,4,2,1,70,0,0
50463,-90.9090909090909,4,2,1,70,0,0
51145,-111.111111111111,4,2,1,70,0,0
52508,-166.666666666666,4,2,1,75,0,0
53872,-111.111111111111,4,2,1,60,0,0
54213,-86.9565217391304,4,2,1,70,0,0
54554,-66.6666666666667,4,2,1,80,0,0
55236,-71.4285714285714,4,2,1,85,0,1
55577,-83.3333333333333,4,2,1,85,0,1
56599,-76.9230769230769,4,2,1,85,0,1
56940,-83.3333333333333,4,2,1,85,0,1
57963,-71.4285714285714,4,2,1,85,0,1
58304,-83.3333333333333,4,2,1,85,0,1
58986,-100,4,2,1,85,0,1
59327,-76.9230769230769,4,2,1,85,0,1
60690,-71.4285714285714,4,2,1,85,0,1
61202,-83.3333333333333,4,2,1,85,0,1
61713,-100,4,2,1,85,0,1
62054,-71.4285714285714,4,2,1,85,0,1
62565,-83.3333333333333,4,2,1,85,0,1
63077,-100,4,2,1,85,0,1
63417,-66.6666666666667,4,2,1,85,0,1
63929,-83.3333333333333,4,2,1,85,0,1
64270,-111.111111111111,4,2,1,85,0,1
66145,-66.6666666666667,4,2,1,85,0,1
66486,-100,4,2,1,85,0,1
66827,-83.3333333333333,4,2,1,85,0,1
67167,-100,4,2,1,85,0,1
68190,-100,4,2,1,85,0,1
68531,-83.3333333333333,4,2,1,85,0,1
68872,-71.4285714285714,4,2,1,85,0,1
69554,-83.3333333333333,4,2,1,85,0,1
69895,-125,4,2,1,85,0,1
70236,-76.9230769230769,4,2,1,85,0,1
70917,-100,4,2,1,85,0,1
71599,-71.4285714285714,4,2,1,85,0,1
72111,-83.3333333333333,4,2,1,85,0,1
73474,-66.6666666666667,4,2,1,85,0,1
73815,-100,4,2,1,85,0,1
73986,-83.3333333333333,4,2,1,85,0,1
74327,-66.6666666666667,4,2,1,85,0,1
74667,-100,4,2,1,85,0,1
74838,-83.3333333333333,4,2,1,85,0,1
77054,-125,4,2,1,70,0,0
78588,-100,4,2,1,70,0,0
79440,-76.9230769230769,4,2,1,70,0,0
79781,-76.9230769230769,4,2,1,80,0,0
80804,-100,4,2,1,80,0,0
81145,-66.6666666666667,4,2,1,50,0,0
81315,-66.6666666666667,4,2,1,55,0,0
81486,-66.6666666666667,4,2,1,60,0,0
81656,-50,4,2,1,65,0,0
81827,-50,4,2,1,70,0,0
81997,-50,4,2,1,80,0,0
82167,-50,4,2,1,80,0,0
82508,-66.6666666666667,4,2,1,85,0,1
82849,-83.3333333333333,4,2,1,85,0,1
85065,-100,4,2,1,85,0,1
85236,-71.4285714285714,4,2,1,85,0,1
85577,-83.3333333333333,4,2,1,85,0,1
86599,-71.4285714285714,4,2,1,85,0,1
87622,-100,4,2,1,85,0,1
87963,-66.6666666666667,4,2,1,85,0,1
90520,-100,4,2,1,85,0,1
90690,-62.5,4,2,1,85,0,1
92565,-71.4285714285714,4,2,1,85,0,1
93162,-71.4285714285714,4,2,1,5,0,1
93247,-71.4285714285714,4,2,1,85,0,1
93417,-66.6666666666667,4,2,1,85,0,1
94781,-100,4,2,1,85,0,1
96145,-66.6666666666667,4,2,1,85,0,1
96827,-83.3333333333333,4,2,1,85,0,1
97167,-100,4,2,1,85,0,1
97508,-83.3333333333333,4,2,1,85,0,1
98020,-100,4,2,1,85,0,1
98531,-71.4285714285714,4,2,1,85,0,1
98872,-66.6666666666667,4,2,1,85,0,1
99383,-83.3333333333333,4,2,1,85,0,1
100917,-100,4,2,1,85,0,1
101599,-57.1428571428571,4,2,1,85,0,1
102111,-100,4,2,1,85,0,1
102963,-83.3333333333333,4,2,1,85,0,1
103986,-66.6666666666667,4,2,1,85,0,1
104156,-66.6666666666667,4,2,1,85,0,0
104327,-66.6666666666667,4,2,1,85,0,1
105690,-83.3333333333333,4,2,1,85,0,1
106713,-125,4,2,1,85,0,1
107054,-71.4285714285714,4,2,1,85,0,1
107736,-100,4,2,1,85,0,1
108077,-83.3333333333333,4,2,1,85,0,1
109440,-100,4,2,1,85,0,1
109781,-125,4,2,1,85,0,1
110122,-71.4285714285714,4,2,1,85,0,1
110463,-100,4,2,1,85,0,1
110804,-83.3333333333333,4,2,1,85,0,1
111145,-125,4,2,1,85,0,1
111486,-71.4285714285714,4,2,1,85,0,1
111827,-100,4,2,1,85,0,1
112167,-83.3333333333333,4,2,1,85,0,1
112508,-71.4285714285714,4,2,1,85,0,1
113531,-100,4,2,1,85,0,1
113872,-83.3333333333333,4,2,1,85,0,1
114213,-125,4,2,1,85,0,1
114383,-71.4285714285714,4,2,1,85,0,1
114554,-166.666666666667,4,2,1,85,0,1
114895,-62.5,4,2,1,85,0,1
115236,-166.666666666667,4,2,1,85,0,0
120690,344.827586206897,4,2,1,30,1,0
121379,340.909090909091,4,2,1,30,1,0
122060,337.078651685393,4,2,1,30,1,0
122565,365.853658536586,4,2,1,30,1,0
122747,368.098159509203,4,2,1,30,1,0
123115,377.358490566038,4,2,1,30,1,0
123492,331.491712707183,4,2,1,30,1,0
123657,363.636363636364,4,2,1,30,1,0
124020,437.956204379563,4,2,1,30,1,0
124238,365.853658536586,4,2,1,30,1,0
124603,370.37037037037,4,2,1,30,1,0
124973,472.440944881889,4,2,1,30,1,0
125445,500,4,2,1,30,1,0
125945,530.973451327434,4,2,1,30,1,0

[Colours]
Combo1 : 182,199,61
Combo2 : 148,214,216
Combo3 : 87,90,86
Combo4 : 38,168,183

[HitObjects]
41,139,520,5,2,0:0:0:0:
41,139,690,2,0,B|20:193|20:193|61:241,1,113.999996520996,2|2,0:0|0:0,0:0:0:0:
138,222,1202,1,2,0:0:0:0:
138,222,1372,2,0,B|158:167|158:167|117:119,1,113.999996520996,2|2,0:0|0:0,0:0:0:0:
71,66,1883,1,2,0:0:0:0:
190,17,2054,6,0,B|213:31|213:31|311:20,1,113.999996520996,2|2,0:0|0:0,0:0:0:0:
299,21,2565,1,2,0:0:0:0:
384,88,2736,2,0,P|358:119|266:116,1,113.999996520996,2|0,0:0|0:0,0:0:0:0:
465,259,3417,6,0,P|439:228|347:231,1,113.999996520996,2|2,0:0|0:0,0:0:0:0:
369,218,3929,1,2,0:0:0:0:
443,344,4099,2,0,P|410:350|390:361,2,56.9999982604981,2|2|2,0:0|0:0|0:0,0:0:0:0:
512,326,4611,1,0,0:0:0:0:
353,293,4781,6,0,L|222:270,1,113.999996520996,2|2,0:0|0:0,0:0:0:0:
240,273,5292,1,2,0:0:0:0:
147,329,5463,2,0,P|175:369|251:381,1,113.999996520996,2|0,0:0|0:0,0:0:0:0:
100,182,6145,6,0,P|72:222|-4:234,1,113.999996520996,2|2,0:0|0:0,0:0:0:0:
11,237,6656,1,2,0:0:0:0:
51,123,6827,2,0,L|38:60,1,56.9999982604981,2|0,0:0|0:0,0:0:0:0:
124,108,7167,2,0,L|111:45,1,56.9999982604981,2|2,0:0|0:0,0:0:0:0:
219,209,7508,6,0,L|245:82,1,113.999996520996,2|2,0:0|0:0,0:0:0:0:
241,97,8020,1,2,0:0:0:0:
378,106,8190,2,0,P|350:112|322:118,1,56.9999982604981,2|0,0:0|0:0,0:0:0:0:
308,42,8531,2,0,P|336:36|363:31,1,56.9999982604981,2|2,0:0|0:0,0:0:0:0:
437,56,8872,1,2,0:0:0:0:
437,56,10236,5,8,3:2:0:0:
369,168,10406,1,8,0:0:0:0:
489,116,10577,1,10,0:0:0:0:
362,87,10747,1,8,0:0:0:0:
447,186,10917,5,10,0:0:0:0:
281,86,11088,1,8,0:0:0:0:
493,0,11258,5,10,0:0:0:0:
369,168,11429,1,8,0:0:0:0:
167,67,11599,1,4,3:2:0:0:
208,160,11770,6,0,P|202:193|197:229,2,56.9999982604981,2|2|2,0:0|0:0|0:0,0:0:0:0:
281,86,12452,2,0,P|286:52|292:17,2,56.9999982604981,2|2|2,0:0|0:0|0:0,0:0:0:0:
167,67,13133,2,0,P|133:61|98:56,2,56.9999982604981,2|2|2,0:0|0:0|0:0,0:0:0:0:
281,86,13645,5,2,0:0:0:0:
281,86,13815,1,2,0:0:0:0:
208,160,13986,2,0,P|198:221|187:291,1,113.999996520996,2|0,0:0|0:0,0:0:0:0:
178,351,14497,5,2,0:0:0:0:
113,299,14667,1,2,0:0:0:0:
121,221,14838,1,2,0:0:0:0:
275,248,15008,5,2,0:0:0:0:
256,324,15179,1,2,0:0:0:0:
178,351,15349,1,2,0:0:0:0:
208,160,15520,5,2,0:0:0:0:
208,160,15605,1,2,0:0:0:0:
208,160,15690,1,14,0:0:0:0:
376,284,15861,1,2,3:2:0:0:
178,351,16031,1,2,3:2:0:0:
430,101,16202,6,0,B|374:114|358:169|358:169|326:138|282:145,1,185.249991519928,14|0,0:0|0:0,0:0:0:0:
289,71,16542,6,0,P|322:61|362:57,1,61.7499971733095,2|0,3:2|0:0,0:0:0:0:
505,168,16713,2,0,P|472:178|432:182,1,61.7499971733095,10|0,0:0|0:0,0:0:0:0:
352,294,16883,2,0,P|385:284|425:280,1,61.7499971733095,8|0,0:0|0:0,0:0:0:0:
509,272,17054,5,2,0:0:0:0:
509,272,17139,1,2,0:0:0:0:
509,272,17224,1,2,0:0:0:0:
443,355,17395,1,2,0:0:0:0:
352,294,17565,1,2,0:0:0:0:
505,168,17736,5,4,3:2:0:0:
365,373,17906,1,2,0:0:0:0:
181,219,18077,1,10,0:0:0:0:
269,141,18247,2,0,B|302:185|302:185|279:250,1,104.500003189087,2|0,0:0|3:2,0:0:0:0:
177,349,18588,5,2,0:0:0:0:
97,178,18758,1,10,0:0:0:0:
285,231,18929,1,2,0:0:0:0:
285,231,19014,1,8,0:0:0:0:
285,231,19099,2,0,P|276:266|272:295,1,52.2500015945435,2|0,3:2|0:0,0:0:0:0:
177,349,19270,2,0,P|186:314|190:285,1,52.2500015945435,2|0,3:2|0:0,0:0:0:0:
97,178,19440,2,0,B|89:190|89:190|106:293,1,104.500003189087,10|0,0:0|0:0,0:0:0:0:
108,292,19696,1,8,0:0:0:0:
108,292,19781,1,0,3:2:0:0:
207,121,19952,5,2,3:2:0:0:
97,178,20122,1,10,0:0:0:0:
42,76,20292,1,2,0:0:0:0:
42,76,20378,1,8,0:0:0:0:
42,76,20463,1,2,3:2:0:0:
206,0,20633,5,2,3:2:0:0:
307,195,20804,1,10,0:0:0:0:
197,252,20974,1,2,0:0:0:0:
346,53,21145,6,0,P|306:48|274:38,1,61.7499971733095,2|0,3:2|0:0,0:0:0:0:
163,130,21315,2,0,P|192:122|223:119,1,61.7499971733095,10|8,0:0|0:0,0:0:0:0:
386,175,21486,5,10,0:0:0:0:
386,175,21571,1,8,0:0:0:0:
386,175,21656,2,0,P|343:183|305:197,1,61.7499971733095,14|0,0:0|0:0,0:0:0:0:
233,325,21827,6,0,P|263:321|293:314,1,61.7499971733095,2|0,0:0|0:0,0:0:0:0:
455,256,21997,2,0,P|415:251|383:241,1,61.7499971733095,2|0,3:2|0:0,0:0:0:0:
197,252,22167,6,0,P|308:288|461:378,1,285.000010871888,10|4,0:0|3:2,0:0:0:0:
453,371,22849,6,0,P|437:372|426:375,3,25.3333333333333,8|8|8|10,0:0|0:0|0:0|0:0,0:0:0:0:
501,314,23190,1,2,3:2:0:0:
455,256,23361,1,8,0:0:0:0:
400,306,23531,2,0,P|358:311|322:315,1,76,2|2,3:2|0:0,0:0:0:0:
152,342,23872,6,0,B|189:303|192:257|192:257|212:285|254:290,1,152,0|0,3:2|3:2,0:0:0:0:
280,215,24383,2,0,L|240:219,3,25.3333333333333,8|8|8|0,0:0|0:0|0:0|3:2,0:0:0:0:
201,168,24724,1,8,0:0:0:0:
319,127,24895,1,0,3:2:0:0:
243,79,25065,2,0,L|249:109,2,25.3333333333333,8|8|8,0:0|0:0|0:0,0:0:0:0:
277,15,25236,6,0,P|227:51|126:47,1,152,0|8,3:2|0:0,0:0:0:0:
64,38,25747,2,0,P|67:20|82:10,3,25.3333333333333,10|8|0|2,0:0|0:0|0:0|3:2,0:0:0:0:
93,108,26088,1,10,0:0:0:0:
0,146,26258,2,0,L|16:223,1,76,2|2,3:2|0:0,0:0:0:0:
88,292,26599,5,2,3:2:0:0:
88,292,26770,2,0,P|45:300|3:313,1,76,10|0,0:0|3:2,0:0:0:0:
179,232,27111,2,0,L|212:240,2,25.3333333333333,10|8|8,0:0|0:0|0:0,0:0:0:0:
106,214,27281,1,0,3:2:0:0:
222,323,27452,6,0,L|178:313,1,38,10|0,0:0|0:0,0:0:0:0:
88,292,27622,1,10,3:2:0:0:
240,246,27792,6,0,L|196:236,1,38,8|0,0:0|0:0,0:0:0:0:
106,214,27963,1,0,3:2:0:0:
257,78,28304,6,0,L|248:41,3,25.3333333333333,8|8|8|10,0:0|0:0|0:0|0:0,0:0:0:0:
275,152,28645,1,2,3:2:0:0:
202,135,28815,1,8,0:0:0:0:
331,102,28986,2,0,L|436:76,1,76,2|2,3:2|0:0,0:0:0:0:
317,240,29327,6,0,P|397:230|450:283,1,152,0|0,3:2|3:2,0:0:0:0:
474,350,29838,2,0,P|462:354|449:354,3,25.3333333333333,8|8|8|0,0:0|0:0|0:0|3:2,0:0:0:0:
378,316,30179,1,8,0:0:0:0:
446,274,30349,1,0,3:2:0:0:
394,208,30520,2,0,L|387:160,2,25.3333333333333,8|8|8,0:0|0:0|0:0,0:0:0:0:
317,240,30690,6,0,P|373:286|446:274,1,152,0|8,3:2|0:0,0:0:0:0:
476,181,31202,2,0,L|469:133,3,25.3333333333333,10|8|8|2,0:0|0:0|0:0|3:2,0:0:0:0:
417,92,31542,1,10,0:0:0:0:
512,80,31713,2,0,P|468:86|419:91,1,76,2|2,3:2|0:0,0:0:0:0:
279,16,32054,5,2,3:2:0:0:
279,16,32224,2,0,P|285:59|290:108,1,76,2|0,0:0|3:2,0:0:0:0:
193,261,32565,5,10,0:0:0:0:
193,261,32622,5,8,0:0:0:0:
193,261,32679,5,8,0:0:0:0:
193,261,32736,6,0,P|165:250|123:249,1,56.9999982604981,8|0,0:0|0:0,0:0:0:0:
382,241,32906,6,0,B|319:210|270:262|270:262|267:311|222:329,1,199.499993911743,10|0,0:0|0:0,0:0:0:0:
168,376,33247,6,0,P|145:375|124:369,2,44.3333319803874,10|8|8,0:0|0:0|0:0,0:0:0:0:
232,324,33417,6,0,P|330:324|368:379,1,170.999994781494,4|0,3:2|0:0,0:0:0:0:
367,377,33758,2,0,P|414:343|473:350,1,95,8|2,0:0|0:0,0:0:0:0:
308,135,34099,1,2,3:2:0:0:
382,241,34270,1,0,3:2:0:0:
503,162,34440,2,0,P|471:119|414:130,1,95,10|2,0:0|0:0,0:0:0:0:
232,194,34781,6,0,B|259:216|268:258|268:258|320:246|408:238,1,190,0|8,3:2|0:0,0:0:0:0:
308,135,35292,1,2,0:0:0:0:
308,135,35378,1,2,0:0:0:0:
308,135,35463,1,0,3:2:0:0:
110,169,35633,1,0,3:2:0:0:
151,54,35804,2,0,P|185:89|180:140,1,95,8|0,0:0|0:0,0:0:0:0:
8,271,36145,6,0,P|62:195|166:228,2,190,0|8|2,3:2|0:0|3:2,0:0:0:0:
127,384,36997,1,2,3:2:0:0:
203,284,37167,1,10,0:0:0:0:
93,267,37338,1,2,0:0:0:0:
337,338,37508,5,2,3:2:0:0:
337,338,37679,2,0,P|290:340|232:361,1,95,2|8,0:0|0:0,0:0:0:0:
428,175,38020,1,2,0:0:0:0:
336,142,38190,1,0,3:2:0:0:
446,267,38361,2,0,P|396:263|357:231,1,95,10|0,0:0|3:2,0:0:0:0:
274,41,38702,6,0,L|323:52,1,47.5,10|0,0:0|0:0,0:0:0:0:
433,27,38872,2,0,P|353:45|337:133,1,170.999994781494,0|0,3:2|0:0,0:0:0:0:
336,142,39213,2,0,P|297:169|250:161,1,95,8|2,0:0|0:0,0:0:0:0:
133,11,39554,1,2,3:2:0:0:
274,41,39724,1,0,3:2:0:0:
178,189,39895,2,0,B|155:168|155:168|170:105,1,95,10|2,0:0|0:0,0:0:0:0:
10,244,40236,6,0,B|61:226|100:243|121:290|121:290|93:313|94:346,1,190,0|8,3:2|0:0,0:0:0:0:
177,359,40747,1,2,0:0:0:0:
177,359,40832,1,2,0:0:0:0:
177,359,40917,1,0,3:2:0:0:
26,316,41088,1,0,3:2:0:0:
178,189,41258,2,0,P|224:190|262:218,1,95,8|0,0:0|0:0,0:0:0:0:
437,308,41599,6,0,P|350:299|292:374,2,190,0|8|2,3:2|0:0|3:2,0:0:0:0:
385,207,42452,1,2,3:2:0:0:
511,251,42622,1,10,0:0:0:0:
459,150,42793,1,2,0:0:0:0:
283,194,42963,5,2,3:2:0:0:
283,194,43133,2,0,P|335:200|381:210,1,95,2|8,0:0|0:0,0:0:0:0:
158,133,43474,2,0,P|203:179|193:261,1,142.5,2|0,0:0|0:0,0:0:0:0:
193,264,43815,1,10,3:2:0:0:
342,121,43986,5,10,0:0:0:0:
338,101,44071,1,8,0:0:0:0:
335,83,44156,1,8,0:0:0:0:
332,65,44241,1,8,0:0:0:0:
330,49,44326,1,4,3:2:0:0:
330,49,44667,6,0,P|287:63|249:66,1,76,2|0,3:2|0:0,0:0:0:0:
370,183,45008,2,0,P|379:138|395:104,1,76,2|0,3:2|0:0,0:0:0:0:
235,147,45349,2,0,P|268:177|290:208,1,76,2|8,3:2|0:0,0:0:0:0:
286,202,45605,1,8,0:0:0:0:
286,202,45690,1,2,3:2:0:0:
78,157,45861,5,10,0:0:0:0:
130,98,46031,1,0,3:2:0:0:
152,175,46202,1,2,0:0:0:0:
88,270,46372,6,0,P|51:277|-7:294,1,76,0|2,3:2|0:0,0:0:0:0:
130,98,46713,2,0,P|93:105|35:122,1,76,2|0,3:2|0:0,0:0:0:0:
321,271,47054,6,0,P|257:255|190:243,1,114,0|0,3:2|0:0,0:0:0:0:
200,244,47395,2,0,P|209:288|217:336,1,76,2|0,3:2|0:0,0:0:0:0:
341,190,47736,5,2,3:2:0:0:
422,210,47906,1,2,0:0:0:0:
401,292,48077,1,2,3:2:0:0:
321,271,48247,1,2,0:0:0:0:
405,103,48417,5,10,0:0:0:0:
266,164,48588,1,2,3:2:0:0:
264,153,48673,1,0,3:2:0:0:
262,142,48758,1,0,3:2:0:0:
340,26,48929,5,10,0:0:0:0:
506,122,49099,1,0,3:2:0:0:
508,111,49184,1,0,3:2:0:0:
510,100,49269,1,2,3:2:0:0:
401,292,49440,5,10,0:0:0:0:
396,265,49525,1,0,3:2:0:0:
391,239,49610,1,0,3:2:0:0:
386,213,49695,1,0,3:2:0:0:
382,187,49781,6,0,P|430:198|488:205,1,85.4999973907472,4|0,3:2|0:0,0:0:0:0:
305,309,50122,1,0,3:2:0:0:
285,211,50292,1,2,0:0:0:0:
476,349,50463,6,0,P|416:287|289:326,1,209.000006378174,10|2,0:0|3:2,0:0:0:0:
196,377,50974,1,10,0:0:0:0:
196,377,51059,1,8,0:0:0:0:
196,377,51145,1,2,3:2:0:0:
131,279,51315,2,0,B|164:249|164:249|205:263,1,85.4999973907472,10|0,0:0|3:2,0:0:0:0:
84,358,51656,5,2,0:0:0:0:
193,165,51827,1,8,0:0:0:0:
0,260,51997,1,10,0:0:0:0:
131,279,52167,5,0,3:2:0:0:
127,263,52338,1,2,0:0:0:0:
325,151,52508,6,0,L|336:218,1,56.9999982604981,6|0,3:2|0:0,0:0:0:0:
262,317,52849,6,0,L|314:273,1,56.9999982604981,10|0,3:2|0:0,0:0:0:0:
439,287,53190,6,0,L|375:263,1,56.9999982604981,10|0,0:0|0:0,0:0:0:0:
385,266,53531,1,2,3:2:0:0:
120,174,53702,5,8,0:0:0:0:
120,174,53787,1,8,0:0:0:0:
120,174,53872,6,0,B|74:144|90:108|90:108|112:126|91:147|113:162,1,128.249996086121,14|0,3:2|0:0,0:0:0:0:
197,233,54213,6,0,B|258:195|279:247|279:247|253:261|251:224|207:231,1,163.875003125668,12|0,3:2|0:0,0:0:0:0:
97,274,54554,6,0,B|105:356|21:354|21:354|33:306|78:329|92:277,1,213.750008153916,14|0,3:2|0:0,0:0:0:0:
120,174,54895,5,8,0:0:0:0:
160,216,54980,1,8,0:0:0:0:
218,222,55065,1,8,0:0:0:0:
266,188,55150,1,8,0:0:0:0:
280,131,55236,6,0,B|243:97|253:43|306:28|306:28|271:53|277:94,1,199.499993911743,6|0,3:2|0:0,0:0:0:0:
351,86,55577,1,10,0:0:0:0:
78,36,55747,1,2,0:0:0:0:
177,0,55917,5,2,3:2:0:0:
158,113,56088,1,0,3:2:0:0:
351,86,56258,2,0,P|415:94|441:148,1,113.999996520996,10|2,0:0|0:0,0:0:0:0:
309,384,56599,6,0,L|347:184,1,185.249991519928,2|0,3:2|0:0,0:0:0:0:
343,203,56940,2,0,L|284:214,1,56.9999982604981,10|0,0:0|0:0,0:0:0:0:
451,345,57111,2,0,B|476:294|476:294|432:257,1,113.999996520996,2|0,0:0|3:2,0:0:0:0:
204,223,57452,5,0,3:2:0:0:
265,140,57622,1,8,0:0:0:0:
343,203,57792,1,2,0:0:0:0:
25,70,57963,6,0,B|154:41|154:41|177:83|226:80,1,199.499993911743,2|0,3:2|0:0,0:0:0:0:
222,5,58304,1,10,0:0:0:0:
113,244,58474,1,2,0:0:0:0:
4,192,58645,6,0,L|78:175,1,56.9999982604981,2|0,3:2|0:0,0:0:0:0:
265,140,58815,1,2,3:2:0:0:
265,140,58900,1,2,0:0:0:0:
265,140,58986,2,0,B|279:152|279:152|263:245,1,95,10|0,0:0|0:0,0:0:0:0:
0,376,59327,6,0,B|144:342,1,123.499994346619,2|0,3:2|0:0,0:0:0:0:
193,333,59582,1,2,0:0:0:0:
193,333,59667,2,0,L|182:269,1,61.7499971733095,10|0,0:0|0:0,0:0:0:0:
484,223,59838,6,0,B|434:233|398:202|398:202|423:255|374:325,1,185.249991519928,2|0,0:0|0:0,0:0:0:0:
373,364,60179,1,0,3:2:0:0:
260,247,60349,1,8,0:0:0:0:
120,347,60520,1,2,0:0:0:0:
233,52,60690,6,0,B|250:134|250:134|242:155|242:155|262:258,1,199.499993911743,2|0,3:2|0:0,0:0:0:0:
271,321,61031,1,10,0:0:0:0:
386,199,61202,2,0,L|323:189,1,56.9999982604981,2|0,0:0|0:0,0:0:0:0:
173,163,61372,5,0,3:2:0:0:
332,77,61542,1,0,3:2:0:0:
173,163,61713,2,0,L|51:143,1,95,8|2,0:0|0:0,0:0:0:0:
225,376,62054,6,0,B|268:317|336:335|336:335|361:373|413:367,1,199.499993911743,2|0,3:2|0:0,0:0:0:0:
396,295,62395,1,10,0:0:0:0:
149,243,62565,5,2,0:0:0:0:
149,243,62650,1,2,0:0:0:0:
149,243,62736,1,0,3:2:0:0:
244,173,62906,1,0,3:2:0:0:
79,283,63077,2,0,P|130:322|175:319,1,95,8|2,0:0|0:0,0:0:0:0:
456,100,63417,6,0,B|385:69|353:140|353:140|378:178|381:226,1,213.750008153916,2|0,3:2|0:0,0:0:0:0:
396,295,63758,2,0,P|443:283|492:272,1,71.2500027179719,10|0,0:0|0:0,0:0:0:0:
170,147,63929,6,0,P|232:133|308:113,1,113.999996520996,2|0,0:0|3:2,0:0:0:0:
81,376,64270,2,0,P|124:366|179:351,1,85.4999973907472,2|8,3:2|0:0,0:0:0:0:
263,231,64611,1,2,0:0:0:0:
263,231,64696,1,2,0:0:0:0:
263,231,64781,1,2,3:2:0:0:
170,147,64952,5,2,3:2:0:0:
358,95,65122,1,10,0:0:0:0:
416,317,65292,1,6,3:2:0:0:
174,381,65463,5,2,0:0:0:0:
144,260,65633,1,2,3:2:0:0:
263,231,65804,1,10,0:0:0:0:
8,344,65974,5,10,0:0:0:0:
8,344,66059,1,8,0:0:0:0:
8,344,66145,2,0,B|43:211|43:211|46:210|46:210|14:183|19:142,1,213.750008153916,6|0,3:2|0:0,0:0:0:0:
63,71,66486,6,0,L|132:82,1,47.5,10|0,0:0|0:0,0:0:0:0:
140,161,66656,2,0,L|71:150,1,47.5,2|0,0:0|0:0,0:0:0:0:
273,32,66827,6,0,B|226:45|198:82|209:134|209:134|231:142|243:168,1,170.999994781494,2|0,3:2|0:0,0:0:0:0:
263,231,67167,2,0,L|371:206,1,95,10|0,0:0|0:0,0:0:0:0:
512,113,67508,5,2,3:2:0:0:
434,355,67679,1,2,0:0:0:0:
263,231,67849,1,10,0:0:0:0:
384,206,68020,5,2,0:0:0:0:
384,206,68105,1,2,0:0:0:0:
384,206,68190,2,0,L|373:273,1,47.5,0|0,3:2|0:0,0:0:0:0:
339,318,68361,2,0,L|328:385,1,47.5,0|0,3:2|0:0,0:0:0:0:
114,219,68531,6,0,B|232:192|232:192|241:219|262:230,1,170.999994781494,8|0,0:0|0:0,0:0:0:0:
312,167,68872,6,0,B|341:105|294:70|294:70|245:49|244:-1,1,199.499993911743,2|0,3:2|0:0,0:0:0:0:
320,0,69213,1,10,0:0:0:0:
197,123,69383,1,2,0:0:0:0:
418,64,69554,2,0,P|480:49|517:92,1,113.999996520996,2|0,3:2|3:2,0:0:0:0:
348,300,69895,2,0,P|386:262|459:277,1,114,10|0,0:0|0:0,0:0:0:0:
414,336,70236,6,0,B|296:308|296:308|281:340|245:351,1,185.249991519928,2|0,3:2|0:0,0:0:0:0:
222,274,70577,1,10,0:0:0:0:
453,158,70747,1,2,0:0:0:0:
324,89,70917,6,0,P|330:123|336:160,1,47.5,0|0,3:2|0:0,0:0:0:0:
254,151,71088,2,0,P|248:117|242:80,1,47.5,0|0,3:2|0:0,0:0:0:0:
343,9,71258,5,8,0:0:0:0:
310,219,71429,1,2,0:0:0:0:
30,162,71599,6,0,B|71:136|83:77|83:77|122:119|184:119,1,199.499993911743,2|0,3:2|0:0,0:0:0:0:
245,104,71940,1,10,0:0:0:0:
101,305,72111,2,0,B|59:264|59:264|0:284,1,113.999996520996,2|0,0:0|3:2,0:0:0:0:
6,281,72366,1,2,0:0:0:0:
6,281,72452,1,0,3:2:0:0:
232,379,72622,1,8,0:0:0:0:
177,235,72792,1,2,0:0:0:0:
35,364,72963,5,2,3:2:0:0:
202,306,73133,1,2,0:0:0:0:
371,251,73304,1,8,0:0:0:0:
232,379,73474,6,0,L|267:137,1,213.750008153916,2|0,0:0|0:0,0:0:0:0:
272,91,73815,2,0,L|192:114,1,47.5,0|0,3:2|0:0,0:0:0:0:
371,251,73986,2,0,B|420:215|420:215|476:231,1,113.999996520996,8|2,0:0|0:0,0:0:0:0:
233,13,74327,6,0,P|330:29|344:147,1,213.750008153916,2|0,3:2|0:0,0:0:0:0:
300,186,74667,2,0,L|220:209,1,47.5,10|0,0:0|0:0,0:0:0:0:
9,120,74838,2,0,B|24:136|24:136|143:156,1,113.999996520996,2|0,0:0|3:2,0:0:0:0:
272,91,75179,5,2,3:2:0:0:
178,348,75349,1,10,0:0:0:0:
61,229,75520,1,2,0:0:0:0:
330,313,75690,6,0,L|404:302,1,56.9999982604981,2|0,3:2|0:0,0:0:0:0:
467,226,75861,1,8,0:0:0:0:
433,220,75946,1,8,0:0:0:0:
399,215,76031,1,10,0:0:0:0:
365,210,76116,1,8,0:0:0:0:
331,205,76201,1,8,0:0:0:0:
297,199,76287,1,8,0:0:0:0:
264,194,76372,5,2,3:2:0:0:
274,180,76457,1,2,0:3:0:0:
284,166,76542,1,2,0:3:0:0:
295,152,76628,1,2,0:3:0:0:
306,139,76713,5,2,3:2:0:0:
297,199,76798,5,8,0:0:0:0:
288,260,76883,5,8,0:0:0:0:
279,322,76969,5,8,0:0:0:0:
270,384,77054,5,6,3:2:0:0:
144,216,77224,2,0,L|164:323,1,76,10|2,0:0|3:2,0:0:0:0:
158,291,77565,1,2,0:0:0:0:
39,169,77736,5,2,3:2:0:0:
144,216,77906,1,2,0:0:0:0:
216,125,78077,1,2,3:2:0:0:
0,245,78247,5,2,0:0:0:0:
118,94,78418,1,10,0:0:0:0:
291,172,78588,2,0,B|303:180|303:180|403:191,1,95,2|2,3:2|0:0,0:0:0:0:
213,31,78929,5,2,3:2:0:0:
213,31,79014,1,0,3:2:0:0:
213,31,79099,1,10,0:0:0:0:
288,275,79270,1,10,0:0:0:0:
145,216,79440,2,0,B|196:195|212:146|212:146|249:181|309:169,1,185.249991519928,10|0,0:0|0:0,0:0:0:0:
273,95,79781,5,10,0:0:0:0:
206,307,79952,1,2,0:0:0:0:
53,137,80122,1,2,3:2:0:0:
157,382,80292,6,0,B|184:269|184:269|146:248|143:205,1,185.249991519928,10|0,0:0|0:0,0:0:0:0:
133,140,80633,1,2,0:0:0:0:
0,319,80804,2,0,B|47:309|47:309|52:310|52:310|101:300,1,95,10|2,0:0|0:0,0:0:0:0:
271,129,81145,6,0,B|295:102|295:102|293:142,1,71.2500027179719,2|0,3:2|0:0,0:0:0:0:
307,236,81315,6,0,B|321:270|321:270|284:248,1,71.2500027179719,10|0,0:0|0:0,0:0:0:0:
202,212,81486,6,0,B|164:205|164:205|202:186,1,71.2500027179719,8|0,0:0|0:0,0:0:0:0:
412,162,81656,6,0,P|442:154|413:169,1,95,10|0,0:0|0:0,0:0:0:0:
211,333,81827,6,0,P|202:362|204:330,1,95,10|0,0:0|0:0,0:0:0:0:
158,77,81997,6,0,P|137:54|164:72,1,95,10|0,0:0|0:0,0:0:0:0:
307,236,82167,5,10,0:0:0:0:
280,186,82252,1,8,0:0:0:0:
231,158,82337,1,10,0:0:0:0:
175,162,82422,1,8,0:0:0:0:
131,197,82508,6,0,B|97:239|123:288|123:288|120:288|120:288|187:312|177:381,1,213.750008153916,6|0,3:2|0:0,0:0:0:0:
102,366,82849,1,10,0:0:0:0:
390,252,83020,1,2,0:0:0:0:
280,186,83190,5,2,3:2:0:0:
258,306,83361,1,0,3:2:0:0:
467,148,83531,2,0,L|391:166,1,56.9999982604981,10|0,0:0|0:0,0:0:0:0:
341,334,83702,5,2,0:0:0:0:
341,334,83787,1,2,0:0:0:0:
341,334,83872,2,0,P|394:270|493:298,1,170.999994781494,2|0,3:2|0:0,0:0:0:0:
512,344,84213,1,10,0:0:0:0:
203,239,84383,5,2,0:0:0:0:
337,167,84554,1,0,3:2:0:0:
186,145,84724,1,0,3:2:0:0:
295,251,84895,1,8,0:0:0:0:
269,101,85065,2,0,L|260:167,1,47.5,2|0,0:0|0:0,0:0:0:0:
46,377,85236,6,0,B|25:269|25:269|30:255|30:255|11:140,1,199.499993911743,2|0,3:2|0:0,0:0:0:0:
5,105,85577,1,10,0:0:0:0:
203,239,85747,1,2,0:0:0:0:
203,239,85832,1,2,0:0:0:0:
203,239,85917,2,0,L|135:251,1,56.9999982604981,2|0,3:2|0:0,0:0:0:0:
112,179,86088,5,0,3:2:0:0:
295,251,86258,1,10,0:0:0:0:
150,343,86429,1,2,0:0:0:0:
245,39,86599,6,0,B|301:48|326:95|326:95|334:43|381:15,1,199.499993911743,2|0,3:2|0:0,0:0:0:0:
430,70,86940,2,0,P|403:91|393:125,1,66.4999979705811,10|0,0:0|0:0,0:0:0:0:
244,127,87111,1,2,0:0:0:0:
244,127,87196,1,2,0:0:0:0:
244,127,87281,5,0,3:2:0:0:
483,182,87452,1,0,3:2:0:0:
337,365,87622,6,0,L|320:292,1,47.5,8|0,0:0|0:0,0:0:0:0:
356,248,87792,2,0,L|339:175,1,47.5,2|0,0:0|0:0,0:0:0:0:
452,345,87963,6,0,B|442:303|442:303|241:272,1,213.750008153916,2|0,3:2|0:0,0:0:0:0:
197,264,88304,1,10,0:0:0:0:
401,110,88474,1,2,0:0:0:0:
401,110,88559,1,2,0:0:0:0:
401,110,88645,1,0,3:2:0:0:
272,56,88815,5,0,3:2:0:0:
326,318,88986,1,8,0:0:0:0:
197,264,89156,5,2,0:0:0:0:
197,264,89241,1,2,0:0:0:0:
197,264,89327,2,0,B|129:227|73:282|73:282|69:334|14:348,1,213.750008153916,2|0,3:2|0:0,0:0:0:0:
0,277,89667,1,10,0:0:0:0:
259,383,89838,1,2,0:0:0:0:
259,383,89923,1,2,0:0:0:0:
259,383,90008,1,0,3:2:0:0:
171,109,90179,5,0,3:2:0:0:
141,325,90349,1,8,0:0:0:0:
301,276,90520,2,0,L|283:211,1,47.5,2|0,0:0|0:0,0:0:0:0:
347,161,90690,6,0,B|308:317|308:317|339:338|343:375,1,228,2|0,3:2|0:0,0:0:0:0:
388,299,91031,1,10,0:0:0:0:
82,211,91202,1,2,0:0:0:0:
147,128,91372,5,0,3:2:0:0:
186,337,91542,1,2,3:2:0:0:
388,299,91713,1,8,0:0:0:0:
352,91,91883,1,2,0:0:0:0:
352,91,91969,1,2,0:0:0:0:
352,91,92054,6,0,P|310:102|274:110,1,76,2|0,3:2|0:0,0:0:0:0:
237,193,92224,5,8,0:0:0:0:
283,180,92309,1,8,0:0:0:0:
331,169,92394,1,8,0:0:0:0:
380,158,92479,1,8,0:0:0:0:
429,148,92565,2,0,B|417:108|455:80|455:80|392:86|361:169|420:229,1,265.999991882324,4|2,3:2|3:2,0:0:0:0:
436,363,93077,6,0,P|469:329|464:286,1,66.4999979705811,10|0,0:0|0:0,0:0:0:0:
470,298,93247,1,10,0:0:0:0:
197,225,93417,6,0,B|343:254|343:254|357:289|398:302,1,213.750008153916,6|0,3:2|0:0,0:0:0:0:
416,225,93758,1,10,0:0:0:0:
266,379,93929,1,2,0:0:0:0:
167,92,94099,5,2,3:2:0:0:
291,157,94270,1,2,3:2:0:0:
27,255,94440,1,10,0:0:0:0:
153,320,94611,1,2,0:0:0:0:
86,82,94781,6,0,L|79:147,1,47.5,2|0,3:2|0:0,0:0:0:0:
161,139,94952,2,0,L|168:74,1,47.5,2|0,0:0|0:0,0:0:0:0:
135,21,95122,1,10,0:0:0:0:
74,207,95292,5,2,0:0:0:0:
74,207,95378,1,2,0:0:0:0:
74,207,95463,2,0,L|-2:196,1,47.5,0|0,3:2|0:0,0:0:0:0:
152,215,95633,2,0,L|228:226,1,47.5,0|0,3:2|0:0,0:0:0:0:
90,374,95804,2,0,L|106:246,1,95,8|2,0:0|0:0,0:0:0:0:
361,100,96145,6,0,P|352:198|295:124,1,213.750008153916,2|0,3:2|0:0,0:0:0:0:
290,84,96486,1,10,0:0:0:0:
511,194,96656,1,2,0:0:0:0:
482,329,96827,6,0,P|436:284|447:214,1,113.999996520996,2|0,3:2|3:2,0:0:0:0:
479,130,97167,2,0,P|516:146|482:204,1,95,10|0,0:0|0:0,0:0:0:0:
290,156,97508,6,0,L|154:180,1,113.999996520996,2|0,3:2|0:0,0:0:0:0:
170,180,97764,1,0,0:0:0:0:
170,180,97849,1,10,0:0:0:0:
333,362,98020,5,2,0:0:0:0:
333,362,98105,1,2,0:0:0:0:
333,362,98190,2,0,L|274:353,1,47.5,0|0,3:2|0:0,0:0:0:0:
216,343,98361,1,0,3:2:0:0:
345,239,98531,6,0,L|117:280,1,199.499993911743,8|0,0:0|0:0,0:0:0:0:
36,334,98872,6,0,B|78:321|114:347|114:347|72:322|60:273|81:232,1,213.750008153916,2|0,3:2|0:0,0:0:0:0:
148,274,99213,1,10,0:0:0:0:
13,87,99383,6,0,B|70:106|70:106|110:66,1,113.999996520996,2|0,0:0|3:2,0:0:0:0:
118,63,99639,1,0,0:0:0:0:
118,63,99724,1,0,3:2:0:0:
0,247,99895,1,8,0:0:0:0:
334,137,100065,5,2,0:0:0:0:
182,112,100236,1,2,3:2:0:0:
290,221,100406,1,2,0:0:0:0:
267,70,100577,1,10,0:0:0:0:
198,206,100747,1,2,0:0:0:0:
406,126,100917,6,0,L|356:135,1,47.5,0|0,3:2|0:0,0:0:0:0:
346,59,101088,2,0,L|392:50,1,47.5,0|0,3:2|0:0,0:0:0:0:
509,147,101258,2,0,L|395:126,1,95,8|2,0:0|0:0,0:0:0:0:
164,0,101599,6,0,L|210:286,1,249.375002378225,2|0,3:2|0:0,0:0:0:0:
218,321,101940,1,10,0:0:0:0:
5,229,102111,2,0,B|14:234|14:234|130:214,1,95,2|0,0:0|3:2,0:0:0:0:
117,219,102366,1,2,0:0:0:0:
117,219,102452,1,2,3:2:0:0:
84,99,102622,5,10,0:0:0:0:
313,177,102792,1,2,0:0:0:0:
146,336,102963,6,0,L|220:322,1,56.9999982604981,2|0,3:2|0:0,0:0:0:0:
373,239,103133,1,8,0:0:0:0:
343,213,103218,1,8,0:0:0:0:
304,212,103303,1,10,0:0:0:0:
275,238,103388,1,8,0:0:0:0:
270,277,103474,2,0,P|279:312|283:345,1,56.9999982604981,8|0,3:2|0:0,0:0:0:0:
512,299,103645,5,10,0:0:0:0:
503,248,103730,1,8,0:0:0:0:
465,213,103815,1,8,0:0:0:0:
413,210,103900,1,8,0:0:0:0:
373,239,103986,2,0,P|382:274|388:311,1,71.2500027179719,8|0,3:2|0:0,0:0:0:0:
248,372,104156,5,10,0:0:0:0:
187,384,104241,1,8,0:0:0:0:
146,336,104327,2,0,B|177:196|177:196|179:196|179:196|136:177|130:128,1,213.750008153916,4|0,3:2|0:0,0:0:0:0:
143,74,104667,5,8,0:0:0:0:
270,277,104838,1,0,0:0:0:0:
0,235,105008,5,0,3:2:0:0:
55,321,105179,1,0,3:2:0:0:
143,74,105349,5,8,0:0:0:0:
69,193,105520,1,0,0:0:0:0:
308,92,105690,6,0,B|295:108|295:108|188:130,1,113.999996520996,0|0,3:2|0:0,0:0:0:0:
382,17,106031,5,8,0:0:0:0:
319,246,106202,1,2,0:0:0:0:
319,246,106287,1,2,0:0:0:0:
319,246,106372,1,2,3:2:0:0:
204,127,106542,5,0,3:2:0:0:
485,182,106713,2,0,P|441:175|393:236,1,114,8|0,0:0|0:0,0:0:0:0:
319,246,107054,6,0,B|388:218|431:274|431:274|434:320|478:339,1,199.499993911743,2|0,3:2|0:0,0:0:0:0:
506,269,107395,1,8,0:0:0:0:
263,364,107565,1,0,0:0:0:0:
310,199,107736,6,0,L|322:267,1,47.5,2|0,3:2|0:0,0:0:0:0:
362,307,107906,2,0,L|374:375,1,47.5,0|0,3:2|0:0,0:0:0:0:
139,309,108077,2,0,L|260:287,1,113.999996520996,8|0,0:0|0:0,0:0:0:0:
420,85,108417,5,2,3:2:0:0:
201,9,108588,1,0,0:0:0:0:
310,199,108758,1,8,0:0:0:0:
162,147,108929,1,2,0:0:0:0:
162,147,109014,1,2,0:0:0:0:
162,147,109099,5,0,3:2:0:0:
302,42,109270,1,0,3:2:0:0:
251,288,109440,2,0,B|230:152,1,95,8|0,0:0|0:0,0:0:0:0:
0,35,109781,6,0,P|48:26|93:68,1,114,2|0,3:2|0:0,0:0:0:0:
163,94,110122,6,0,B|57:116|57:116|25:161|69:202,1,199.499993911743,8|0,0:0|0:0,0:0:0:0:
138,290,110463,6,0,P|143:252|149:225,1,47.5,0|0,3:2|0:0,0:0:0:0:
212,198,110633,2,0,P|217:160|223:133,1,47.5,0|0,3:2|0:0,0:0:0:0:
310,357,110804,6,0,P|300:295|289:235,1,113.999996520996,8|0,0:0|0:0,0:0:0:0:
406,38,111145,6,0,P|360:84|302:68,1,114,2|0,3:2|0:0,0:0:0:0:
338,0,111486,6,0,B|469:34|469:34|471:33|471:33|469:70|510:104,1,199.499993911743,8|0,0:0|0:0,0:0:0:0:
432,161,111827,6,0,L|373:174,1,47.5,0|0,3:2|0:0,0:0:0:0:
337,234,111997,2,0,L|278:247,1,47.5,0|0,3:2|0:0,0:0:0:0:
468,354,112167,6,0,P|411:341|347:330,1,113.999996520996,8|0,0:0|0:0,0:0:0:0:
156,84,112508,6,0,B|175:96|175:96|211:315,1,199.499993911743,2|0,3:2|0:0,0:0:0:0:
216,349,112849,1,8,0:0:0:0:
26,149,113020,1,2,0:0:0:0:
107,200,113190,5,0,3:2:0:0:
0,251,113361,1,2,3:2:0:0:
272,116,113531,6,0,P|230:71|137:109,1,142.5,10|0,0:0|0:0,0:0:0:0:
107,200,113872,6,0,L|174:188,1,56.9999982604981,10|0,3:2|0:0,0:0:0:0:
340,159,114042,5,2,0:3:0:0:
338,170,114128,1,2,0:3:0:0:
336,181,114213,2,0,L|325:239,1,38,2|0,0:3|0:0,0:0:0:0:
170,286,114383,6,0,L|237:274,1,66.4999979705811,10|0,3:2|0:0,0:0:0:0:
420,198,114554,5,2,0:3:0:0:
415,226,114640,1,2,0:3:0:0:
410,251,114725,2,0,L|404:282,1,28.4999991302491,2|0,0:3|0:0,0:0:0:0:
237,371,114895,6,0,L|317:356,1,76,14|0,3:2|0:0,0:0:0:0:
503,244,115065,5,8,0:0:0:0:
487,313,115150,1,8,0:0:0:0:
471,383,115236,1,4,3:2:0:0:
