osu file format v14

[General]
AudioFilename: audio.ogg
AudioLeadIn: 0
PreviewTime: 54980
Countdown: 0
SampleSet: Soft
StackLeniency: 0.4
Mode: 0
LetterboxInBreaks: 0
WidescreenStoryboard: 1

[Editor]
DistanceSpacing: 1
BeatDivisor: 4
GridSize: 16
TimelineZoom: 1.3

[Metadata]
Title:breath of stella
TitleUnicode:breath of stella
Artist:Aimiya Zero
ArtistUnicode:相宮零
Creator:Matsuyuki Ame
Version:normal
Source:終のステラ
Tags:rk657 Key Stella of the End VISUAL ARTS japanese rock jrock j-rock tsui no stella Kinetic Novel キネティックノベル HarryP 針原翼 Harihara Tsubasa pop jpop j-pop
BeatmapID:3964294
BeatmapSetID:1920042

[Difficulty]
HPDrainRate:3.5
CircleSize:3.6
OverallDifficulty:5
ApproachRate:6
SliderMultiplier:1.1
SliderTickRate:1

[Events]
//Background and Video events
0,0,"Philia4.jpg",0,0
Video,-710,"video.mp4"
//Break Periods
//Storyboard Layer 0 (Background)
//Storyboard Layer 1 (Fail)
//Storyboard Layer 2 (Pass)
//Storyboard Layer 3 (Foreground)
//Storyboard Layer 4 (Overlay)
//Storyboard Sound Samples

[TimingPoints]
-673,340.909090909091,4,2,1,40,1,0
10236,-100,4,2,1,75,0,0
10406,-100,4,2,1,30,0,0
10577,-100,4,2,1,40,0,0
10747,-100,4,2,1,45,0,0
10917,-100,4,2,1,55,0,0
11088,-100,4,2,1,65,0,0
11258,-100,4,2,1,70,0,0
11429,-100,4,2,1,75,0,0
11599,-100,4,2,1,50,0,0
15690,-100,4,2,1,75,0,0
17224,-100,4,2,1,60,0,0
17736,-100,4,2,1,75,0,0
22508,-111.111111111111,4,2,1,50,0,0
22849,-111.111111111111,4,2,1,30,0,0
23190,-111.111111111111,4,2,1,50,0,0
24383,-111.111111111111,4,2,1,30,0,0
24554,-111.111111111111,4,2,1,50,0,0
25065,-111.111111111111,4,2,1,30,0,0
25236,-111.111111111111,4,2,1,50,0,0
25577,-111.111111111111,4,2,1,30,0,0
25804,-111.111111111111,4,2,1,50,0,0
27111,-111.111111111111,4,2,1,30,0,0
27281,-111.111111111111,4,2,1,50,0,0
27452,-111.111111111111,4,2,1,60,0,0
27963,-111.111111111111,4,2,1,50,0,0
28304,-111.111111111111,4,2,1,30,0,0
28645,-111.111111111111,4,2,1,50,0,0
29838,-111.111111111111,4,2,1,30,0,0
30008,-111.111111111111,4,2,1,50,0,0
30520,-111.111111111111,4,2,1,30,0,0
30690,-111.111111111111,4,2,1,50,0,0
31031,-111.111111111111,4,2,1,30,0,0
31372,-111.111111111111,4,2,1,50,0,0
32565,-111.111111111111,4,2,1,55,0,0
32736,-111.111111111111,4,2,1,70,0,0
33247,-111.111111111111,4,2,1,30,0,0
33417,-100,4,2,1,70,0,0
43986,-100,4,2,1,60,0,0
44327,-111.111111111111,4,2,1,65,0,0
48417,-111.111111111111,4,2,1,75,0,0
49781,-111.111111111111,4,2,1,70,0,0
52508,-111.111111111111,4,2,1,75,0,0
53872,-111.111111111111,4,2,1,60,0,0
54213,-111.111111111111,4,2,1,70,0,0
54554,-111.111111111111,4,2,1,80,0,0
55236,-90.9090909090908,4,2,1,85,0,1
77054,-100,4,2,1,70,0,0
79781,-100,4,2,1,80,0,0
81145,-100,4,2,1,50,0,0
81315,-100,4,2,1,55,0,0
81486,-100,4,2,1,60,0,0
81656,-100,4,2,1,65,0,0
81827,-100,4,2,1,70,0,0
81997,-100,4,2,1,80,0,0
82508,-90.9090909090909,4,2,1,85,0,1
104156,-90.9090909090909,4,2,1,85,0,0
104327,-90.9090909090909,4,2,1,85,0,1
115236,-90.9090909090909,4,2,1,85,0,0
120690,344.827586206897,4,2,1,30,1,0
121379,340.909090909091,4,2,1,30,1,0
122060,337.078651685393,4,2,1,30,1,0
122565,365.853658536586,4,2,1,30,1,0
122747,368.098159509203,4,2,1,30,1,0
123115,377.358490566038,4,2,1,30,1,0
123492,331.491712707183,4,2,1,30,1,0
123657,363.636363636364,4,2,1,30,1,0
124020,437.956204379563,4,2,1,30,1,0
124238,365.853658536586,4,2,1,30,1,0
124603,370.37037037037,4,2,1,30,1,0
124973,472.440944881889,4,2,1,30,1,0
125445,500,4,2,1,30,1,0
125945,530.973451327434,4,2,1,30,1,0

[Colours]
Combo1 : 182,199,61
Combo2 : 148,214,216
Combo3 : 87,90,86
Combo4 : 38,168,183

[HitObjects]
359,271,10236,6,0,L|337:144,1,110,8|10,3:2|0:0,0:0:0:0:
331,112,10747,1,8,0:0:0:0:
331,112,10917,2,0,P|287:122|257:126,1,55,10|8,0:0|0:0,0:0:0:0:
237,161,11258,2,0,P|193:171|163:175,1,55,10|8,0:0|0:0,0:0:0:0:
140,207,11599,1,4,3:2:0:0:
256,192,11770,12,0,14327,0:0:0:0:
289,60,15690,6,0,L|360:72,1,55,14|2,0:0|3:2,0:0:0:0:
401,83,16031,1,2,3:2:0:0:
401,83,16202,2,0,P|389:139|381:197,1,110,14|2,0:0|3:2,0:0:0:0:
380,249,16713,1,10,0:0:0:0:
380,249,16883,1,8,0:0:0:0:
288,310,17224,2,0,P|295:331|299:368,2,55,2|2|2,0:0|0:0|0:0,0:0:0:0:
254,265,17736,6,0,P|205:300|141:291,1,110,4|10,3:2|0:0,0:0:0:0:
106,293,18247,1,2,0:0:0:0:
106,293,18417,2,0,P|97:229|87:164,1,110,0|10,3:2|0:0,0:0:0:0:
82,133,18929,1,2,0:0:0:0:
82,133,19099,1,2,3:2:0:0:
57,25,19440,1,10,0:0:0:0:
166,13,19781,6,0,P|198:18|224:22,1,55,0|2,3:2|3:2,0:0:0:0:
274,32,20122,2,0,P|284:72|254:136,1,110,10|2,0:0|3:2,0:0:0:0:
215,167,20633,1,2,3:2:0:0:
215,167,20804,1,10,0:0:0:0:
279,256,21145,2,0,P|330:234|394:235,1,110,2|10,3:2|0:0,0:0:0:0:
430,203,21656,2,0,P|474:236|505:292,1,110,14|2,0:0|3:2,0:0:0:0:
490,336,22167,1,10,0:0:0:0:
402,381,22508,6,0,L|248:358,1,148.49999546814,4|10,3:2|0:0,0:0:0:0:
206,347,23190,2,0,L|217:278,1,49.4999984893799,2|8,3:2|0:0,0:0:0:0:
221,249,23531,1,2,3:2:0:0:
174,161,23872,2,0,P|98:149|35:193,1,148.49999546814,0|8,3:2|0:0,0:0:0:0:
8,223,24554,2,0,L|18:274,1,49.4999984893799,0|8,3:2|0:0,0:0:0:0:
27,320,24895,1,0,3:2:0:0:
120,286,25236,6,0,P|194:302|277:314,1,148.49999546814,0|10,3:2|0:0,0:0:0:0:
314,323,25917,2,0,P|319:287|325:257,1,49.4999984893799,2|10,3:2|0:0,0:0:0:0:
328,224,26258,1,2,3:2:0:0:
420,189,26599,2,0,P|430:110|442:39,1,148.49999546814,2|10,3:2|0:0,0:0:0:0:
349,4,27452,1,10,0:0:0:0:
288,82,27792,1,8,0:0:0:0:
288,82,27963,6,0,P|227:48|132:59,1,148.49999546814,0|10,3:2|0:0,0:0:0:0:
107,77,28645,2,0,P|113:111|118:142,1,49.4999984893799,2|8,3:2|0:0,0:0:0:0:
124,174,28986,1,2,3:2:0:0:
67,255,29327,2,0,P|128:221|223:232,1,148.49999546814,0|8,3:2|0:0,0:0:0:0:
251,240,30008,2,0,L|238:306,1,49.4999984893799,0|8,3:2|0:0,0:0:0:0:
232,337,30349,1,0,3:2:0:0:
323,375,30690,6,0,P|336:299|356:214,1,148.49999546814,0|10,3:2|0:0,0:0:0:0:
391,199,31372,2,0,P|424:209|457:215,1,49.4999984893799,2|10,3:2|0:0,0:0:0:0:
487,221,31713,1,2,3:2:0:0:
501,123,32054,2,0,P|448:111|399:98,1,98.9999969787599,2|0,3:2|3:2,0:0:0:0:
361,75,32565,2,0,L|300:91,1,49.4999984893799,10|8,0:0|0:0,0:0:0:0:
265,100,32906,1,10,0:0:0:0:
217,187,33247,1,10,0:0:0:0:
217,187,33417,6,0,L|241:312,1,110,4|8,3:2|0:0,0:0:0:0:
153,366,34099,2,0,P|119:358|84:355,1,55,2|0,3:2|3:2,0:0:0:0:
44,346,34440,1,10,0:0:0:0:
76,240,34781,2,0,L|52:115,2,110,0|8|0,3:2|0:0|3:2,0:0:0:0:
126,273,35633,1,0,3:2:0:0:
126,273,35804,1,8,0:0:0:0:
211,203,36145,6,0,L|334:221,1,110,0|8,3:2|0:0,0:0:0:0:
422,258,36827,2,0,P|424:221|431:191,1,55,2|2,3:2|3:2,0:0:0:0:
438,149,37167,1,10,0:0:0:0:
465,45,37508,1,2,3:2:0:0:
465,45,37679,2,0,P|427:52|404:54,1,55,2|8,0:0|0:0,0:0:0:0:
364,84,38020,2,0,L|241:66,1,110,2|10,0:0|0:0,0:0:0:0:
159,24,38702,5,10,0:0:0:0:
159,24,38872,2,0,P|173:78|173:152,1,110,0|8,3:2|0:0,0:0:0:0:
91,203,39554,2,0,P|95:237|101:265,1,55,2|0,3:2|3:2,0:0:0:0:
116,310,39895,1,10,0:0:0:0:
224,328,40236,2,0,P|208:259|201:201,2,110,0|8|0,3:2|0:0|3:2,0:0:0:0:
262,374,41088,1,0,3:2:0:0:
262,374,41258,1,8,0:0:0:0:
343,300,41599,6,0,L|454:321,1,110,0|8,3:2|0:0,0:0:0:0:
510,227,42281,2,0,P|502:190|499:170,1,55,2|2,3:2|3:2,0:0:0:0:
459,135,42622,2,0,P|451:98|448:78,1,55,10|2,0:0|0:0,0:0:0:0:
427,35,42963,1,2,3:2:0:0:
427,35,43133,1,2,0:0:0:0:
335,96,43474,2,0,P|276:93|228:115,1,110,2|10,0:0|3:2,0:0:0:0:
193,154,43986,2,0,L|207:229,1,55,10|8,0:0|0:0,0:0:0:0:
217,261,44327,5,4,3:2:0:0:
157,339,44667,2,0,L|49:323,2,98.9999969787599,2|2|2,3:2|3:2|3:2,0:0:0:0:
251,384,45690,1,2,3:2:0:0:
251,384,45861,2,0,P|300:359|355:371,1,98.9999969787599,10|2,0:0|0:0,0:0:0:0:
420,303,46542,1,2,0:0:0:0:
420,303,46713,1,2,3:2:0:0:
369,217,47054,6,0,L|389:113,1,98.9999969787599,0|2,3:2|3:2,0:0:0:0:
339,33,47736,2,0,P|308:39|278:43,1,49.4999984893799,2|2,3:2|0:0,0:0:0:0:
240,44,48077,1,2,3:2:0:0:
150,2,48417,2,0,P|142:53|130:106,1,98.9999969787599,10|0,0:0|3:2,0:0:0:0:
122,148,48929,2,0,P|173:156|226:168,1,98.9999969787599,10|2,0:0|3:2,0:0:0:0:
266,182,49440,1,10,0:0:0:0:
202,257,49781,6,0,P|151:264|97:281,1,98.9999969787599,4|0,3:2|3:2,0:0:0:0:
41,353,50463,2,0,P|120:362|210:382,1,148.49999546814,10|10,0:0|0:0,0:0:0:0:
226,345,51145,2,0,P|273:330|322:324,1,98.9999969787599,2|0,3:2|3:2,0:0:0:0:
387,249,51827,2,0,L|373:186,1,49.4999984893799,8|10,0:0|0:0,0:0:0:0:
341,166,52167,2,0,P|334:125|330:105,1,49.4999984893799,0|2,3:2|0:0,0:0:0:0:
321,68,52508,6,0,P|376:62|425:55,1,98.9999969787599,6|10,3:2|3:2,0:0:0:0:
500,112,53190,2,0,P|506:167|513:216,1,98.9999969787599,10|2,0:0|3:2,0:0:0:0:
509,263,53702,1,8,0:0:0:0:
509,263,53872,1,14,3:2:0:0:
415,231,54213,1,12,3:2:0:0:
381,324,54554,1,14,3:2:0:0:
286,295,54895,2,0,L|224:306,1,49.4999984893799,8|8,0:0|0:0,0:0:0:0:
187,281,55236,6,0,P|151:255|64:266,1,121.000003692627,6|10,3:2|0:0,0:0:0:0:
35,289,55747,1,2,0:0:0:0:
35,289,55917,1,2,3:2:0:0:
65,175,56258,2,0,P|57:135|53:102,1,60.5000018463135,10|2,0:0|0:0,0:0:0:0:
45,61,56599,2,0,P|115:53|172:45,1,121.000003692627,2|10,3:2|0:0,0:0:0:0:
219,41,57111,2,0,P|227:111|235:168,1,121.000003692627,2|0,0:0|3:2,0:0:0:0:
244,214,57622,1,8,0:0:0:0:
318,309,57963,6,0,B|366:266|366:266|429:287,1,121.000003692627,2|10,3:2|0:0,0:0:0:0:
475,303,58474,1,2,0:0:0:0:
475,303,58645,2,0,P|485:267|496:239,1,60.5000018463135,2|2,3:2|3:2,0:0:0:0:
511,194,58986,1,10,0:0:0:0:
474,78,59327,2,0,P|404:93|334:101,1,121.000003692627,2|10,3:2|0:0,0:0:0:0:
300,104,59838,2,0,P|285:152|324:208,1,121.000003692627,2|0,0:0|3:2,0:0:0:0:
354,251,60349,1,8,0:0:0:0:
284,349,60690,6,0,L|158:334,1,121.000003692627,2|10,3:2|0:0,0:0:0:0:
113,329,61202,1,2,0:0:0:0:
113,329,61372,2,0,P|121:289|122:262,1,60.5000018463135,0|0,3:2|3:2,0:0:0:0:
124,214,61713,1,8,0:0:0:0:
16,158,62054,2,0,P|21:96|31:32,1,121.000003692627,2|10,3:2|0:0,0:0:0:0:
73,0,62565,1,2,0:0:0:0:
73,0,62736,2,0,P|106:7|138:10,1,60.5000018463135,0|0,3:2|3:2,0:0:0:0:
186,18,63077,1,8,0:0:0:0:
263,110,63417,6,0,P|272:180|238:230,1,121.000003692627,2|10,3:2|0:0,0:0:0:0:
203,253,63929,1,2,0:0:0:0:
271,352,64270,1,2,3:2:0:0:
389,315,64611,1,2,0:0:0:0:
389,315,64781,2,0,P|374:251|363:182,1,121.000003692627,2|10,3:2|0:0,0:0:0:0:
357,142,65292,2,0,P|420:127|490:116,1,121.000003692627,6|2,3:2|3:2,0:0:0:0:
510,75,65804,1,10,0:0:0:0:
412,3,66145,6,0,P|348:17|279:29,1,121.000003692627,6|10,3:2|0:0,0:0:0:0:
243,37,66656,1,2,0:0:0:0:
243,37,66827,1,2,3:2:0:0:
272,154,67167,1,10,0:0:0:0:
161,116,67508,1,2,3:2:0:0:
161,116,67679,2,0,L|101:108,1,60.5000018463135,2|10,0:0|0:0,0:0:0:0:
46,101,68020,2,0,P|18:142|31:220,1,121.000003692627,2|0,0:0|3:2,0:0:0:0:
53,257,68531,1,8,0:0:0:0:
133,347,68872,6,0,P|203:333|271:332,1,121.000003692627,2|10,3:2|0:0,0:0:0:0:
310,337,69383,1,2,0:0:0:0:
310,337,69554,1,2,3:2:0:0:
373,233,69895,1,10,0:0:0:0:
262,182,70236,2,0,P|247:105|241:53,1,121.000003692627,2|10,3:2|0:0,0:0:0:0:
278,21,70747,2,0,P|355:6|407:0,1,121.000003692627,2|0,0:0|3:2,0:0:0:0:
450,14,71258,1,8,0:0:0:0:
498,124,71599,6,0,P|452:159|378:137,1,121.000003692627,2|10,3:2|0:0,0:0:0:0:
352,120,72111,1,2,0:0:0:0:
352,120,72281,1,0,3:2:0:0:
314,235,72622,1,8,0:0:0:0:
435,268,72963,1,2,3:2:0:0:
435,268,73133,2,0,P|427:300|424:327,1,60.5000018463135,2|8,0:0|0:0,0:0:0:0:
432,384,73474,2,0,P|370:354|311:362,1,121.000003692627,2|0,0:0|3:2,0:0:0:0:
267,375,73986,1,8,0:0:0:0:
163,312,74327,6,0,P|175:241|187:170,1,121.000003692627,2|10,3:2|0:0,0:0:0:0:
187,138,74838,2,0,P|125:168|66:160,1,121.000003692627,2|2,0:0|3:2,0:0:0:0:
26,136,75349,2,0,P|32:101|39:68,1,60.5000018463135,10|2,0:0|0:0,0:0:0:0:
43,22,75690,1,2,3:2:0:0:
159,53,76031,2,0,P|192:47|222:44,1,60.5000018463135,10|8,0:0|0:0,0:0:0:0:
261,78,76372,2,0,P|267:111|270:141,1,60.5000018463135,2|2,3:2|0:3,0:0:0:0:
241,184,76713,2,0,P|208:190|178:193,1,60.5000018463135,2|8,3:2|0:0,0:0:0:0:
128,205,77054,6,0,P|118:265|151:323,1,110,6|2,3:2|3:2,0:0:0:0:
170,350,77565,1,2,0:0:0:0:
264,291,77906,1,2,0:0:0:0:
264,291,78077,2,0,L|392:313,1,110,2|10,3:2|0:0,0:0:0:0:
426,320,78588,1,2,3:2:0:0:
498,237,78929,1,2,3:2:0:0:
498,237,79099,2,0,L|485:173,1,55,10|10,0:0|0:0,0:0:0:0:
451,141,79440,2,0,L|387:154,1,55,10|2,0:0|0:0,0:0:0:0:
343,164,79781,6,0,P|307:103|333:52,1,110,10|2,0:0|3:2,0:0:0:0:
348,24,80292,1,10,0:0:0:0:
242,38,80633,1,2,0:0:0:0:
242,38,80804,2,0,L|115:18,1,110,10|2,0:0|3:2,0:0:0:0:
78,17,81315,2,0,L|90:92,1,55,10|8,0:0|0:0,0:0:0:0:
100,129,81656,1,10,0:0:0:0:
100,129,81827,1,10,0:0:0:0:
89,238,82167,2,0,P|129:228|162:225,1,55,10|10,0:0|0:0,0:0:0:0:
192,202,82508,6,0,P|234:232|324:229,1,121.000003692627,6|10,3:2|0:0,0:0:0:0:
348,206,83020,1,2,0:0:0:0:
348,206,83190,1,2,3:2:0:0:
457,256,83531,2,0,L|445:333,1,60.5000018463135,10|2,0:0|0:0,0:0:0:0:
437,369,83872,2,0,P|372:356|311:346,1,121.000003692627,2|10,3:2|0:0,0:0:0:0:
268,369,84383,2,0,P|203:356|142:346,1,121.000003692627,2|0,0:0|3:2,0:0:0:0:
95,334,84895,1,8,0:0:0:0:
19,239,85236,6,0,P|83:213|143:223,1,121.000003692627,2|10,3:2|0:0,0:0:0:0:
181,254,85747,1,2,0:0:0:0:
181,254,85917,1,2,3:2:0:0:
276,180,86258,2,0,L|262:112,1,60.5000018463135,10|2,0:0|0:0,0:0:0:0:
252,67,86599,2,0,P|316:41|376:51,1,121.000003692627,2|10,3:2|0:0,0:0:0:0:
415,70,87111,2,0,P|425:129|439:191,1,121.000003692627,2|0,0:0|3:2,0:0:0:0:
454,240,87622,1,8,0:0:0:0:
377,333,87963,6,0,P|366:273|353:212,1,121.000003692627,2|10,3:2|0:0,0:0:0:0:
343,165,88474,1,2,0:0:0:0:
343,165,88645,2,0,P|304:176|275:181,1,60.5000018463135,0|0,3:2|3:2,0:0:0:0:
231,193,88986,1,8,0:0:0:0:
255,311,89327,2,0,P|207:279|121:287,1,121.000003692627,2|10,3:2|0:0,0:0:0:0:
100,305,89838,1,2,0:0:0:0:
100,305,90008,2,0,P|62:312|31:320,1,60.5000018463135,0|0,3:2|3:2,0:0:0:0:
0,282,90349,1,8,0:0:0:0:
17,162,90690,6,0,P|77:160|122:203,1,121.000003692627,2|10,3:2|0:0,0:0:0:0:
163,231,91202,2,0,P|207:191|266:194,1,121.000003692627,2|2,0:0|3:2,0:0:0:0:
313,220,91713,1,8,0:0:0:0:
412,150,92054,2,0,P|404:113|402:85,1,60.5000018463135,2|8,3:2|0:0,0:0:0:0:
397,40,92395,1,8,0:0:0:0:
397,40,92565,2,0,P|333:53|277:57,1,121.000003692627,4|2,3:2|3:2,0:0:0:0:
222,60,93077,1,10,0:0:0:0:
161,164,93417,6,0,P|171:229|177:299,1,121.000003692627,6|10,3:2|0:0,0:0:0:0:
186,342,93929,1,2,0:0:0:0:
186,342,94099,1,2,3:2:0:0:
290,281,94440,1,10,0:0:0:0:
367,373,94781,2,0,P|405:367|442:365,1,60.5000018463135,2|2,3:2|0:0,0:0:0:0:
485,363,95122,1,10,0:0:0:0:
485,363,95292,2,0,P|475:298|469:228,1,121.000003692627,2|0,0:0|3:2,0:0:0:0:
464,188,95804,1,8,0:0:0:0:
498,72,96145,6,0,P|436:68|378:105,1,121.000003692627,2|10,3:2|0:0,0:0:0:0:
350,137,96656,1,2,0:0:0:0:
350,137,96827,1,2,3:2:0:0:
279,39,97167,1,10,0:0:0:0:
174,100,97508,2,0,B|118:92|118:92|115:89|115:89|37:79,1,121.000003692627,2|10,3:2|0:0,0:0:0:0:
17,121,98020,2,0,B|9:176|9:176|6:179|6:179|-3:257,1,121.000003692627,2|0,0:0|3:2,0:0:0:0:
9,293,98531,1,8,0:0:0:0:
114,352,98872,6,0,P|181:359|235:324,1,121.000003692627,2|10,3:2|0:0,0:0:0:0:
253,286,99383,2,0,L|229:150,1,121.000003692627,2|0,0:0|3:2,0:0:0:0:
221,112,99895,1,8,0:0:0:0:
306,25,100236,2,0,P|347:17|390:12,1,60.5000018463135,2|2,3:2|0:0,0:0:0:0:
423,15,100577,1,10,0:0:0:0:
423,15,100747,2,0,L|447:151,1,121.000003692627,2|0,0:0|3:2,0:0:0:0:
457,187,101258,1,8,0:0:0:0:
492,302,101599,6,0,P|440:277|354:287,1,121.000003692627,2|10,3:2|0:0,0:0:0:0:
325,296,102111,1,2,0:0:0:0:
286,181,102452,1,2,3:2:0:0:
172,212,102792,1,2,0:0:0:0:
172,212,102963,2,0,P|187:277|190:340,1,121.000003692627,2|10,3:2|0:0,0:0:0:0:
148,366,103474,2,0,P|83:381|20:384,1,121.000003692627,8|8,3:2|0:0,0:0:0:0:
0,336,103986,1,0,3:2:0:0:
55,228,104327,6,0,P|40:163|37:100,1,121.000003692627,4|8,3:2|0:0,0:0:0:0:
70,67,104838,1,0,0:0:0:0:
70,67,105008,2,0,P|103:76|144:80,1,60.5000018463135,0|0,3:2|3:2,0:0:0:0:
183,80,105349,1,8,0:0:0:0:
215,196,105690,2,0,P|219:256|233:315,1,121.000003692627,0|8,3:2|0:0,0:0:0:0:
262,367,106202,1,0,0:0:0:0:
262,367,106372,2,0,P|295:358|336:354,1,60.5000018463135,2|0,3:2|3:2,0:0:0:0:
374,345,106713,1,8,0:0:0:0:
474,278,107054,6,0,P|463:213|448:154,1,121.000003692627,2|8,3:2|0:0,0:0:0:0:
415,123,107565,1,0,0:0:0:0:
415,123,107736,2,0,P|350:133|291:148,1,121.000003692627,2|8,3:2|0:0,0:0:0:0:
246,142,108247,1,0,0:0:0:0:
246,142,108417,2,0,P|235:77|220:18,1,121.000003692627,2|8,3:2|0:0,0:0:0:0:
101,4,109099,2,0,P|76:22|70:60,1,60.5000018463135,0|0,3:2|3:2,0:0:0:0:
55,102,109440,2,0,L|78:177,1,60.5000018463135,8|0,0:0|0:0,0:0:0:0:
72,214,109781,6,0,P|127:183|201:200,1,121.000003692627,2|8,3:2|0:0,0:0:0:0:
277,265,110463,2,0,P|267:302|262:339,1,60.5000018463135,0|0,3:2|3:2,0:0:0:0:
261,378,110804,1,8,0:0:0:0:
372,330,111145,2,0,P|421:295|414:225,1,121.000003692627,2|8,3:2|0:0,0:0:0:0:
343,144,111827,2,0,P|306:154|269:159,1,60.5000018463135,0|0,3:2|3:2,0:0:0:0:
229,163,112168,1,8,0:0:0:0:
204,44,112508,6,0,B|264:56|264:56|270:54|270:54|332:67,1,121.000003692627,2|8,3:2|0:0,0:0:0:0:
376,46,113020,1,2,0:0:0:0:
376,46,113190,2,0,L|457:33,1,60.5000018463135,2|2,3:2|3:2,0:0:0:0:
486,57,113531,1,10,0:0:0:0:
450,172,113872,2,0,P|462:229|471:293,1,121.000003692627,10|2,3:2|0:3,0:0:0:0:
440,336,114383,2,0,P|383:348|319:357,1,121.000003692627,10|2,3:2|0:3,0:0:0:0:
272,330,114895,2,0,P|265:286|263:261,1,60.5000018463135,14|8,3:2|0:0,0:0:0:0:
256,215,115236,1,4,3:2:0:0:
