osu file format v14

[General]
AudioFilename: audio.ogg
AudioLeadIn: 0
PreviewTime: 54980
Countdown: 0
SampleSet: Soft
StackLeniency: 0.4
Mode: 0
LetterboxInBreaks: 0
WidescreenStoryboard: 1

[Editor]
DistanceSpacing: 1.3
BeatDivisor: 4
GridSize: 16
TimelineZoom: 1.3

[Metadata]
Title:breath of stella
TitleUnicode:breath of stella
Artist:Aimiya Zero
ArtistUnicode:相宮零
Creator:Matsuyuki Ame
Version:hard
Source:終のステラ
Tags:rk657 Key Stella of the End VISUAL ARTS japanese rock jrock j-rock tsui no stella Kinetic Novel キネティックノベル HarryP 針原翼 Harihara Tsubasa pop jpop j-pop
BeatmapID:3964127
BeatmapSetID:1920042

[Difficulty]
HPDrainRate:4
CircleSize:3.8
OverallDifficulty:6.5
ApproachRate:8
SliderMultiplier:1.4
SliderTickRate:1

[Events]
//Background and Video events
0,0,"Philia3.jpg",0,0
Video,-710,"video.mp4"
//Break Periods
//Storyboard Layer 0 (Background)
//Storyboard Layer 1 (Fail)
//Storyboard Layer 2 (Pass)
//Storyboard Layer 3 (Foreground)
//Storyboard Layer 4 (Overlay)
//Storyboard Sound Samples

[TimingPoints]
-673,340.909090909091,4,2,1,40,1,0
10236,-100,4,2,1,75,0,0
10406,-100,4,2,1,30,0,0
10577,-100,4,2,1,40,0,0
10747,-100,4,2,1,45,0,0
10917,-100,4,2,1,55,0,0
11088,-100,4,2,1,65,0,0
11258,-100,4,2,1,70,0,0
11429,-100,4,2,1,75,0,0
11599,-100,4,2,1,50,0,0
15690,-100,4,2,1,75,0,0
17224,-125,4,2,1,60,0,0
17736,-95.2380952380952,4,2,1,75,0,0
22508,-117.647058823529,4,2,1,50,0,0
22849,-117.647058823529,4,2,1,30,0,0
23190,-117.647058823529,4,2,1,50,0,0
24383,-117.647058823529,4,2,1,30,0,0
24554,-117.647058823529,4,2,1,50,0,0
25065,-117.647058823529,4,2,1,30,0,0
25236,-117.647058823529,4,2,1,50,0,0
25577,-117.647058823529,4,2,1,30,0,0
25804,-117.647058823529,4,2,1,50,0,0
27111,-117.647058823529,4,2,1,30,0,0
27281,-117.647058823529,4,2,1,50,0,0
27452,-117.647058823529,4,2,1,60,0,0
27963,-117.647058823529,4,2,1,50,0,0
28304,-117.647058823529,4,2,1,30,0,0
28645,-117.647058823529,4,2,1,50,0,0
29838,-117.647058823529,4,2,1,30,0,0
30008,-117.647058823529,4,2,1,50,0,0
30520,-117.647058823529,4,2,1,30,0,0
30690,-117.647058823529,4,2,1,50,0,0
31031,-117.647058823529,4,2,1,30,0,0
31372,-117.647058823529,4,2,1,50,0,0
32565,-117.647058823529,4,2,1,55,0,0
32736,-117.647058823529,4,2,1,70,0,0
33247,-117.647058823529,4,2,1,30,0,0
33417,-100,4,2,1,70,0,0
43986,-100,4,2,1,60,0,0
44327,-100,4,2,1,65,0,0
44667,-105.263157894737,4,2,1,65,0,0
48417,-105.263157894737,4,2,1,75,0,0
49781,-105.263157894737,4,2,1,70,0,0
52508,-105.263157894737,4,2,1,75,0,0
53872,-105.263157894737,4,2,1,60,0,0
54213,-100,4,2,1,70,0,0
54554,-95.2380952380952,4,2,1,80,0,0
55236,-86.9565217391304,4,2,1,85,0,1
77054,-95.2380952380952,4,2,1,70,0,0
79781,-95.2380952380952,4,2,1,80,0,0
81145,-95.2380952380952,4,2,1,50,0,0
81315,-95.2380952380952,4,2,1,55,0,0
81486,-95.2380952380952,4,2,1,60,0,0
81656,-95.2380952380952,4,2,1,65,0,0
81827,-95.2380952380952,4,2,1,70,0,0
81997,-95.2380952380952,4,2,1,80,0,0
82508,-83.3333333333333,4,2,1,85,0,1
104156,-83.3333333333333,4,2,1,85,0,0
104327,-83.3333333333333,4,2,1,85,0,1
115236,-83.3333333333333,4,2,1,85,0,0
120690,344.827586206897,4,2,1,30,1,0
121379,340.909090909091,4,2,1,30,1,0
122060,337.078651685393,4,2,1,30,1,0
122565,365.853658536586,4,2,1,30,1,0
122747,368.098159509203,4,2,1,30,1,0
123115,377.358490566038,4,2,1,30,1,0
123492,331.491712707183,4,2,1,30,1,0
123657,363.636363636364,4,2,1,30,1,0
124020,437.956204379563,4,2,1,30,1,0
124238,365.853658536586,4,2,1,30,1,0
124603,370.37037037037,4,2,1,30,1,0
124973,472.440944881889,4,2,1,30,1,0
125445,500,4,2,1,30,1,0
125945,530.973451327434,4,2,1,30,1,0

[Colours]
Combo1 : 182,199,61
Combo2 : 148,214,216
Combo3 : 87,90,86
Combo4 : 38,168,183

[HitObjects]
114,268,10236,6,0,P|178:267|265:319,1,140,8|10,3:2|0:0,0:0:0:0:
300,367,10747,1,8,0:0:0:0:
300,367,10917,2,0,P|339:352|377:347,1,70,10|8,0:0|0:0,0:0:0:0:
440,295,11258,1,10,0:0:0:0:
355,248,11429,1,8,0:0:0:0:
406,174,11599,1,4,3:2:0:0:
256,192,11770,12,0,14327,0:0:0:0:
237,49,15520,5,2,0:0:0:0:
237,49,15605,1,2,0:0:0:0:
237,49,15690,2,0,P|270:66|324:63,1,70,14|2,0:0|3:2,0:0:0:0:
387,49,16031,1,2,3:2:0:0:
347,160,16202,2,0,L|187:192,1,140,14|2,0:0|3:2,0:0:0:0:
131,144,16713,1,10,0:0:0:0:
98,247,16883,1,8,0:0:0:0:
98,247,17224,6,0,P|72:237|39:233,2,56,2|2|2,0:0|0:0|0:0,0:0:0:0:
155,329,17736,1,4,3:2:0:0:
222,259,17906,2,0,P|210:209|210:166,1,73.4999977569581,2|10,0:0|0:0,0:0:0:0:
167,100,18247,2,0,P|216:78|306:145,1,146.999995513916,2|2,0:0|0:0,0:0:0:0:
345,197,18758,6,0,P|380:186|430:179,1,73.4999977569581,10|2,0:0|0:0,0:0:0:0:
512,154,19099,1,2,3:2:0:0:
512,154,19270,1,2,3:2:0:0:
408,84,19440,2,0,P|424:150|439:248,1,146.999995513916,10|0,0:0|3:2,0:0:0:0:
462,337,19952,5,2,3:2:0:0:
381,296,20122,2,0,P|337:308|291:308,1,73.4999977569581,10|2,0:0|0:0,0:0:0:0:
229,267,20463,1,2,3:2:0:0:
229,267,20633,1,2,3:2:0:0:
279,185,20804,2,0,P|272:137|268:94,1,73.4999977569581,10|2,0:0|0:0,0:0:0:0:
194,33,21145,6,0,P|148:34|114:43,1,73.4999977569581,2|10,3:2|0:0,0:0:0:0:
109,45,21400,1,8,0:0:0:0:
109,45,21486,1,10,0:0:0:0:
32,116,21656,2,0,B|71:122|105:134|105:134|99:170|90:212,1,146.999995513916,14|2,0:0|3:2,0:0:0:0:
50,274,22167,2,0,P|112:244|151:256,1,110.249996635437,10|0,0:0|0:0,0:0:0:0:
182,289,22508,6,0,L|315:269,1,119.000002269745,4|8,3:2|0:0,0:0:0:0:
372,259,23020,1,10,0:0:0:0:
322,192,23190,2,0,P|346:132|329:64,1,119.000002269745,2|2,3:2|3:2,0:0:0:0:
250,43,23702,2,0,P|218:86|243:221,1,178.500003404617,2|0,0:0|3:2,0:0:0:0:
283,271,24383,1,8,0:0:0:0:
283,271,24554,2,0,L|294:348,1,59.5000011348725,0|8,3:2|0:0,0:0:0:0:
362,379,24895,2,0,P|419:366|485:365,1,119.000002269745,0|0,3:2|3:2,0:0:0:0:
409,239,25577,6,0,P|413:192|417:161,1,59.5000011348725,8|10,0:0|0:0,0:0:0:0:
456,115,25917,1,2,3:2:0:0:
456,115,26088,1,10,0:0:0:0:
404,49,26258,2,0,P|338:62|278:68,1,119.000002269745,2|2,3:2|3:2,0:0:0:0:
213,49,26770,2,0,P|210:80|230:121,1,59.5000011348725,10|0,0:0|3:2,0:0:0:0:
270,175,27111,2,0,L|251:310,1,119.000002269745,10|10,0:0|0:0,0:0:0:0:
208,358,27622,1,10,3:2:0:0:
157,296,27792,1,8,0:0:0:0:
88,332,27963,1,0,3:2:0:0:
5,215,28304,6,0,P|37:211|72:206,1,59.5000011348725,8|10,0:0|0:0,0:0:0:0:
136,202,28645,2,0,P|150:149|105:88,1,119.000002269745,2|2,3:2|3:2,0:0:0:0:
134,7,29156,2,0,P|196:47|306:39,1,178.500003404617,2|0,0:0|3:2,0:0:0:0:
363,0,29838,1,8,0:0:0:0:
363,0,30008,2,0,L|429:15,1,59.5000011348725,0|8,3:2|0:0,0:0:0:0:
461,77,30349,2,0,P|442:137|436:202,1,119.000002269745,0|0,3:2|3:2,0:0:0:0:
345,303,31031,6,0,P|338:258|330:223,1,59.5000011348725,8|10,0:0|0:0,0:0:0:0:
312,174,31372,1,2,3:2:0:0:
312,174,31542,1,10,0:0:0:0:
253,224,31713,2,0,P|221:226|184:234,1,59.5000011348725,2|2,3:2|0:0,0:0:0:0:
125,195,32054,1,2,3:2:0:0:
83,267,32224,2,0,P|97:329|102:384,1,119.000002269745,2|10,0:0|0:0,0:0:0:0:
192,302,32736,1,8,0:0:0:0:
248,382,32906,2,0,B|295:371|295:371|300:371|300:371|358:356,1,89.2500017023087,10|0,0:0|0:0,0:0:0:0:
348,360,33247,1,8,0:0:0:0:
429,303,33417,6,0,P|404:221|398:145,1,140,4|8,3:2|0:0,0:0:0:0:
355,70,33929,1,2,0:0:0:0:
441,92,34099,2,0,P|478:102|522:100,1,70,2|0,3:2|3:2,0:0:0:0:
414,4,34440,2,0,P|371:37|272:39,1,140,10|0,0:0|3:2,0:0:0:0:
205,22,34952,5,0,0:0:0:0:
205,22,35122,2,0,P|166:12|122:12,1,70,8|0,0:0|0:0,0:0:0:0:
75,78,35463,1,0,3:2:0:0:
75,78,35633,1,0,3:2:0:0:
116,154,35804,2,0,P|155:164|199:164,1,70,8|0,0:0|0:0,0:0:0:0:
278,243,36145,6,0,B|266:303|266:303|252:313|252:313|239:390,2,140,0|8|2,3:2|0:0|3:2,0:0:0:0:
225,176,36997,1,2,3:2:0:0:
172,252,37167,2,0,P|131:254|89:275,1,70,10|2,0:0|0:0,0:0:0:0:
29,211,37508,5,2,3:2:0:0:
29,211,37679,2,0,P|26:167|3:117,1,70,2|8,0:0|0:0,0:0:0:0:
43,60,38020,2,0,P|83:68|120:69,1,70,2|0,0:0|3:2,0:0:0:0:
175,117,38361,2,0,L|295:91,1,105,10|0,0:0|0:0,0:0:0:0:
296,90,38702,1,10,0:0:0:0:
369,9,38872,6,0,B|408:17|442:23|442:23|434:50|425:107,1,140,0|8,3:2|0:0,0:0:0:0:
465,162,39383,1,2,0:0:0:0:
398,213,39554,2,0,P|361:200|319:197,1,70,2|0,3:2|3:2,0:0:0:0:
239,180,39895,2,0,L|263:333,1,140,10|0,0:0|3:2,0:0:0:0:
336,375,40406,5,0,0:0:0:0:
336,375,40577,2,0,P|378:364|412:363,1,70,8|0,0:0|0:0,0:0:0:0:
487,326,40917,1,0,3:2:0:0:
487,326,41088,1,0,3:2:0:0:
429,248,41258,2,0,P|387:259|353:260,1,70,8|0,0:0|0:0,0:0:0:0:
315,157,41599,6,0,P|387:120|451:141,2,140,0|8|2,3:2|0:0|3:2,0:0:0:0:
251,212,42452,1,2,3:2:0:0:
189,146,42622,2,0,P|201:102|204:65,1,70,10|2,0:0|0:0,0:0:0:0:
136,17,42963,1,2,3:2:0:0:
136,17,43133,2,0,P|92:29|55:32,1,70,2|8,0:0|0:0,0:0:0:0:
3,108,43474,2,0,L|31:235,1,105,2|0,0:0|0:0,0:0:0:0:
31,228,43815,1,10,3:2:0:0:
105,148,43986,2,0,P|113:179|119:209,3,35,10|8|8|8,0:0|0:0|0:0|0:0,0:0:0:0:
120,203,44327,5,4,3:2:0:0:
205,337,44667,2,0,P|245:340|288:354,1,66.4999982242585,2|0,3:2|0:0,0:0:0:0:
325,288,45008,2,0,P|307:251|298:206,1,66.4999982242585,2|0,3:2|0:0,0:0:0:0:
223,205,45349,2,0,P|200:238|165:268,1,66.4999982242585,2|8,3:2|0:0,0:0:0:0:
100,328,45690,5,2,3:2:0:0:
29,282,45861,2,0,B|42:209|42:209|47:202|47:202|59:136,1,132.999996448517,10|2,0:0|0:0,0:0:0:0:
110,85,46372,2,0,P|103:43|95:3,1,66.4999982242585,0|2,3:2|0:0,0:0:0:0:
183,2,46713,2,0,P|190:44|198:84,1,66.4999982242585,2|0,3:2|0:0,0:0:0:0:
169,149,47054,1,0,3:2:0:0:
325,76,47395,6,0,B|345:90|345:90|457:76,1,132.999996448517,2|2,3:2|3:2,0:0:0:0:
512,127,47906,1,2,0:0:0:0:
438,186,48077,2,0,P|394:171|370:172,1,66.4999982242585,2|2,3:2|0:0,0:0:0:0:
269,143,48417,5,10,0:0:0:0:
269,143,48588,2,0,P|276:180|280:218,1,66.4999982242585,2|0,3:2|3:2,0:0:0:0:
357,262,48929,2,0,P|360:295|367:327,1,66.4999982242585,10|0,0:0|3:2,0:0:0:0:
284,384,49270,1,2,3:2:0:0:
284,384,49355,1,0,3:2:0:0:
284,384,49440,2,0,P|212:370|140:361,1,132.999996448517,10|4,0:0|3:2,0:0:0:0:
45,156,50292,5,2,0:0:0:0:
45,156,50463,2,0,P|87:122|177:140,1,132.999996448517,10|2,0:0|3:2,0:0:0:0:
225,187,50974,1,10,0:0:0:0:
280,120,51145,1,2,3:2:0:0:
280,120,51315,2,0,P|270:71|265:39,2,66.4999982242585,10|0|2,0:0|3:2|0:0,0:0:0:0:
334,197,51827,1,8,0:0:0:0:
430,176,51997,2,0,P|419:125|408:62,1,99.7499973363877,10|0,0:0|0:0,0:0:0:0:
408,64,52338,1,2,0:0:0:0:
325,1,52508,6,0,P|255:16|173:29,1,132.999996448517,6|10,3:2|3:2,0:0:0:0:
53,126,53190,2,0,P|68:196|81:278,1,132.999996448517,10|2,0:0|3:2,0:0:0:0:
153,329,53702,1,8,0:0:0:0:
153,329,53787,1,8,0:0:0:0:
153,329,53872,2,0,P|193:313|230:321,1,66.4999982242585,14|0,3:2|0:0,0:0:0:0:
242,234,54213,2,0,P|284:255|299:284,1,70,12|0,3:2|0:0,0:0:0:0:
379,227,54554,2,0,P|390:268|380:305,1,73.4999977569581,14|0,3:2|0:0,0:0:0:0:
311,356,54895,5,8,0:0:0:0:
304,360,54980,1,8,0:0:0:0:
297,365,55065,1,8,0:0:0:0:
290,369,55150,1,8,0:0:0:0:
283,374,55236,6,0,B|189:359|189:359|179:323|137:309,1,161.000003070831,6|10,3:2|0:0,0:0:0:0:
64,277,55747,1,2,0:0:0:0:
143,191,55917,2,0,P|128:138|125:83,1,80.5000015354157,2|0,3:2|3:2,0:0:0:0:
216,240,56258,1,10,0:0:0:0:
216,240,56429,1,2,0:0:0:0:
303,176,56599,6,0,P|350:229|442:213,1,161.000003070831,2|10,3:2|0:0,0:0:0:0:
496,157,57111,1,2,0:0:0:0:
496,157,57196,1,2,0:0:0:0:
496,157,57281,2,0,P|483:104|480:60,1,80.5000015354157,0|0,3:2|3:2,0:0:0:0:
419,11,57622,2,0,P|366:24|322:27,1,80.5000015354157,8|2,0:0|0:0,0:0:0:0:
248,110,57963,6,0,B|167:98|185:49|84:39,1,161.000003070831,2|10,3:2|0:0,0:0:0:0:
17,75,58474,1,2,0:0:0:0:
43,161,58645,1,2,3:2:0:0:
43,161,58815,1,2,3:2:0:0:
128,133,58986,2,0,P|142:181|142:226,1,80.5000015354157,10|0,0:0|0:0,0:0:0:0:
85,319,59327,6,0,P|158:285|220:294,1,120.750002303124,2|2,3:2|0:0,0:0:0:0:
215,294,59667,1,10,0:0:0:0:
323,338,59838,2,0,B|313:303|303:272|303:272|315:244|315:244|304:207|295:170,1,161.000003070831,2|0,0:0|3:2,0:0:0:0:
354,119,60349,2,0,P|406:151|474:148,1,120.750002303124,8|0,0:0|0:0,0:0:0:0:
494,138,60690,6,0,P|479:213|468:312,1,161.000003070831,2|10,3:2|0:0,0:0:0:0:
401,354,61202,1,2,0:0:0:0:
401,354,61372,2,0,P|355:341|312:338,1,80.5000015354157,0|0,3:2|3:2,0:0:0:0:
271,266,61713,2,0,P|284:220|287:177,1,80.5000015354157,8|2,0:0|0:0,0:0:0:0:
219,99,62054,6,0,P|169:85|75:147,1,161.000003070831,2|10,3:2|0:0,0:0:0:0:
22,210,62565,1,2,0:0:0:0:
22,210,62736,2,0,P|65:215|107:226,1,80.5000015354157,0|0,3:2|3:2,0:0:0:0:
168,276,63077,2,0,P|163:319|152:361,1,80.5000015354157,8|2,0:0|0:0,0:0:0:0:
283,326,63417,6,0,L|251:175,1,120.750002303124,2|0,3:2|0:0,0:0:0:0:
252,181,63758,1,10,0:0:0:0:
352,242,63929,2,0,P|395:257|442:255,1,80.5000015354157,2|0,0:0|3:2,0:0:0:0:
489,192,64270,2,0,P|476:146|468:108,1,80.5000015354157,2|8,3:2|0:0,0:0:0:0:
472,14,64611,1,2,0:0:0:0:
472,14,64696,1,2,0:0:0:0:
472,14,64781,1,2,3:2:0:0:
383,83,64952,6,0,P|339:92|298:95,1,80.5000015354157,2|10,3:2|0:0,0:0:0:0:
197,47,65292,2,0,P|256:89|238:190,1,161.000003070831,6|2,3:2|3:2,0:0:0:0:
190,233,65804,2,0,P|126:218|73:213,1,80.5000015354157,10|10,0:0|0:0,0:0:0:0:
74,207,66059,1,8,0:0:0:0:
74,207,66145,6,0,B|57:258|37:288|37:288|67:306|98:339,1,161.000003070831,6|10,3:2|0:0,0:0:0:0:
168,384,66656,1,2,0:0:0:0:
234,301,66827,2,0,P|268:285|322:286,1,80.5000015354157,2|0,3:2|3:2,0:0:0:0:
385,330,67167,2,0,P|424:328|461:312,1,80.5000015354157,10|0,0:0|0:0,0:0:0:0:
364,219,67508,5,2,3:2:0:0:
364,219,67679,2,0,P|370:168|379:119,1,80.5000015354157,2|10,0:0|0:0,0:0:0:0:
291,82,68020,2,0,P|277:161|263:263,1,161.000003070831,2|0,0:0|3:2,0:0:0:0:
179,185,68531,2,0,P|185:134|194:85,1,80.5000015354157,8|2,0:0|0:0,0:0:0:0:
258,0,68872,6,0,P|314:48|432:33,1,161.000003070831,2|10,3:2|0:0,0:0:0:0:
476,6,69383,1,2,0:0:0:0:
468,104,69554,2,0,P|473:148|484:193,1,80.5000015354157,2|0,3:2|3:2,0:0:0:0:
504,279,69895,2,0,P|448:278|417:251,1,80.5000015354157,10|0,0:0|0:0,0:0:0:0:
364,172,70236,6,0,L|223:201,1,120.750002303124,2|0,3:2|0:0,0:0:0:0:
221,202,70577,1,10,0:0:0:0:
277,291,70747,2,0,B|256:322|256:322|202:309|130:301,1,161.000003070831,2|0,0:0|3:2,0:0:0:0:
47,304,71258,1,8,0:0:0:0:
101,198,71429,1,2,0:0:0:0:
101,198,71514,1,2,0:0:0:0:
101,198,71599,6,0,B|65:103|129:112|92:26,1,161.000003070831,2|10,3:2|0:0,0:0:0:0:
185,0,72111,2,0,P|226:44|323:20,1,161.000003070831,2|0,0:0|3:2,0:0:0:0:
409,0,72622,1,8,0:0:0:0:
409,0,72792,1,2,0:0:0:0:
383,100,72963,5,2,3:2:0:0:
474,90,73133,2,0,P|464:137|458:185,1,80.5000015354157,2|8,0:0|0:0,0:0:0:0:
391,247,73474,2,0,B|324:232|324:232|306:208|306:208|232:195,1,161.000003070831,2|0,0:0|3:2,0:0:0:0:
178,262,73986,2,0,P|171:323|204:371,1,120.750002303124,8|0,0:0|0:0,0:0:0:0:
233,381,74327,6,0,P|325:360|399:355,1,161.000003070831,2|10,3:2|0:0,0:0:0:0:
488,345,74838,2,0,P|479:293|476:251,1,80.5000015354157,2|0,0:0|3:2,0:0:0:0:
459,169,75179,1,2,3:2:0:0:
391,247,75349,1,10,0:0:0:0:
391,247,75520,1,2,0:0:0:0:
300,176,75690,6,0,L|198:198,1,80.5000015354157,2|8,3:2|0:0,0:0:0:0:
205,200,75946,1,8,0:0:0:0:
205,200,76031,1,10,0:0:0:0:
243,107,76202,1,8,0:0:0:0:
172,45,76372,2,0,P|152:43|129:38,3,40.2500007677078,2|2|2|2,3:2|0:3|0:3|0:3,0:0:0:0:
92,21,76713,2,0,P|71:23|52:27,3,40.2500007677078,2|8|8|8,3:2|0:0|0:0|0:0,0:0:0:0:
13,45,77054,5,6,3:2:0:0:
50,121,77224,2,0,P|47:162|37:205,1,73.4999977569581,10|2,0:0|3:2,0:0:0:0:
68,269,77565,2,0,P|105:273|152:282,1,73.4999977569581,2|2,0:0|3:2,0:0:0:0:
219,298,77906,1,2,0:0:0:0:
199,219,78077,2,0,P|203:181|212:135,1,73.4999977569581,2|2,3:2|3:2,0:0:0:0:
256,69,78417,5,10,0:0:0:0:
293,160,78588,2,0,P|331:168|375:173,1,73.4999977569581,2|2,3:2|0:0,0:0:0:0:
492,140,78929,1,2,3:2:0:0:
492,140,79014,1,0,3:2:0:0:
492,140,79099,1,10,0:0:0:0:
474,219,79270,1,10,0:0:0:0:
457,300,79440,2,0,P|402:298|343:325,1,110.249996635437,10|0,0:0|0:0,0:0:0:0:
331,345,79781,6,0,L|241:327,1,73.4999977569581,10|2,0:0|0:0,0:0:0:0:
181,312,80122,1,2,3:2:0:0:
100,380,80292,2,0,P|48:312|74:238,1,146.999995513916,10|2,0:0|0:0,0:0:0:0:
84,172,80804,2,0,L|156:186,1,73.4999977569581,10|2,0:0|0:0,0:0:0:0:
270,200,81145,6,0,P|285:153|278:122,1,73.4999977569581,2|10,3:2|0:0,0:0:0:0:
235,62,81486,1,8,0:0:0:0:
235,62,81656,1,10,0:0:0:0:
323,3,81827,1,10,0:0:0:0:
364,108,81997,1,10,0:0:0:0:
446,53,82167,2,0,P|465:64|483:63,3,36.749998878479,10|8|10|8,0:0|0:0|0:0|0:0,0:0:0:0:
512,69,82508,6,0,B|496:162|496:162|450:162|418:202,1,167.999994873047,6|10,3:2|0:0,0:0:0:0:
350,225,83020,1,2,0:0:0:0:
426,309,83190,2,0,P|465:293|520:292,1,83.9999974365235,2|0,3:2|3:2,0:0:0:0:
380,379,83531,1,10,0:0:0:0:
380,379,83702,1,2,0:0:0:0:
247,332,83872,6,0,P|163:356|76:351,1,167.999994873047,2|10,3:2|0:0,0:0:0:0:
23,277,84383,1,2,0:0:0:0:
23,277,84469,1,2,0:0:0:0:
23,277,84554,2,0,P|31:226|41:185,1,83.9999974365235,0|0,3:2|3:2,0:0:0:0:
90,118,84895,2,0,P|140:126|182:136,1,83.9999974365235,8|2,0:0|0:0,0:0:0:0:
203,224,85236,6,0,P|118:211|19:189,1,167.999994873047,2|10,3:2|0:0,0:0:0:0:
8,101,85747,1,2,0:0:0:0:
86,35,85917,2,0,P|151:51|216:60,1,125.999996154785,2|0,3:2|0:0,0:0:0:0:
236,64,86258,1,10,0:0:0:0:
283,154,86429,1,2,0:0:0:0:
203,224,86599,6,0,B|214:283|214:283|212:289|212:289|227:361,1,125.999996154785,2|0,3:2|0:0,0:0:0:0:
233,380,86940,1,10,0:0:0:0:
307,291,87111,1,2,0:0:0:0:
372,352,87281,2,0,P|421:340|462:338,1,83.9999974365235,0|0,3:2|3:2,0:0:0:0:
511,260,87622,2,0,P|459:230|381:249,1,125.999996154785,8|0,0:0|0:0,0:0:0:0:
377,254,87963,6,0,L|405:84,1,167.999994873047,2|10,3:2|0:0,0:0:0:0:
358,5,88474,1,2,0:0:0:0:
273,70,88645,2,0,P|226:75|174:85,1,83.9999974365235,0|0,3:2|3:2,0:0:0:0:
114,30,88986,2,0,P|67:35|15:45,1,83.9999974365235,8|2,0:0|0:0,0:0:0:0:
2,143,89327,6,0,P|38:197|142:186,1,167.999994873047,2|10,3:2|0:0,0:0:0:0:
220,147,89838,1,2,0:0:0:0:
209,245,90008,2,0,P|219:289|227:351,1,83.9999974365235,0|0,3:2|3:2,0:0:0:0:
315,292,90349,2,0,P|305:248|297:186,1,83.9999974365235,8|2,0:0|0:0,0:0:0:0:
347,88,90690,6,0,L|486:115,1,125.999996154785,2|0,3:2|0:0,0:0:0:0:
504,122,91031,1,10,0:0:0:0:
471,206,91202,2,0,P|427:197|376:189,1,83.9999974365235,2|0,0:0|3:2,0:0:0:0:
299,209,91542,2,0,P|308:249|314:291,1,83.9999974365235,2|8,3:2|0:0,0:0:0:0:
251,359,91883,2,0,P|207:350|156:342,1,83.9999974365235,2|2,0:0|3:2,0:0:0:0:
59,313,92224,5,8,0:0:0:0:
61,305,92309,1,8,0:0:0:0:
63,296,92395,1,8,0:0:0:0:
65,288,92480,1,8,0:0:0:0:
67,280,92565,2,0,P|147:230|225:264,1,167.999994873047,4|2,3:2|3:2,0:0:0:0:
299,209,93077,2,0,P|289:159|281:106,1,83.9999974365235,10|10,0:0|0:0,0:0:0:0:
182,85,93417,6,0,P|196:160|215:272,1,167.999994873047,6|10,3:2|0:0,0:0:0:0:
281,310,93929,1,2,0:0:0:0:
365,249,94099,1,2,3:2:0:0:
365,249,94270,1,2,3:2:0:0:
423,329,94440,2,0,P|470:335|513:353,1,83.9999974365235,10|2,0:0|0:0,0:0:0:0:
458,248,94781,5,2,3:2:0:0:
458,248,94952,2,0,L|441:155,1,83.9999974365235,2|10,0:0|0:0,0:0:0:0:
498,68,95292,2,0,B|452:59|420:37|420:37|407:72|367:113,1,167.999994873047,2|0,0:0|3:2,0:0:0:0:
323,174,95804,2,0,P|270:155|194:145,1,125.999996154785,8|0,0:0|0:0,0:0:0:0:
176,142,96145,6,0,P|170:91|196:56,1,83.9999974365235,2|0,3:2|0:0,0:0:0:0:
110,0,96486,1,10,0:0:0:0:
110,0,96656,1,2,0:0:0:0:
32,91,96827,2,0,P|50:129|59:190,1,83.9999974365235,2|0,3:2|3:2,0:0:0:0:
98,246,97167,2,0,P|153:233|199:229,1,83.9999974365235,10|0,0:0|0:0,0:0:0:0:
269,323,97508,6,0,B|254:352|254:352|145:334,1,125.999996154785,2|0,3:2|0:0,0:0:0:0:
133,330,97849,1,10,0:0:0:0:
191,237,98020,2,0,P|270:189|348:216,1,167.999994873047,2|0,0:0|3:2,0:0:0:0:
441,298,98531,2,0,P|394:297|346:313,1,83.9999974365235,8|2,0:0|0:0,0:0:0:0:
433,198,98872,6,0,B|441:128|441:128|446:120|446:120|455:54,1,125.999996154785,2|0,3:2|0:0,0:0:0:0:
457,41,99213,1,10,0:0:0:0:
339,1,99383,2,0,B|244:16|244:16|236:60|201:77,1,167.999994873047,2|0,0:0|3:2,0:0:0:0:
91,37,99895,2,0,P|137:6|175:11,1,83.9999974365235,8|2,0:0|0:0,0:0:0:0:
134,115,100236,5,2,3:2:0:0:
25,87,100406,1,2,0:0:0:0:
72,201,100577,1,10,0:0:0:0:
72,201,100747,2,0,P|82:267|97:368,1,167.999994873047,2|0,0:0|3:2,0:0:0:0:
185,315,101258,2,0,P|175:267|171:227,1,83.9999974365235,8|2,0:0|0:0,0:0:0:0:
277,142,101599,6,0,P|328:173|404:171,1,125.999996154785,2|0,3:2|0:0,0:0:0:0:
429,165,101940,1,10,0:0:0:0:
454,59,102111,2,0,P|409:70|369:73,1,83.9999974365235,2|0,0:0|3:2,0:0:0:0:
295,12,102452,2,0,P|253:15|212:25,1,83.9999974365235,2|10,3:2|0:0,0:0:0:0:
146,82,102792,1,2,0:0:0:0:
187,194,102963,6,0,P|191:231|204:310,1,83.9999974365235,2|8,3:2|0:0,0:0:0:0:
203,295,103219,1,8,0:0:0:0:
203,295,103304,1,10,0:0:0:0:
274,357,103474,2,0,P|311:352|390:340,1,83.9999974365235,8|10,3:2|0:0,0:0:0:0:
374,343,103730,1,8,0:0:0:0:
374,343,103815,1,8,0:0:0:0:
449,281,103986,2,0,P|478:290|510:292,3,41.9999987182618,8|8|10|8,3:2|0:0|0:0|0:0,0:0:0:0:
416,248,104327,6,0,P|396:165|462:113,2,167.999994873047,4|8|0,3:2|0:0|3:2,0:0:0:0:
374,343,105179,1,0,3:2:0:0:
300,283,105349,2,0,P|255:292|216:295,1,83.9999974365235,8|0,0:0|0:0,0:0:0:0:
127,340,105690,6,0,P|120:287|118:249,1,83.9999974365235,0|0,3:2|0:0,0:0:0:0:
177,176,106031,2,0,B|226:179|263:195|263:195|263:153|283:86,1,167.999994873047,8|2,0:0|3:2,0:0:0:0:
283,26,106542,1,0,3:2:0:0:
188,81,106713,2,0,P|142:97|93:103,1,83.9999974365235,8|0,0:0|0:0,0:0:0:0:
37,208,107054,6,0,P|108:196|174:261,1,167.999994873047,2|8,3:2|0:0,0:0:0:0:
215,350,107565,1,2,0:0:0:0:
215,350,107650,1,2,0:0:0:0:
215,350,107736,2,0,P|261:335|309:332,1,83.9999974365235,2|0,3:2|3:2,0:0:0:0:
381,297,108077,2,0,P|366:251|363:203,1,83.9999974365235,8|0,0:0|0:0,0:0:0:0:
308,144,108417,5,2,3:2:0:0:
231,201,108588,1,0,0:0:0:0:
163,122,108758,2,0,P|178:76|181:28,1,83.9999974365235,8|0,0:0|0:0,0:0:0:0:
256,0,109099,1,0,3:2:0:0:
256,0,109270,1,0,3:2:0:0:
327,65,109440,2,0,L|460:46,1,125.999996154785,8|0,0:0|0:0,0:0:0:0:
483,46,109781,6,0,P|517:87|447:183,2,167.999994873047,2|8|0,3:2|0:0|3:2,0:0:0:0:
391,18,110633,1,0,3:2:0:0:
360,131,110804,2,0,P|371:173|382:241,1,83.9999974365235,8|0,0:0|0:0,0:0:0:0:
321,307,111145,6,0,B|388:270|442:311|442:311|461:356,2,167.999994873047,2|8|0,3:2|0:0|3:2,0:0:0:0:
255,372,111997,1,0,3:2:0:0:
177,290,112167,2,0,P|190:242|194:181,1,83.9999974365235,8|0,0:0|0:0,0:0:0:0:
259,132,112508,6,0,P|182:169|99:159,1,167.999994873047,2|8,3:2|0:0,0:0:0:0:
33,102,113020,1,2,0:0:0:0:
33,102,113105,1,2,0:0:0:0:
33,102,113190,2,0,P|17:44|22:3,1,83.9999974365235,0|2,3:2|3:2,0:0:0:0:
125,6,113531,2,0,P|141:64|136:105,1,83.9999974365235,10|0,0:0|0:0,0:0:0:0:
92,184,113872,6,0,P|79:232|75:293,1,83.9999974365235,10|2,3:2|0:3,0:0:0:0:
75,288,114128,1,2,0:3:0:0:
75,288,114213,1,2,0:3:0:0:
182,305,114383,2,0,P|195:257|199:196,1,83.9999974365235,10|2,3:2|0:3,0:0:0:0:
200,200,114639,1,2,0:3:0:0:
200,200,114724,1,2,0:3:0:0:
303,257,114895,6,0,B|366:241|366:241|374:242|374:242|441:228,1,125.999996154785,14|8,3:2|0:0,0:0:0:0:
457,224,115236,1,4,3:2:0:0:
