osu file format v14

[General]
AudioFilename: audio.ogg
AudioLeadIn: 0
PreviewTime: 54980
Countdown: 0
SampleSet: Soft
StackLeniency: 0.6
Mode: 0
LetterboxInBreaks: 0
WidescreenStoryboard: 1

[Editor]
DistanceSpacing: 1
BeatDivisor: 4
GridSize: 16
TimelineZoom: 1.3

[Metadata]
Title:breath of stella
TitleUnicode:breath of stella
Artist:Aimiya Zero
ArtistUnicode:相宮零
Creator:Matsuyuki Ame
Version:easy
Source:終のステラ
Tags:rk657 Key Stella of the End VISUAL ARTS japanese rock jrock j-rock tsui no stella Kinetic Novel キネティックノベル HarryP 針原翼 Harihara Tsubasa pop jpop j-pop
BeatmapID:3964329
BeatmapSetID:1920042

[Difficulty]
HPDrainRate:3
CircleSize:3
OverallDifficulty:3
ApproachRate:3
SliderMultiplier:0.899999999999999
SliderTickRate:1

[Events]
//Background and Video events
0,0,"Philia2.jpg",0,0
Video,-710,"video.mp4"
//Break Periods
2,22508,31977
//Storyboard Layer 0 (Background)
//Storyboard Layer 1 (Fail)
//Storyboard Layer 2 (Pass)
//Storyboard Layer 3 (Foreground)
//Storyboard Layer 4 (Overlay)
//Storyboard Sound Samples

[TimingPoints]
-673,340.909090909091,4,2,1,40,1,0
10236,-100,4,2,1,75,0,0
10406,-100,4,2,1,30,0,0
10577,-100,4,2,1,40,0,0
10747,-100,4,2,1,45,0,0
10917,-100,4,2,1,55,0,0
11088,-100,4,2,1,65,0,0
11258,-100,4,2,1,70,0,0
11429,-100,4,2,1,75,0,0
11599,-100,4,2,1,50,0,0
15690,-100,4,2,1,75,0,0
17224,-100,4,2,1,60,0,0
17736,-100,4,2,1,75,0,0
22508,-100,4,2,1,50,0,0
22849,-100,4,2,1,30,0,0
23190,-100,4,2,1,50,0,0
24383,-100,4,2,1,30,0,0
24554,-100,4,2,1,50,0,0
25065,-100,4,2,1,30,0,0
25236,-100,4,2,1,50,0,0
25577,-100,4,2,1,30,0,0
25804,-100,4,2,1,50,0,0
27111,-100,4,2,1,30,0,0
27281,-100,4,2,1,50,0,0
27452,-100,4,2,1,60,0,0
27963,-100,4,2,1,50,0,0
28304,-100,4,2,1,30,0,0
28645,-100,4,2,1,50,0,0
29838,-100,4,2,1,30,0,0
30008,-100,4,2,1,50,0,0
30520,-100,4,2,1,30,0,0
30690,-100,4,2,1,50,0,0
31031,-100,4,2,1,30,0,0
31372,-100,4,2,1,50,0,0
32565,-100,4,2,1,55,0,0
32736,-100,4,2,1,70,0,0
33247,-100,4,2,1,30,0,0
33417,-100,4,2,1,70,0,0
43986,-100,4,2,1,60,0,0
44327,-100,4,2,1,65,0,0
48417,-100,4,2,1,75,0,0
49781,-100,4,2,1,70,0,0
52508,-100,4,2,1,75,0,0
53872,-100,4,2,1,60,0,0
54213,-100,4,2,1,70,0,0
54554,-100,4,2,1,80,0,0
55236,-100,4,2,1,85,0,1
77054,-100,4,2,1,70,0,0
79781,-100,4,2,1,80,0,0
81145,-100,4,2,1,50,0,0
81315,-100,4,2,1,55,0,0
81486,-100,4,2,1,60,0,0
81656,-100,4,2,1,65,0,0
81827,-100,4,2,1,70,0,0
81997,-100,4,2,1,80,0,0
82508,-100,4,2,1,85,0,1
104156,-100,4,2,1,85,0,0
104327,-100,4,2,1,85,0,1
115236,-100,4,2,1,85,0,0
120690,344.827586206897,4,2,1,30,1,0
121379,340.909090909091,4,2,1,30,1,0
122060,337.078651685393,4,2,1,30,1,0
122565,365.853658536586,4,2,1,30,1,0
122747,368.098159509203,4,2,1,30,1,0
123115,377.358490566038,4,2,1,30,1,0
123492,331.491712707183,4,2,1,30,1,0
123657,363.636363636364,4,2,1,30,1,0
124020,437.956204379563,4,2,1,30,1,0
124238,365.853658536586,4,2,1,30,1,0
124603,370.37037037037,4,2,1,30,1,0
124973,472.440944881889,4,2,1,30,1,0
125445,500,4,2,1,30,1,0
125945,530.973451327434,4,2,1,30,1,0

[Colours]
Combo1 : 182,199,61
Combo2 : 148,214,216
Combo3 : 87,90,86
Combo4 : 38,168,183

[HitObjects]
105,238,10236,6,0,L|214:252,1,89.9999999999999,8|10,3:2|0:0,0:0:0:0:
283,262,10917,1,10,0:0:0:0:
341,193,11258,1,10,0:0:0:0:
277,128,11599,1,4,3:2:0:0:
256,192,11940,12,0,14327,0:0:0:0:
363,63,15690,6,0,P|415:95|495:90,2,135,14|14|10,0:0|0:0|0:0,0:0:0:0:
121,185,17736,2,0,L|136:295,1,89.9999999999999,4|10,3:2|0:0,0:0:0:0:
184,347,18417,1,0,3:2:0:0:
272,333,18758,1,10,0:0:0:0:
305,249,19099,2,0,L|290:139,1,89.9999999999999,2|10,3:2|0:0,0:0:0:0:
343,84,19781,2,0,P|389:103|433:104,1,89.9999999999999,0|10,3:2|0:0,0:0:0:0:
510,142,20463,1,2,3:2:0:0:
508,232,20804,1,10,0:0:0:0:
420,251,21145,2,0,B|432:310|432:310|428:323|428:323|441:387,2,135,2|14|10,3:2|0:0|0:0,0:0:0:0:
198,297,33417,6,0,P|251:301|291:309,1,89.9999999999999,4|8,3:2|0:0,0:0:0:0:
364,355,34099,1,2,3:2:0:0:
441,309,34440,1,10,0:0:0:0:
387,236,34781,2,0,B|368:137|437:146|413:55,1,180,0|0,3:2|3:2,0:0:0:0:
340,12,35804,1,8,0:0:0:0:
286,84,36145,2,0,P|237:86|196:95,1,89.9999999999999,0|8,3:2|0:0,0:0:0:0:
113,61,36827,1,2,3:2:0:0:
47,122,37167,1,10,0:0:0:0:
87,202,37508,2,0,P|94:243|104:338,1,135,2|2,3:2|0:0,0:0:0:0:
190,311,38361,1,10,0:0:0:0:
263,363,38702,1,10,0:0:0:0:
448,235,39554,6,0,L|464:145,1,89.9999999999999,2|10,3:2|0:0,0:0:0:0:
404,79,40236,2,0,L|220:112,1,180,0|0,3:2|3:2,0:0:0:0:
138,128,41258,1,8,0:0:0:0:
100,210,41599,2,0,P|94:255|124:310,1,89.9999999999999,0|8,3:2|0:0,0:0:0:0:
200,285,42281,2,0,P|206:240|176:185,1,89.9999999999999,2|10,3:2|0:0,0:0:0:0:
138,128,42963,1,2,3:2:0:0:
191,55,43304,1,8,0:0:0:0:
273,92,43645,2,0,L|379:78,1,89.9999999999999,0|10,3:2|0:0,0:0:0:0:
451,69,44327,5,4,3:2:0:0:
319,192,45008,1,2,3:2:0:0:
442,322,45690,2,0,B|434:273|420:247|420:247|446:230|474:193,2,135,2|2|2,3:2|0:0|3:2,0:0:0:0:
372,380,47054,1,0,3:2:0:0:
280,224,47736,1,2,3:2:0:0:
131,325,48417,2,0,B|61:332|69:290|-10:305,2,135,10|10|10,0:0|0:0|0:0,0:0:0:0:
184,252,49781,6,0,L|153:75,1,180,4|10,3:2|0:0,0:0:0:0:
211,6,50804,1,2,3:2:0:0:
285,56,51145,2,0,P|330:43|375:43,1,89.9999999999999,2|0,3:2|3:2,0:0:0:0:
459,67,51827,1,8,0:0:0:0:
440,154,52167,1,0,3:2:0:0:
350,136,52508,2,0,P|342:192|333:243,1,89.9999999999999,6|10,3:2|3:2,0:0:0:0:
409,278,53190,2,0,P|401:334|392:385,1,89.9999999999999,10|2,0:0|3:2,0:0:0:0:
314,326,53872,1,14,3:2:0:0:
231,361,54213,1,12,3:2:0:0:
174,290,54554,1,14,3:2:0:0:
217,211,54895,1,8,0:0:0:0:
141,161,55236,6,0,L|35:188,1,89.9999999999999,6|10,3:2|0:0,0:0:0:0:
7,105,55917,1,2,3:2:0:0:
51,26,56258,1,10,0:0:0:0:
130,68,56599,2,0,B|234:58|208:4|303:-3,1,180,2|0,3:2|3:2,0:0:0:0:
365,50,57622,1,8,0:0:0:0:
324,130,57963,2,0,P|337:182|340:225,1,89.9999999999999,2|10,3:2|0:0,0:0:0:0:
429,205,58645,1,2,3:2:0:0:
464,287,58986,1,10,0:0:0:0:
393,343,59327,2,0,B|283:321|283:321|265:362|219:367,1,180,2|0,3:2|3:2,0:0:0:0:
202,279,60349,1,8,0:0:0:0:
277,229,60690,6,0,L|242:48,1,180,2|2,3:2|3:2,0:0:0:0:
161,12,61713,1,8,0:0:0:0:
99,77,62054,2,0,P|91:151|179:142,1,180,2|2,3:2|0:0,0:0:0:0:
242,88,63077,1,8,0:0:0:0:
322,49,63417,2,0,P|382:44|425:33,1,89.9999999999999,2|10,3:2|0:0,0:0:0:0:
481,93,64099,2,0,P|492:135|448:171,1,89.9999999999999,0|8,3:2|0:0,0:0:0:0:
373,165,64781,2,0,P|305:174|231:191,1,135,2|6,3:2|3:2,0:0:0:0:
111,215,65804,1,10,0:0:0:0:
176,276,66145,6,0,P|163:325|160:376,1,89.9999999999999,6|10,3:2|0:0,0:0:0:0:
248,379,66827,1,2,3:2:0:0:
291,300,67167,1,10,0:0:0:0:
372,337,67508,2,0,B|441:366|485:319|485:319|481:283|500:257,1,180,2|0,3:2|3:2,0:0:0:0:
443,189,68531,1,8,0:0:0:0:
357,216,68872,2,0,L|250:196,1,89.9999999999999,2|10,3:2|0:0,0:0:0:0:
181,177,69554,1,2,3:2:0:0:
234,104,69895,1,10,0:0:0:0:
169,41,70236,2,0,B|46:66|46:66|56:93|60:132,1,180,2|0,3:2|3:2,0:0:0:0:
29,204,71258,1,8,0:0:0:0:
75,281,71599,6,0,P|170:280|235:334,1,180,2|0,3:2|3:2,3:2:0:0:
320,354,72622,1,8,0:0:0:0:
299,266,72963,2,0,B|308:193|308:193|336:164|336:164|345:90,1,180,2|0,3:2|3:2,0:0:0:0:
277,37,73986,1,8,0:0:0:0:
201,86,74327,2,0,L|218:181,1,89.9999999999999,2|10,3:2|0:0,0:0:0:0:
147,231,75008,2,0,L|52:248,1,89.9999999999999,0|10,3:2|0:0,0:0:0:0:
32,333,75690,1,2,3:2:0:0:
116,364,76031,1,10,0:0:0:0:
186,307,76372,2,0,P|233:332|283:331,1,89.9999999999999,2|2,3:2|3:2,0:0:0:0:
317,257,77054,6,0,L|288:111,2,135,6|2|2,3:2|0:0|3:2,0:0:0:0:
373,328,78417,2,0,P|417:309|461:308,1,89.9999999999999,10|2,0:0|0:0,0:0:0:0:
510,234,79099,1,10,0:0:0:0:
439,177,79440,1,10,0:0:0:0:
492,104,79781,2,0,B|447:51|447:51|379:77,1,135,10|10,0:0|0:0,0:0:0:0:
261,127,80804,2,0,B|199:150|199:150|154:97,1,135,10|10,0:0|0:0,0:0:0:0:
20,81,81827,1,10,0:0:0:0:
39,168,82167,1,10,0:0:0:0:
61,255,82508,6,0,P|117:242|154:239,1,89.9999999999999,6|10,3:2|0:0,0:0:0:0:
219,294,83190,1,2,3:2:0:0:
303,262,83531,1,10,0:0:0:0:
252,187,83872,2,0,B|274:90|208:107|240:10,1,180,2|0,3:2|3:2,0:0:0:0:
319,52,84895,1,8,0:0:0:0:
397,7,85236,2,0,P|448:17|496:24,1,89.9999999999999,2|10,3:2|0:0,0:0:0:0:
505,110,85917,1,2,3:2:0:0:
438,171,86258,1,10,0:0:0:0:
356,133,86599,2,0,P|268:152|172:163,1,180,2|0,3:2|3:2,0:0:0:0:
88,164,87622,1,8,0:0:0:0:
35,237,87963,6,0,B|64:281|60:328|60:328|95:291|151:295,1,180,2|0,3:2|3:2,0:0:0:0:
212,248,88986,1,8,0:0:0:0:
252,328,89327,2,0,B|323:315|323:315|344:284|344:284|423:269,1,180,2|2,3:2|0:0,0:0:0:0:
477,208,90349,1,8,0:0:0:0:
407,150,90690,2,0,P|419:97|427:43,1,89.9999999999999,2|10,3:2|0:0,0:0:0:0:
346,16,91372,2,0,P|293:4|239:-4,1,89.9999999999999,0|8,3:2|0:0,0:0:0:0:
197,65,92054,2,0,B|102:81|102:81|97:108|73:124,1,135,2|4,3:2|3:2,0:0:0:0:
187,202,93077,1,8,0:0:0:0:
275,189,93417,6,0,P|266:242|258:297,1,89.9999999999999,6|10,3:2|0:0,0:0:0:0:
197,342,94099,1,2,3:2:0:0:
110,365,94440,1,10,0:0:0:0:
56,292,94781,2,0,B|31:189|31:189|74:183|123:168,1,180,2|0,3:2|3:2,0:0:0:0:
191,202,95804,1,8,0:0:0:0:
271,162,96145,2,0,P|313:174|371:182,1,89.9999999999999,2|10,3:2|0:0,0:0:0:0:
444,153,96827,1,2,3:2:0:0:
489,230,97167,1,10,0:0:0:0:
441,306,97508,2,0,B|350:296|367:359|249:338,1,180,2|0,3:2|3:2,0:0:0:0:
187,300,98531,1,8,0:0:0:0:
251,236,98872,6,0,B|227:165|227:165|245:125|245:125|223:56,1,180,2|0,3:2|3:2,0:0:0:0:
146,23,99895,1,8,0:0:0:0:
60,50,100236,2,0,P|18:83|38:209,1,180,2|0,3:2|3:2,0:0:0:0:
56,283,101258,1,8,0:0:0:0:
136,240,101599,2,0,P|177:259|231:254,1,89.9999999999999,2|10,3:2|0:0,0:0:0:0:
252,341,102281,2,0,P|288:314|311:265,1,89.9999999999999,0|10,3:2|0:0,0:0:0:0:
354,197,102963,1,2,3:2:0:0:
436,233,103304,1,10,0:0:0:0:
486,158,103645,2,0,P|482:112|434:84,1,89.9999999999999,10|8,0:0|3:2,0:0:0:0:
360,104,104327,6,0,B|275:87|275:87|264:91|264:91|178:74,1,180,4|0,3:2|3:2,0:0:0:0:
104,117,105349,1,8,0:0:0:0:
166,182,105690,2,0,B|246:197|246:197|257:193|257:193|342:210,1,180,0|2,3:2|3:2,0:0:0:0:
382,291,106713,1,8,0:0:0:0:
318,354,107054,2,0,L|223:335,1,89.9999999999999,2|8,3:2|0:0,0:0:0:0:
173,265,107736,2,0,L|78:246,1,89.9999999999999,2|8,3:2|0:0,0:0:0:0:
16,188,108417,2,0,P|-6:106|70:33,1,180,2|0,3:2|3:2,0:0:0:0:
139,21,109440,1,8,0:0:0:0:
204,83,109781,6,0,P|248:74|295:70,1,89.9999999999999,2|8,3:2|0:0,0:0:0:0:
383,68,110463,1,0,3:2:0:0:
424,147,110804,1,8,0:0:0:0:
349,196,111145,2,0,P|334:240|348:286,1,89.9999999999999,2|8,3:2|0:0,0:0:0:0:
329,369,111827,1,0,3:2:0:0:
252,322,112167,1,8,0:0:0:0:
165,348,112508,2,0,B|147:228|147:228|114:215|101:182,1,180,2|0,3:2|3:2,0:0:0:0:
179,138,113531,1,10,0:0:0:0:
136,58,113872,2,0,L|3:79,2,135,10|10|14,3:2|3:2|3:2,0:0:0:0:
225,45,115236,5,4,3:2:0:0:
