osu file format v14

[General]
AudioFilename: audio.ogg
AudioLeadIn: 0
PreviewTime: 54980
Countdown: 0
SampleSet: Soft
StackLeniency: 0.4
Mode: 0
LetterboxInBreaks: 0
WidescreenStoryboard: 1

[Editor]
DistanceSpacing: 0.9
BeatDivisor: 4
GridSize: 16
TimelineZoom: 1.3

[Metadata]
Title:breath of stella
TitleUnicode:breath of stella
Artist:Aimiya Zero
ArtistUnicode:相宮零
Creator:Matsuyuki Ame
Version:insane
Source:終のステラ
Tags:rk657 Key Stella of the End VISUAL ARTS japanese rock jrock j-rock tsui no stella Kinetic Novel キネティックノベル HarryP 針原翼 Harihara Tsubasa pop jpop j-pop
BeatmapID:3962689
BeatmapSetID:1920042

[Difficulty]
HPDrainRate:5
CircleSize:4
OverallDifficulty:8
ApproachRate:9
SliderMultiplier:1.7
SliderTickRate:1

[Events]
//Background and Video events
0,0,"Philia5.jpg",0,0
Video,-710,"video.mp4"
//Break Periods
//Storyboard Layer 0 (Background)
//Storyboard Layer 1 (Fail)
//Storyboard Layer 2 (Pass)
//Storyboard Layer 3 (Foreground)
//Storyboard Layer 4 (Overlay)
//Storyboard Sound Samples

[TimingPoints]
-673,340.909090909091,4,2,1,40,1,0
690,-142.857142857143,4,2,1,40,0,0
10236,-100,4,2,1,75,0,0
10406,-100,4,2,1,30,0,0
10577,-100,4,2,1,40,0,0
10747,-100,4,2,1,45,0,0
10917,-100,4,2,1,55,0,0
11088,-100,4,2,1,65,0,0
11258,-100,4,2,1,70,0,0
11429,-100,4,2,1,75,0,0
11599,-125,4,2,1,50,0,0
15690,-125,4,2,1,75,0,0
16202,-90.9090909090909,4,2,1,75,0,0
17224,-125,4,2,1,60,0,0
17736,-125,4,2,1,75,0,0
17906,-100,4,2,1,75,0,0
22167,-125,4,2,1,75,0,0
22508,-125,4,2,1,50,0,0
22849,-125,4,2,1,30,0,0
23190,-125,4,2,1,50,0,0
24383,-125,4,2,1,30,0,0
24554,-125,4,2,1,50,0,0
25065,-125,4,2,1,30,0,0
25236,-125,4,2,1,50,0,0
25577,-125,4,2,1,30,0,0
25804,-125,4,2,1,50,0,0
27111,-125,4,2,1,30,0,0
27281,-125,4,2,1,50,0,0
27452,-125,4,2,1,60,0,0
27963,-125,4,2,1,50,0,0
28304,-125,4,2,1,30,0,0
28645,-125,4,2,1,50,0,0
29838,-125,4,2,1,30,0,0
30008,-125,4,2,1,50,0,0
30520,-125,4,2,1,30,0,0
30690,-125,4,2,1,50,0,0
31031,-125,4,2,1,30,0,0
31372,-125,4,2,1,50,0,0
32565,-100,4,2,1,55,0,0
32736,-100,4,2,1,70,0,0
32906,-111.111111111111,4,2,1,70,0,0
33247,-111.111111111111,4,2,1,30,0,0
33417,-100,4,2,1,70,0,0
43986,-100,4,2,1,60,0,0
44327,-100,4,2,1,65,0,0
44667,-125,4,2,1,65,0,0
48417,-125,4,2,1,75,0,0
49781,-125,4,2,1,70,0,0
50463,-111.111111111111,4,2,1,70,0,0
52508,-166.666666666667,4,2,1,75,0,0
53872,-125,4,2,1,60,0,0
54213,-100,4,2,1,70,0,0
54554,-83.3333333333333,4,2,1,80,0,0
55236,-83.3333333333333,4,2,1,85,0,1
63417,-76.9230769230769,4,2,1,85,0,1
64270,-90.9090909090909,4,2,1,85,0,1
64781,-83.3333333333333,4,2,1,85,0,1
68702,-100,4,2,1,85,0,1
68787,-83.3333333333333,4,2,1,5,0,1
68872,-83.3333333333333,4,2,1,85,0,1
69895,-100,4,2,1,85,0,1
70236,-83.3333333333333,4,2,1,85,0,1
74327,-76.9230769230769,4,2,1,85,0,1
77054,-100,4,2,1,70,0,0
79781,-90.9090909090909,4,2,1,80,0,0
81145,-90.9090909090909,4,2,1,50,0,0
81315,-90.9090909090909,4,2,1,55,0,0
81486,-90.9090909090909,4,2,1,60,0,0
81656,-90.9090909090909,4,2,1,65,0,0
81827,-90.9090909090909,4,2,1,70,0,0
81997,-90.9090909090909,4,2,1,80,0,0
82508,-76.9230769230769,4,2,1,85,0,1
86429,-100,4,2,1,85,0,1
86514,-100,4,2,1,5,0,1
86599,-76.9230769230769,4,2,1,85,0,1
90690,-71.4285714285714,4,2,1,85,0,1
91202,-83.3333333333333,4,2,1,85,0,1
92565,-71.4285714285714,4,2,1,85,0,1
93077,-100,4,2,1,85,0,1
93417,-76.9230769230769,4,2,1,85,0,1
95804,-100,4,2,1,85,0,1
96145,-76.9230769230769,4,2,1,85,0,1
101599,-71.4285714285714,4,2,1,85,0,1
101940,-83.3333333333333,4,2,1,85,0,1
104156,-83.3333333333333,4,2,1,85,0,0
104327,-83.3333333333333,4,2,1,85,0,1
115236,-83.3333333333333,4,2,1,85,0,0
120690,344.827586206897,4,2,1,30,1,0
121379,340.909090909091,4,2,1,30,1,0
122060,337.078651685393,4,2,1,30,1,0
122565,365.853658536586,4,2,1,30,1,0
122747,368.098159509203,4,2,1,30,1,0
123115,377.358490566038,4,2,1,30,1,0
123492,331.491712707183,4,2,1,30,1,0
123657,363.636363636364,4,2,1,30,1,0
124020,437.956204379563,4,2,1,30,1,0
124238,365.853658536586,4,2,1,30,1,0
124603,370.37037037037,4,2,1,30,1,0
124973,472.440944881889,4,2,1,30,1,0
125445,500,4,2,1,30,1,0
125945,530.973451327434,4,2,1,30,1,0

[Colours]
Combo1 : 182,199,61
Combo2 : 148,214,216
Combo3 : 87,90,86
Combo4 : 38,168,183

[HitObjects]
83,350,690,6,0,P|132:315|192:320,1,118.999996368408,2|2,0:0|0:0,0:0:0:0:
189,319,1202,1,2,0:0:0:0:
281,354,1372,2,0,L|252:221,1,118.999996368408,2|2,0:0|0:0,0:0:0:0:
145,110,2054,6,0,P|85:125|6:137,1,118.999996368408,2|2,0:0|0:0,0:0:0:0:
28,134,2565,1,2,0:0:0:0:
48,230,2736,2,0,P|108:215|187:203,1,118.999996368408
311,114,3417,6,0,P|348:141|426:133,1,118.999996368408,2|2,0:0|0:0,0:0:0:0:
418,137,3929,1,2,0:0:0:0:
471,58,4099,2,0,P|462:21|458:-5,2,59.4999981842042,2|2|2,0:0|0:0|0:0,0:0:0:0:
512,173,4781,6,0,P|498:241|487:309,1,118.999996368408,2|2,0:0|0:0,0:0:0:0:
489,289,5292,1,2,0:0:0:0:
420,357,5463,2,0,P|350:356|320:304,1,118.999996368408
210,207,6145,6,0,P|262:198|329:189,1,118.999996368408,2|2,0:0|0:0,0:0:0:0:
327,189,6656,1,2,0:0:0:0:
313,86,6827,2,0,P|260:94|194:104,1,118.999996368408
27,216,7508,6,0,P|19:274|69:322,1,118.999996368408,2|2,0:0|0:0,0:0:0:0:
56,317,8020,1,2,0:0:0:0:
149,384,8190,2,0,L|165:249,1,118.999996368408
163,265,8702,1,2,0:0:0:0:
270,324,8872,1,2,0:0:0:0:
270,324,10236,6,0,L|245:141,1,170,8|10,3:2|0:0,0:0:0:0:
239,70,10747,1,8,0:0:0:0:
143,156,10917,1,10,0:0:0:0:
109,41,11088,1,8,0:0:0:0:
246,155,11258,1,10,0:0:0:0:
38,251,11429,1,8,0:0:0:0:
143,156,11599,1,4,3:2:0:0:
256,192,11684,12,0,14327,0:0:0:0:
276,108,15520,5,2,0:0:0:0:
276,108,15605,1,2,0:0:0:0:
276,108,15690,1,14,0:0:0:0:
309,221,15861,1,2,3:2:0:0:
398,125,16031,1,2,3:2:0:0:
488,291,16202,6,0,B|446:235|383:251|383:251|364:296|314:297,1,187.000005706787,14|0,0:0|3:2,0:0:0:0:
235,341,16713,2,0,L|251:267,1,46.7500014266968,10|0,0:0|0:0,0:0:0:0:
309,221,16883,2,0,L|325:147,1,46.7500014266968,10|0,0:0|0:0,0:0:0:0:
318,165,17224,6,0,L|302:80,2,68,2|2|2,0:0|0:0|0:0,0:0:0:0:
244,295,17736,1,4,3:2:0:0:
102,148,17906,5,2,0:0:0:0:
202,178,18077,1,10,0:0:0:0:
107,295,18247,2,0,P|81:342|89:381,1,85,2|0,0:0|3:2,0:0:0:0:
38,210,18588,5,2,0:0:0:0:
180,252,18758,1,10,0:0:0:0:
136,66,18929,1,2,0:0:0:0:
136,66,19014,1,8,0:0:0:0:
136,66,19099,1,2,3:2:0:0:
102,148,19270,1,2,3:2:0:0:
252,118,19440,2,0,L|107:149,1,127.5,10|8,0:0|0:0,0:0:0:0:
102,148,19781,5,0,3:2:0:0:
239,34,19952,1,2,3:2:0:0:
283,195,20122,2,0,P|264:234|267:281,1,85,10|2,0:0|0:0,0:0:0:0:
271,292,20378,1,8,0:0:0:0:
271,292,20463,1,2,3:2:0:0:
422,162,20633,1,2,3:2:0:0:
365,231,20804,1,10,0:0:0:0:
450,249,20974,1,2,0:0:0:0:
311,85,21145,6,0,L|398:66,1,85,2|10,3:2|0:0,0:0:0:0:
409,63,21400,1,8,0:0:0:0:
441,88,21485,1,10,0:0:0:0:
447,129,21570,1,8,0:0:0:0:
422,162,21656,2,0,B|401:175|401:175|425:295,1,127.5,14|0,0:0|0:0,0:0:0:0:
438,351,21997,5,2,3:2:0:0:
242,251,22167,2,0,B|292:230|292:230|325:266,1,102,10|0,0:0|0:0,0:0:0:0:
324,265,22508,1,4,3:2:0:0:
165,330,22849,6,0,L|169:298,3,22.6666666666667,8|8|8|10,0:0|0:0|0:0|0:0,0:0:0:0:
176,234,23190,2,0,L|250:253,1,68,2|8,3:2|0:0,0:0:0:0:
212,135,23531,2,0,L|93:158,1,102,2|0,3:2|0:0,0:0:0:0:
99,156,23872,6,0,P|61:85|104:26,1,136,0|0,3:2|3:2,0:0:0:0:
159,3,24383,2,0,L|195:11,3,22.6666666666667,8|8|8|0,0:0|0:0|0:0|3:2,0:0:0:0:
255,24,24724,1,8,0:0:0:0:
212,135,24895,2,0,L|297:116,1,68,0|8,3:2|0:0,0:0:0:0:
423,60,25236,6,0,P|378:72|369:162,1,136,0|8,3:2|0:0,0:0:0:0:
420,215,25747,2,0,L|449:207,3,22.6666666666667,10|8|0|2,0:0|0:0|0:0|3:2,0:0:0:0:
344,235,26088,1,10,0:0:0:0:
268,255,26258,2,0,L|289:339,1,68,2|2,3:2|0:0,0:0:0:0:
159,370,26599,5,2,3:2:0:0:
159,370,26770,2,0,P|136:323|149:288,1,68,10|0,0:0|3:2,0:0:0:0:
173,221,27111,2,0,L|209:227,3,22.6666666666667,10|8|8|0,0:0|0:0|0:0|3:2,0:0:0:0:
95,211,27452,5,10,0:0:0:0:
182,138,27622,1,10,3:2:0:0:
85,212,27792,1,8,0:0:0:0:
35,115,27963,6,0,L|122:129,1,68,0|0,3:2|0:0,0:0:0:0:
163,65,28304,2,0,L|156:33,3,22.6666666666667,8|8|8|10,0:0|0:0|0:0|0:0,0:0:0:0:
182,138,28645,2,0,P|225:129|262:118,1,68,0|8,3:2|0:0,0:0:0:0:
290,189,28986,2,0,P|296:225|309:273,1,68,2|2,3:2|0:0,0:0:0:0:
408,336,29327,6,0,P|461:286|444:221,1,136,0|0,3:2|3:2,0:0:0:0:
385,164,29838,2,0,L|358:170,3,22.6666666666667,8|8|8|0,0:0|0:0|0:0|3:2,0:0:0:0:
466,147,30179,1,8,0:0:0:0:
403,76,30349,2,0,P|406:32|426:-4,1,68,0|8,3:2|0:0,0:0:0:0:
255,72,30690,6,0,L|280:222,1,136,0|8,3:2|0:0,0:0:0:0:
290,285,31202,2,0,L|252:276,3,22.6666666666667,10|8|8|2,0:0|0:0|0:0|3:2,0:0:0:0:
358,329,31542,1,10,0:0:0:0:
297,379,31713,2,0,P|261:370|213:362,1,68,2|2,3:2|0:0,0:0:0:0:
87,363,32054,5,2,3:2:0:0:
87,363,32224,2,0,P|93:329|101:296,1,68,2|0,0:0|3:2,0:0:0:0:
145,180,32565,6,0,L|117:173,3,28.3333333333333,10|8|8|8,0:0|0:0|0:0|0:0,0:0:0:0:
223,241,32906,2,0,B|308:217|308:217|327:178|360:172,1,152.999995330811,10|10,0:0|0:0,0:0:0:0:
338,98,33417,6,0,P|246:99|222:170,1,170,4|8,3:2|0:0,0:0:0:0:
223,241,33929,1,2,0:0:0:0:
325,197,34099,1,2,3:2:0:0:
325,197,34270,1,0,3:2:0:0:
286,303,34440,2,0,P|279:344|298:393,1,85,10|2,0:0|0:0,0:0:0:0:
468,288,34781,6,0,L|489:111,1,170,0|8,3:2|0:0,0:0:0:0:
429,29,35292,1,2,0:0:0:0:
429,29,35378,1,2,0:0:0:0:
429,29,35463,1,0,3:2:0:0:
384,113,35633,1,0,3:2:0:0:
246,26,35804,2,0,L|339:41,1,85,8|0,0:0|0:0,0:0:0:0:
225,191,36145,6,0,B|193:150|135:161|135:161|112:190|68:193,2,170,0|8|2,3:2|0:0|3:2,0:0:0:0:
270,275,36997,1,2,3:2:0:0:
182,306,37167,1,10,0:0:0:0:
182,306,37338,1,2,0:0:0:0:
110,209,37508,5,2,3:2:0:0:
75,370,37679,2,0,L|95:270,1,85,2|8,0:0|0:0,0:0:0:0:
71,109,38020,1,2,0:0:0:0:
110,209,38190,1,0,3:2:0:0:
260,99,38361,2,0,B|250:116|250:116|127:141,1,127.5,10|0,0:0|0:0,0:0:0:0:
144,137,38702,1,10,0:0:0:0:
245,12,38872,6,0,B|324:27|324:27|338:52|338:52|414:69,1,170,0|8,3:2|0:0,0:0:0:0:
478,59,39383,1,2,0:0:0:0:
509,166,39554,1,2,3:2:0:0:
509,166,39724,1,0,3:2:0:0:
357,162,39895,2,0,P|398:140|446:142,1,85,10|2,0:0|0:0,0:0:0:0:
421,312,40236,6,0,P|375:259|257:272,1,170,0|8,3:2|0:0,0:0:0:0:
192,301,40747,1,2,0:0:0:0:
192,301,40832,1,2,0:0:0:0:
192,301,40917,1,0,3:2:0:0:
283,348,41088,1,0,3:2:0:0:
202,220,41258,2,0,P|176:173|184:130,1,85,8|0,0:0|0:0,0:0:0:0:
311,91,41599,6,0,B|299:169|299:169|292:175|292:175|279:263,2,170,0|8|2,3:2|0:0|3:2,0:0:0:0:
236,32,42452,1,2,3:2:0:0:
394,0,42622,1,10,0:0:0:0:
394,0,42792,1,2,0:0:0:0:
311,91,42963,5,2,3:2:0:0:
152,46,43133,2,0,L|241:31,1,85,2|8,0:0|0:0,0:0:0:0:
155,198,43474,2,0,B|139:207|139:207|4:189,1,127.5,2|0,0:0|0:0,0:0:0:0:
17,190,43815,1,10,3:2:0:0:
54,64,43986,5,10,0:0:0:0:
55,76,44071,1,8,0:0:0:0:
57,89,44156,1,8,0:0:0:0:
59,101,44241,1,8,0:0:0:0:
61,114,44326,1,4,3:2:0:0:
61,114,44667,6,0,P|97:120|150:126,1,68,2|0,3:2|0:0,0:0:0:0:
171,205,45008,2,0,P|146:233|116:276,1,68,2|0,3:2|0:0,0:0:0:0:
41,253,45349,2,0,P|28:217|6:169,1,68,2|8,3:2|0:0,0:0:0:0:
14,182,45605,1,8,0:0:0:0:
14,182,45690,1,2,3:2:0:0:
128,257,45861,6,0,P|169:262|213:288,1,68,10|0,0:0|3:2,0:0:0:0:
282,348,46202,2,0,L|200:370,1,68,2|0,0:0|3:2,0:0:0:0:
216,365,46542,1,2,0:0:0:0:
288,244,46713,2,0,L|259:102,1,136,2|0,3:2|3:2,0:0:0:0:
260,110,47395,6,0,P|300:125|342:126,1,68,2|0,3:2|0:0,0:0:0:0:
294,20,47736,1,2,3:2:0:0:
294,20,47906,1,2,0:0:0:0:
195,36,48077,2,0,L|104:52,1,68,2|2,3:2|0:0,0:0:0:0:
140,192,48417,5,10,0:0:0:0:
260,110,48588,1,2,3:2:0:0:
260,110,48758,1,0,3:2:0:0:
53,138,48929,5,10,0:0:0:0:
224,223,49099,1,0,3:2:0:0:
224,223,49270,1,2,3:2:0:0:
121,281,49440,6,0,L|138:193,1,68,10|0,0:0|3:2,0:0:0:0:
137,203,49696,1,0,3:2:0:0:
140,192,49781,1,4,3:2:0:0:
282,384,50122,6,0,L|372:365,1,68,0|2,3:2|0:0,0:0:0:0:
440,318,50463,2,0,P|385:271|290:293,1,152.999995330811,10|2,0:0|3:2,0:0:0:0:
371,139,50974,1,10,0:0:0:0:
371,139,51059,1,8,0:0:0:0:
371,139,51145,1,2,3:2:0:0:
434,201,51315,2,0,L|523:186,1,76.4999976654053,10|0,0:0|3:2,0:0:0:0:
396,45,51656,5,2,0:0:0:0:
371,139,51827,1,8,0:0:0:0:
230,94,51997,2,0,L|91:119,1,114.749996498108,10|0,0:0|0:0,0:0:0:0:
109,116,52338,1,2,0:0:0:0:
81,285,52508,6,0,P|76:306|71:337,1,50.9999984436036,6|0,3:2|0:0,0:0:0:0:
130,222,52849,2,0,P|150:214|180:204,1,50.9999984436036,10|0,3:2|0:0,0:0:0:0:
55,212,53190,2,0,P|38:197|14:177,1,50.9999984436036,10|0,0:0|0:0,0:0:0:0:
16,178,53531,1,2,3:2:0:0:
178,326,53702,5,8,0:0:0:0:
178,326,53787,1,8,0:0:0:0:
178,326,53872,6,0,P|231:279|287:291,1,102,14|0,3:2|0:0,0:0:0:0:
239,197,54213,6,0,P|319:223|340:289,1,127.5,12|0,3:2|0:0,0:0:0:0:
399,195,54554,6,0,P|419:294|364:356,1,152.999995330811,14|0,3:2|0:0,0:0:0:0:
310,361,54895,5,8,0:0:0:0:
310,346,54980,1,8,0:0:0:0:
301,358,55065,1,8,0:0:0:0:
314,353,55150,1,8,0:0:0:0:
301,348,55236,6,0,B|282:245|282:245|286:233|286:233|271:140,1,203.999993774414,6|10,3:2|0:0,0:0:0:0:
223,57,55747,1,2,0:0:0:0:
149,220,55917,1,2,3:2:0:0:
149,220,56088,1,0,3:2:0:0:
69,116,56258,2,0,P|120:133|178:136,1,101.999996887207,10|2,0:0|0:0,0:0:0:0:
361,84,56599,6,0,P|296:28|231:50,1,152.999995330811,2|0,3:2|0:0,0:0:0:0:
223,57,56940,1,10,0:0:0:0:
311,162,57111,1,2,0:0:0:0:
311,162,57196,1,2,0:0:0:0:
311,162,57281,1,0,3:2:0:0:
442,123,57452,1,0,3:2:0:0:
312,173,57622,2,0,P|321:227|332:293,1,101.999996887207,8|2,0:0|0:0,0:0:0:0:
143,354,57963,6,0,B|259:325|259:325|293:366|368:352,1,203.999993774414,2|10,3:2|0:0,0:0:0:0:
401,245,58474,1,2,0:0:0:0:
234,195,58645,1,2,3:2:0:0:
361,84,58815,1,2,3:2:0:0:
329,273,58986,2,0,P|320:223|312:173,1,101.999996887207,10|0,0:0|0:0,0:0:0:0:
198,22,59327,6,0,P|156:43|148:99,1,101.999996887207,2|0,3:2|0:0,0:0:0:0:
152,105,59582,1,2,0:0:0:0:
152,105,59667,1,10,0:0:0:0:
6,138,59838,2,0,P|78:113|156:203,1,203.999993774414,2|0,0:0|3:2,0:0:0:0:
55,325,60349,1,8,0:0:0:0:
13,246,60520,1,2,0:0:0:0:
182,305,60690,6,0,B|259:292|259:292|264:284|264:284|342:271,1,152.999995330811,2|0,3:2|0:0,0:0:0:0:
343,270,61031,1,10,0:0:0:0:
255,128,61202,1,2,0:0:0:0:
255,128,61287,1,2,0:0:0:0:
255,128,61372,1,0,3:2:0:0:
345,70,61542,1,0,3:2:0:0:
404,157,61713,2,0,B|361:190|361:190|313:175,1,101.999996887207,8|2,0:0|0:0,0:0:0:0:
142,54,62054,6,0,B|160:63|160:63|183:223,1,152.999995330811,2|0,3:2|0:0,0:0:0:0:
183,211,62395,1,10,0:0:0:0:
50,88,62565,1,2,0:0:0:0:
50,88,62650,1,2,0:0:0:0:
50,88,62736,1,0,3:2:0:0:
3,179,62906,1,0,3:2:0:0:
107,263,63077,2,0,P|98:199|92:150,1,101.999996887207,8|2,0:0|0:0,0:0:0:0:
255,16,63417,6,0,B|306:27|327:78|327:78|361:56|405:62,1,165.749992412568,2|0,3:2|0:0,0:0:0:0:
401,59,63758,1,10,0:0:0:0:
464,212,63929,2,0,P|413:188|349:195,1,110.499994941712,2|0,0:0|3:2,0:0:0:0:
318,382,64270,2,0,P|369:368|418:362,1,93.5000028533936,2|8,3:2|0:0,0:0:0:0:
425,364,64525,1,2,0:0:0:0:
425,364,64611,1,2,0:0:0:0:
264,180,64781,5,2,3:2:0:0:
364,288,64952,1,2,3:2:0:0:
446,125,65122,1,10,0:0:0:0:
256,276,65292,2,0,B|207:210|131:236|131:236|122:271|98:288,1,203.999993774414,6|2,3:2|3:2,0:0:0:0:
51,221,65804,1,10,0:0:0:0:
187,341,65974,5,10,0:0:0:0:
187,341,66059,1,8,0:0:0:0:
187,341,66145,2,0,P|169:213|155:106,1,203.999993774414,6|10,3:2|0:0,0:0:0:0:
147,48,66656,1,2,0:0:0:0:
333,115,66827,1,2,3:2:0:0:
245,141,66997,1,0,3:2:0:0:
385,25,67167,2,0,B|340:-6|340:-6|275:16,1,101.999996887207,10|0,0:0|0:0,0:0:0:0:
306,198,67508,5,2,3:2:0:0:
442,103,67679,1,2,0:0:0:0:
442,103,67764,1,2,0:0:0:0:
442,103,67849,1,10,0:0:0:0:
245,141,68020,2,0,B|297:103|354:117|382:164|382:164|373:195|399:233,1,203.999993774414,2|0,0:0|3:2,0:0:0:0:
460,182,68531,1,8,0:0:0:0:
319,295,68702,2,0,L|365:305,1,42.5,2|0,0:0|0:0,0:0:0:0:
433,288,68872,6,0,B|344:308|384:340|289:366,1,152.999995330811,2|0,3:2|0:0,0:0:0:0:
288,370,69213,1,10,0:0:0:0:
306,198,69383,1,2,0:0:0:0:
145,251,69554,2,0,B|188:283|188:283|241:272,1,101.999996887207,2|0,3:2|3:2,0:0:0:0:
125,152,69895,2,0,P|85:198|8:176,1,127.5,10|0,0:0|0:0,0:0:0:0:
11,179,70236,6,0,B|29:80|29:80|5:62|0:30,1,152.999995330811,2|0,3:2|0:0,0:0:0:0:
0,25,70577,1,10,0:0:0:0:
175,82,70747,2,0,L|305:57,1,101.999996887207,2|0,0:0|3:2,0:0:0:0:
139,15,71088,1,0,3:2:0:0:
243,162,71258,2,0,B|233:231|233:231|226:238|226:238|215:323,1,152.999995330811,8|0,0:0|0:0,0:0:0:0:
216,327,71599,6,0,P|169:300|116:307,1,101.999996887207,2|0,3:2|0:0,0:0:0:0:
393,242,71940,1,10,0:0:0:0:
323,380,72111,2,0,B|299:281|299:281|335:229|391:251,1,203.999993774414,2|0,0:0|3:2,0:0:0:0:
496,188,72622,1,8,0:0:0:0:
362,61,72792,1,2,0:0:0:0:
472,5,72963,5,2,3:2:0:0:
361,160,73133,2,0,L|247:179,1,101.999996887207,2|8,0:0|0:0,0:0:0:0:
181,148,73389,1,2,0:0:0:0:
181,148,73474,2,0,B|220:142|245:114|245:114|222:269,1,203.999993774414,2|0,0:0|3:2,0:0:0:0:
155,341,73986,2,0,P|117:302|121:246,1,101.999996887207,8|2,0:0|0:0,0:0:0:0:
2,110,74327,6,0,B|17:122|17:122|175:147,1,165.749992412568,2|0,3:2|0:0,0:0:0:0:
181,148,74667,1,10,0:0:0:0:
325,0,74838,2,0,L|192:21,1,110.499994941712,2|0,0:0|3:2,0:0:0:0:
130,62,75179,1,2,3:2:0:0:
305,162,75349,1,10,0:0:0:0:
225,242,75520,1,2,0:0:0:0:
335,79,75690,6,0,P|386:105|447:94,1,110.499994941712,2|8,3:2|0:0,0:0:0:0:
451,93,75946,1,8,0:0:0:0:
451,93,76031,2,0,P|440:58|438:36,3,55.2499974708558,10|8|8|8,0:0|0:0|0:0|0:0,0:0:0:0:
500,183,76372,1,2,3:2:0:0:
500,183,76457,1,2,0:3:0:0:
500,183,76543,2,0,P|510:217|513:240,1,55.2499974708558,2|2,0:3|0:3,0:0:0:0:
454,307,76713,5,2,3:2:0:0:
436,260,76798,1,8,0:0:0:0:
397,230,76883,1,8,0:0:0:0:
348,227,76968,1,8,0:0:0:0:
304,250,77053,1,6,3:2:0:0:
242,341,77224,6,0,P|204:344|146:362,1,85,10|2,0:0|3:2,0:0:0:0:
158,356,77565,1,2,0:0:0:0:
76,272,77736,1,2,3:2:0:0:
234,170,77906,5,2,0:0:0:0:
171,269,78077,2,0,P|153:225|153:172,1,85,2|2,3:2|0:0,0:0:0:0:
76,60,78417,1,10,0:0:0:0:
250,87,78588,2,0,P|193:82|152:74,1,85,2|2,3:2|0:0,0:0:0:0:
354,25,78929,5,2,3:2:0:0:
354,25,79014,1,0,3:2:0:0:
354,25,79099,1,10,0:0:0:0:
278,204,79270,1,10,0:0:0:0:
474,86,79440,2,0,B|463:98|463:98|337:123,1,127.5,10|0,0:0|0:0,0:0:0:0:
334,123,79781,5,10,0:0:0:0:
377,289,79952,1,2,0:0:0:0:
278,204,80122,1,2,3:2:0:0:
512,172,80292,6,0,B|442:165|425:226|425:226|460:256|454:311,1,187.000005706787,10|2,0:0|0:0,0:0:0:0:
357,363,80804,2,0,P|305:315|303:280,1,93.5000028533936,10|2,0:0|0:0,0:0:0:0:
377,289,81145,5,2,3:2:0:0:
377,289,81315,1,10,0:0:0:0:
244,358,81486,1,8,0:0:0:0:
244,358,81656,1,10,0:0:0:0:
246,127,81827,5,10,0:0:0:0:
302,296,81997,1,10,0:0:0:0:
97,264,82167,1,10,0:0:0:0:
117,239,82252,1,8,0:0:0:0:
146,224,82337,1,10,0:0:0:0:
179,222,82422,1,8,0:0:0:0:
209,233,82508,6,0,B|270:221|343:208|343:208|330:159|326:119,1,220.999989883423,6|10,3:2|0:0,0:0:0:0:
338,10,83020,1,2,0:0:0:0:
144,84,83190,1,2,3:2:0:0:
246,127,83361,1,0,3:2:0:0:
229,3,83531,2,0,P|238:58|246:133,1,110.499994941712,10|2,0:0|0:0,0:0:0:0:
134,308,83872,6,0,P|80:253|1:272,1,165.749992412568,2|0,3:2|0:0,0:0:0:0:
0,272,84213,1,10,0:0:0:0:
67,366,84383,2,0,B|204:338|204:338|228:379|277:381,1,220.999989883423,2|0,0:0|3:2,0:0:0:0:
279,294,84895,1,8,0:0:0:0:
170,172,85065,1,2,0:0:0:0:
170,172,85150,1,2,0:0:0:0:
170,172,85236,6,0,P|251:115|338:147,1,165.749992412568,2|0,3:2|0:0,0:0:0:0:
323,134,85577,1,10,0:0:0:0:
243,8,85747,1,2,0:0:0:0:
424,80,85917,2,0,P|415:137|406:196,1,110.499994941712,2|0,3:2|3:2,0:0:0:0:
469,339,86258,1,10,0:0:0:0:
296,219,86429,2,0,L|349:231,1,42.5,2|0,0:0|0:0,0:0:0:0:
468,259,86599,6,0,B|397:276|397:276|387:296|387:296|308:317,1,165.749992412568,2|0,3:2|0:0,0:0:0:0:
308,319,86940,1,10,0:0:0:0:
220,104,87111,1,2,0:0:0:0:
296,219,87281,5,0,3:2:0:0:
188,195,87452,1,0,3:2:0:0:
303,221,87622,1,8,0:0:0:0:
170,365,87792,5,2,0:0:0:0:
170,365,87878,1,2,0:0:0:0:
170,365,87963,2,0,P|101:312|15:328,1,165.749992412568,2|0,3:2|0:0,0:0:0:0:
13,329,88304,1,10,0:0:0:0:
113,196,88474,2,0,B|92:99|92:99|115:58|161:48|198:68,1,220.999989883423,2|0,0:0|3:2,0:0:0:0:
116,214,88986,1,8,0:0:0:0:
291,151,89156,5,2,0:0:0:0:
291,151,89241,1,2,0:0:0:0:
291,151,89327,2,0,B|341:162|366:195|366:195|400:173|464:184,1,165.749992412568,2|0,3:2|0:0,0:0:0:0:
455,183,89667,1,10,0:0:0:0:
351,47,89838,2,0,B|293:39|260:-12|260:-12|248:46|174:86,1,220.999989883423,2|0,0:0|3:2,0:0:0:0:
291,151,90349,1,8,0:0:0:0:
438,15,90520,5,2,0:0:0:0:
438,15,90605,1,2,0:0:0:0:
438,15,90690,2,0,B|456:83|456:83|436:111|436:111|459:200,1,178.499994552612,2|0,3:2|0:0,0:0:0:0:
461,195,91031,1,10,0:0:0:0:
373,350,91202,6,0,P|381:298|389:248,1,101.999996887207,2|0,0:0|3:2,0:0:0:0:
203,299,91542,2,0,P|211:247|219:197,1,101.999996887207,2|8,3:2|0:0,0:0:0:0:
316,128,91883,5,2,0:0:0:0:
316,128,91969,1,2,0:0:0:0:
316,128,92054,2,0,L|324:187,1,50.9999984436036,2|0,3:2|0:0,0:0:0:0:
219,199,92224,1,8,0:0:0:0:
194,173,92309,1,8,0:0:0:0:
188,139,92394,1,8,0:0:0:0:
203,107,92479,1,8,0:0:0:0:
234,90,92565,6,0,B|336:175|436:90|327:19|298:118,1,237.999992736817,4|2,3:2|3:2,0:0:0:0:
312,212,93077,2,0,P|368:209|408:180,1,85,10|10,0:0|0:0,0:0:0:0:
463,158,93332,1,2,0:0:0:0:
474,163,93417,6,0,L|502:330,1,165.749992412568,6|0,3:2|0:0,0:0:0:0:
505,340,93758,1,10,0:0:0:0:
312,212,93929,1,2,0:0:0:0:
342,301,94099,5,2,3:2:0:0:
386,182,94270,1,2,3:2:0:0:
245,262,94440,2,0,L|266:380,1,110.499994941712,10|2,0:0|0:0,0:0:0:0:
83,245,94781,5,2,3:2:0:0:
145,135,94952,1,2,0:0:0:0:
159,261,95122,1,10,0:0:0:0:
74,167,95292,1,2,0:0:0:0:
74,167,95378,1,2,0:0:0:0:
74,167,95463,5,0,3:2:0:0:
197,193,95633,1,0,3:2:0:0:
36,292,95804,2,0,B|97:277|97:277|103:272|103:272|175:256,1,127.5,8|0,0:0|0:0,0:0:0:0:
197,193,96145,6,0,L|385:237,1,165.749992412568,2|0,3:2|0:0,0:0:0:0:
374,237,96486,1,10,0:0:0:0:
288,69,96656,1,2,0:0:0:0:
346,13,96827,2,0,B|385:52|385:52|356:117,1,110.499994941712,2|0,3:2|3:2,0:0:0:0:
228,120,97167,2,0,B|189:81|189:81|219:16,1,110.499994941712,10|0,0:0|0:0,0:0:0:0:
302,161,97508,6,0,L|258:349,1,165.749992412568,2|0,3:2|0:0,0:0:0:0:
262,335,97849,1,10,0:0:0:0:
62,283,98020,2,0,B|104:198|180:240|180:240|130:234|105:282,1,220.999989883423,2|0,0:0|3:2,0:0:0:0:
171,316,98531,1,8,0:0:0:0:
6,209,98702,5,2,0:0:0:0:
6,209,98787,1,2,0:0:0:0:
6,209,98872,2,0,B|20:184|43:170|43:170|14:29,1,165.749992412568,2|0,3:2|0:0,0:0:0:0:
19,47,99213,1,10,0:0:0:0:
180,0,99383,2,0,B|156:100|156:100|197:163|271:124,1,220.999989883423,2|0,0:0|3:2,0:0:0:0:
351,85,99895,1,8,0:0:0:0:
257,48,100065,1,2,0:0:0:0:
399,229,100236,5,2,3:2:0:0:
415,135,100406,1,2,0:0:0:0:
325,168,100577,1,10,0:0:0:0:
500,252,100747,6,0,B|434:217|391:273|391:273|371:333|302:325,1,220.999989883423,2|0,0:0|3:2,0:0:0:0:
316,248,101258,1,8,0:0:0:0:
473,373,101429,1,2,0:0:0:0:
466,348,101514,1,2,0:0:0:0:
460,325,101599,6,0,L|412:116,1,178.499994552612,2|0,3:2|0:0,0:0:0:0:
415,135,101940,1,10,0:0:0:0:
327,5,102111,2,0,B|340:21|340:21|436:32,1,101.999996887207,2|0,0:0|3:2,0:0:0:0:
256,178,102452,1,2,3:2:0:0:
194,123,102622,2,0,P|249:89|293:106,1,101.999996887207,10|2,0:0|0:0,0:0:0:0:
317,325,102963,6,0,L|192:303,1,101.999996887207,2|8,3:2|0:0,0:0:0:0:
208,307,103219,1,8,0:0:0:0:
208,307,103304,2,0,L|220:371,1,50.9999984436036,10|8,0:0|0:0,0:0:0:0:
7,291,103474,6,0,L|132:269,1,101.999996887207,8|10,3:2|0:0,0:0:0:0:
116,273,103730,1,8,0:0:0:0:
116,273,103815,2,0,L|128:337,1,50.9999984436036,8|8,0:0|0:0,0:0:0:0:
174,150,103986,6,0,L|186:214,1,50.9999984436036,8|0,3:2|0:0,0:0:0:0:
31,172,104156,1,10,0:0:0:0:
41,132,104241,1,8,0:0:0:0:
52,89,104327,6,0,P|121:39|198:53,1,152.999995330811,4|0,3:2|0:0,0:0:0:0:
194,50,104667,2,0,L|173:153,1,101.999996887207,8|0,0:0|0:0,0:0:0:0:
357,202,105008,1,0,3:2:0:0:
253,243,105179,1,0,3:2:0:0:
326,85,105349,2,0,P|381:78|434:113,1,101.999996887207,8|0,0:0|0:0,0:0:0:0:
512,281,105690,6,0,B|451:263|410:307|410:307|416:327|394:357,1,152.999995330811,0|0,3:2|0:0,0:0:0:0:
395,358,106031,2,0,P|323:373|301:337,1,101.999996887207,8|0,0:0|0:0,0:0:0:0:
266,153,106372,1,2,3:2:0:0:
334,283,106542,1,0,3:2:0:0:
152,261,106713,2,0,P|204:251|268:240,1,101.999996887207,8|0,0:0|0:0,0:0:0:0:
477,109,107054,6,0,L|302:81,1,152.999995330811,2|0,3:2|0:0,0:0:0:0:
312,82,107395,2,0,P|292:33|316:-6,1,101.999996887207,8|0,0:0|0:0,0:0:0:0:
114,177,107736,6,0,L|289:149,1,152.999995330811,2|0,3:2|0:0,0:0:0:0:
277,152,108077,2,0,L|259:264,1,101.999996887207,8|0,0:0|0:0,0:0:0:0:
191,384,108417,5,2,3:2:0:0:
327,306,108588,1,0,0:0:0:0:
153,257,108758,2,0,P|98:278|40:274,1,101.999996887207,8|0,0:0|0:0,0:0:0:0:
40,274,109014,1,2,0:0:0:0:
40,274,109099,1,0,3:2:0:0:
130,97,109270,1,0,3:2:0:0:
38,57,109440,2,0,B|29:71|29:71|47:172,1,101.999996887207,8|0,0:0|0:0,0:0:0:0:
260,252,109781,6,0,P|327:182|262:65,1,203.999993774414,2|8,3:2|0:0,0:0:0:0:
217,42,110292,1,2,0:0:0:0:
217,42,110378,1,2,0:0:0:0:
217,42,110463,1,0,3:2:0:0:
352,12,110633,1,0,3:2:0:0:
231,163,110804,2,0,B|183:138|183:138|123:152,1,101.999996887207,8|0,0:0|0:0,0:0:0:0:
269,334,111145,6,0,B|320:317|342:263|342:263|374:309|433:315,1,203.999993774414,2|8,3:2|0:0,0:0:0:0:
512,287,111656,1,2,0:0:0:0:
512,287,111741,1,2,0:0:0:0:
512,287,111827,1,0,3:2:0:0:
344,165,111997,1,0,3:2:0:0:
446,127,112167,2,0,P|432:174|417:249,1,101.999996887207,8|0,0:0|0:0,0:0:0:0:
217,42,112508,6,0,L|400:17,1,152.999995330811,2|0,3:2|0:0,0:0:0:0:
382,18,112849,2,0,P|368:65|353:140,1,101.999996887207,8|0,0:0|0:0,0:0:0:0:
255,211,113190,1,0,3:2:0:0:
121,137,113361,1,2,3:2:0:0:
121,137,113446,1,2,0:0:0:0:
121,137,113531,2,0,P|134:184|150:259,1,101.999996887207,10|0,0:0|0:0,0:0:0:0:
360,223,113872,6,0,P|299:196|251:216,1,101.999996887207,10|2,3:2|0:3,0:0:0:0:
255,211,114128,1,2,0:3:0:0:
255,211,114213,2,0,L|266:272,1,50.9999984436036,2|0,0:3|0:0,0:0:0:0:
245,354,114383,6,0,P|306:381|354:361,1,101.999996887207,10|2,3:2|0:3,0:0:0:0:
350,366,114639,1,2,0:3:0:0:
350,366,114724,2,0,L|339:305,1,50.9999984436036,2|0,0:3|0:0,0:0:0:0:
255,211,114895,6,0,L|266:150,1,50.9999984436036,14|0,3:2|0:0,0:0:0:0:
278,88,115065,1,8,0:0:0:0:
284,53,115150,1,8,0:0:0:0:
291,18,115236,1,4,3:2:0:0:
