osu file format v14

[General]
AudioFilename: audio.mp3
AudioLeadIn: 0
PreviewTime: 169984
Countdown: 0
SampleSet: Soft
StackLeniency: 0.7
Mode: 0
LetterboxInBreaks: 0
WidescreenStoryboard: 0

[Editor]
Bookmarks: 148384
DistanceSpacing: 0.4
BeatDivisor: 4
GridSize: 4
TimelineZoom: 2.2

[Metadata]
Title:ERROR
TitleUnicode:ERROR
Artist:Aimiya Zero
ArtistUnicode:相宮零
Creator:Bokaminum
Version:Extra
Source:
Tags:VOCALOID niki Lily ERROR
BeatmapID:1601073
BeatmapSetID:761397

[Difficulty]
HPDrainRate:5
CircleSize:4
OverallDifficulty:8
ApproachRate:9.5
SliderMultiplier:2.5
SliderTickRate:1

[Events]
//Background and Video events
0,0,"Konachan.com - 261167 sample.jpg",0,0
//Break Periods
2,141384,147184
//Storyboard Layer 0 (Background)
//Storyboard Layer 1 (Fail)
//Storyboard Layer 2 (Pass)
//Storyboard Layer 3 (Foreground)
//Storyboard Sound Samples

[TimingPoints]
2584,300,4,1,1,70,1,0
2584,-133.333333333333,4,2,1,70,0,0
4384,-100,4,2,1,70,0,0
5284,-90.9090909090909,4,2,1,70,0,0
5884,-83.3333333333333,4,2,1,70,0,0
10234,-66.6666666666667,4,2,1,70,0,0
10684,-83.3333333333333,4,2,1,70,0,0
15184,-100,4,2,1,70,0,0
24184,-83.3333333333333,4,2,1,70,0,0
25084,-100,4,2,1,70,0,0
38584,-83.3333333333333,4,2,1,70,0,0
39484,-100,4,2,1,70,0,0
46684,-111.111111111111,4,2,1,70,0,0
46984,-125,4,2,1,70,0,0
47284,-142.857142857143,4,2,1,70,0,0
48484,-111.111111111111,4,2,1,70,0,0
49384,-76.9230769230769,4,2,1,70,0,0
49684,-71.4285714285714,4,2,1,70,0,0
49984,-66.6666666666667,4,2,1,70,0,0
51184,-83.3333333333333,4,2,1,90,0,1
76384,-83.3333333333333,4,2,1,90,0,0
79984,-100,4,2,1,70,0,0
85384,-83.3333333333333,4,2,1,70,0,0
86284,-100,4,2,1,70,0,0
99784,-83.3333333333333,4,2,1,70,0,0
100684,-100,4,2,1,70,0,0
108784,-133.333333333333,4,2,1,70,0,0
112384,-83.3333333333333,4,2,1,90,0,1
127384,-83.3333333333333,4,2,1,90,0,1
137584,-83.3333333333333,4,2,1,90,0,0
141184,-125,4,2,1,90,0,0
148384,-125,4,2,1,70,0,0
155584,-111.111111111111,4,2,1,70,0,0
168184,-153.846153846153,4,2,1,70,0,0
169984,-83.3333333333333,4,2,1,90,0,1
195184,-83.3333333333333,4,2,1,90,0,0
198484,-100,4,2,1,90,0,0
198784,-100,4,2,1,90,0,1
213184,-76.9230769230769,4,2,1,90,0,1
223984,-100,4,2,1,60,0,0
224884,-100,4,2,1,55,0,0
225784,-100,4,2,1,50,0,0
226684,-100,4,2,1,45,0,0
227584,-100,4,2,1,40,0,0
228484,-100,4,2,1,35,0,0
229384,-100,4,2,1,30,0,0
230284,-100,4,2,1,25,0,0
231184,-100,4,2,1,20,0,0
232084,-100,4,2,1,18,0,0
232984,-100,4,2,1,16,0,0
233884,-100,4,2,1,13,0,0
234784,-100,4,2,1,10,0,0
235684,-100,4,2,1,7,0,0
236584,-100,4,2,1,5,0,0

[HitObjects]
332,292,2584,6,0,L|308:408,1,93.7500035762788,2|0,0:0|0:0,0:0:0:0:
316,184,2884,2,0,L|432:176,1,93.7500035762788,0|2,0:0|0:0,0:0:0:0:
176,300,3184,1,0,0:0:0:0:
176,300,3334,1,0,0:0:0:0:
68,208,3484,2,0,P|131:166|232:180,1,140.625005364418,2|0,0:0|0:0,0:0:0:0:
272,252,3784,5,8,0:0:0:0:
272,252,3859,2,8,L|252:312,2,46.8750017881394
400,228,4084,5,8,0:0:0:0:
400,228,4159,1,8,0:0:0:0:
400,228,4234,1,8,0:0:0:0:
400,228,4309,1,8,0:0:0:0:
400,228,4384,6,0,B|412:272|404:352|368:376|368:376|404:316|352:248,1,250,4|0,1:0|2:0,2:0:0:0:
316,116,4834,2,0,B|300:88|316:56|316:56|352:72|348:160|264:232,1,250,0|0,2:0|2:0,2:0:0:0:
144,276,5284,2,0,B|188:232|188:232|424:252,1,275.000008392334,8|0,2:0|2:0,2:0:0:0:
272,316,5734,1,0,2:0:0:0:
192,84,5884,2,0,B|160:16|160:16|136:188,1,224.999993133545,0|0,2:0|2:0,2:0:0:0:
144,276,6184,6,0,P|52:340|96:264,1,299.999990844727,6|0,1:0|2:0,2:0:0:0:
272,372,6634,2,0,P|236:280|312:96,1,299.999990844727,0|0,2:0|2:0,2:0:0:0:
512,223,7084,2,0,P|444:267|372:227,1,149.999995422363,8|0,2:0|2:0,2:0:0:0:
320,199,7384,1,0,2:0:0:0:
440,39,7534,1,0,2:0:0:0:
512,223,7684,2,0,B|448:271|448:271|360:239,1,149.999995422363,0|0,2:0|2:0,2:0:0:0:
211,176,7984,6,0,B|244:366|244:366|282:309|282:309|251:272,1,299.999990844727,6|0,1:0|2:0,2:0:0:0:
152,49,8434,2,0,B|118:239|118:239|80:182|80:182|111:145,1,299.999990844727,0|0,1:0|2:0,2:0:0:0:
228,140,8884,6,0,B|120:56|16:136|16:136|44:128|140:144,1,299.999990844727,8|0,2:0|2:0,2:0:0:0:
190,251,9334,1,0,2:0:0:0:
312,144,9484,2,0,B|323:231|323:231|267:282|267:282|276:200,1,224.999993133545,0|0,2:0|2:0,2:0:0:0:
312,144,9784,6,0,P|382:118|472:156,1,149.999995422363,6|0,1:0|2:0,2:0:0:0:
420,240,10084,1,0,2:0:0:0:
284,60,10234,2,0,P|385:32|498:64,1,187.500007152558,0|0,2:0|2:0,2:0:0:0:
316,148,10534,1,0,2:0:0:0:
192,0,10684,6,0,L|148:164,1,149.999995422363,8|0,2:0|2:0,2:0:0:0:
192,384,10984,1,4,0:0:0:0:
256,168,11134,1,0,0:0:0:0:
118,243,11284,1,4,0:0:0:0:
315,324,11434,1,0,2:0:0:0:
456,168,11584,6,0,B|516:220|516:220|288:232,1,299.999990844727,6|0,1:0|2:0,2:0:0:0:
136,240,12034,1,0,2:0:0:0:
278,99,12184,2,0,P|314:195|237:264,1,149.999995422363,0|0,2:0|2:0,2:0:0:0:
64,260,12484,6,0,B|8:232|8:232|256:172,1,299.999990844727,8|0,2:0|2:0,2:0:0:0:
136,292,12934,1,0,2:0:0:0:
128,48,13084,1,0,2:0:0:0:
340,160,13234,1,0,2:0:0:0:
256,376,13384,6,0,P|180:288|260:144,1,299.999990844727,6|0,1:0|2:0,2:0:0:0:
336,256,13834,1,0,2:0:0:0:
480,140,13984,2,0,P|404:196|348:140,1,149.999995422363,0|0,2:0|2:0,2:0:0:0:
256,20,14284,2,0,B|284:112|284:112|239:218|239:218|288:312,1,299.999990844727,8|0,2:0|2:0,2:0:0:0:
324,368,14734,1,0,2:0:0:0:
440,240,14884,6,4,L|292:236,1,99.9999969482423,4|4,2:0|2:0,2:0:0:0:
164,328,15084,1,4,2:0:0:0:
152,340,15184,2,0,B|128:200|128:200|160:128,1,187.5,6|0,1:0|2:0,2:0:0:0:
240,48,15484,2,0,B|248:184|248:184|224:244,1,187.5,0|0,2:0|2:0,2:0:0:0:
146,158,15784,1,8,2:0:0:0:
320,32,15934,1,0,2:0:0:0:
492,224,16084,6,0,B|442:221|400:252|400:252|364:224|296:220,1,187.5,2|0,2:0|2:0,2:0:0:0:
224,128,16384,2,0,B|283:125|324:108|324:108|368:128|424:132,1,187.5,2|0,2:0|2:0,2:0:0:0:
480,140,16684,1,8,2:0:0:0:
328,320,16834,1,0,2:0:0:0:
96,240,16984,2,0,B|164:144|280:176|316:232|316:232,1,250,8|0,2:0|2:0,2:0:0:0:
224,300,17384,5,4,2:0:0:0:
188,312,17484,1,4,2:0:0:0:
152,328,17584,2,4,P|128:236|196:180,1,187.5,4|0,2:0|2:0,2:0:0:0:
244,264,17884,5,8,2:0:0:0:
380,116,18184,1,2,2:0:0:0:
456,328,18484,5,2,2:0:0:0:
248,228,18784,6,0,L|460:208,1,187.5,12|0,0:0|0:0,0:0:0:0:
400,300,19084,1,2,0:0:0:0:
304,136,19234,2,0,P|336:256|304:320,1,187.5,12|0,0:0|0:0,0:0:0:0:
216,156,19534,5,2,0:0:0:0:
152,36,19684,2,0,P|208:64|284:56,1,125,8|0,0:0|0:0,0:0:0:0:
104,212,19984,2,0,P|128:140|104:80,1,125,8|0,0:0|0:0,0:0:0:0:
180,244,20284,2,0,P|152:300|172:376,1,125,8|0,0:0|0:0,0:0:0:0:
248,320,20584,6,0,L|20:276,1,187.5,12|0,0:0|0:0,0:0:0:0:
0,266,20884,1,2,0:0:0:0:
152,236,21034,2,0,P|188:124|100:60,1,187.5,12|0,0:0|0:0,0:0:0:0:
49,102,21334,1,2,0:0:0:0:
269,101,21484,6,0,P|193:73|133:81,1,125,8|0,0:0|0:0,0:0:0:0:
156,244,21784,2,0,P|160:184|94:140,1,125,8|0,0:0|0:0,0:0:0:0:
18,263,22084,2,0,P|79:216|34:188,1,125,8|0,0:0|0:0,0:0:0:0:
176,28,22384,2,0,P|152:168|232:304,1,250,12|2,0:0|0:0,0:0:0:0:
472,120,22834,2,0,P|388:92|216:200,1,250,12|2,0:0|0:0,0:0:0:0:
468,304,23284,6,0,P|488:236|456:184,1,125,8|0,0:0|0:0,0:0:0:0:
296,232,23584,2,0,P|368:260|440:232,1,125,8|0,0:0|0:0,0:0:0:0:
392,76,23884,2,0,P|352:132|368:196,1,125,8|2,0:0|0:0,0:0:0:0:
488,284,24109,1,2,0:0:0:0:
500,296,24184,6,0,B|252:276|252:276|340:228,1,299.999990844727,12|2,0:0|0:0,0:0:0:0:
392,76,24634,2,0,P|280:168|152:68,1,299.999990844727,12|2,0:0|0:0,0:0:0:0:
267,0,25084,2,0,L|291:128,1,125,8|0,0:0|0:0,0:0:0:0:
359,222,25384,2,0,L|240:260,1,125,8|0,0:0|0:0,0:0:0:0:
146,247,25684,2,0,L|184:128,1,125,8|2,0:0|0:0,0:0:0:0:
288,122,25909,1,2,0:0:0:0:
288,122,25984,6,0,P|172:22|100:34,1,187.5,12|0,0:0|0:0,0:0:0:0:
12,28,26284,1,2,0:0:0:0:
24,200,26434,2,0,L|244:164,1,187.5,12|0,0:0|0:0,0:0:0:0:
140,108,26734,5,2,0:0:0:0:
64,272,26884,2,0,L|195:251,1,125,8|0,0:0|0:0,0:0:0:0:
120,356,27184,2,0,L|268:328,1,125,8|0,0:0|0:0,0:0:0:0:
324,272,27484,5,2,0:0:0:0:
332,284,27559,1,2,0:0:0:0:
340,296,27634,1,2,0:0:0:0:
348,308,27709,1,2,0:0:0:0:
360,328,27784,6,0,P|423:320|440:150,1,250,12|0,0:0|0:0,0:0:0:0:
304,160,28234,2,0,P|194:156|205:24,1,250,12|0,0:0|0:0,0:0:0:0:
480,52,28684,6,0,L|352:76,1,125,8|0,0:0|0:0,0:0:0:0:
304,160,28984,2,0,L|448:132,1,125,8|0,0:0|0:0,0:0:0:0:
336,4,29284,2,2,L|196:28,1,125
372,172,29509,1,2,0:0:0:0:
380,184,29584,6,0,B|424:240|424:240|416:44,1,250,12|2,0:0|0:0,0:0:0:0:
480,296,30034,2,0,P|460:224|376:312,1,250,12|2,0:0|0:0,0:0:0:0:
300,376,30484,2,0,P|316:280|280:240,1,125,8|0,0:0|0:0,0:0:0:0:
128,300,30784,2,0,L|260:316,1,125,8|0,0:0|0:0,0:0:0:0:
137,155,31084,5,2,0:0:0:0:
124,151,31159,1,2,0:0:0:0:
111,148,31234,1,2,0:0:0:0:
98,144,31309,1,2,0:0:0:0:
73,138,31384,6,0,B|96:277|96:277|126:218,1,187.5,12|0,0:0|0:0,0:0:0:0:
188,339,31684,1,2,0:0:0:0:
260,89,31834,2,0,B|240:222|240:222|214:166,1,187.5,12|0,0:0|0:0,0:0:0:0:
144,36,32134,1,2,0:0:0:0:
128,151,32284,6,0,L|-3:138,1,125,8|0,0:0|0:0,0:0:0:0:
20,24,32584,2,0,L|160:38,1,125,8|0,0:0|0:0,0:0:0:0:
304,20,32884,6,8,L|316:85,1,62.5
440,216,33034,1,8,0:0:0:0:
448,226,33109,1,8,0:0:0:0:
454,237,33184,6,0,P|342:343|254:296,1,250,12|2,0:0|0:0,0:0:0:0:
320,96,33634,2,0,B|351:57|351:57|351:279,1,250,12|2,0:0|0:0,0:0:0:0:
348,352,34084,5,8,0:0:0:0:
256,180,34234,1,0,0:0:0:0:
454,237,34384,1,8,0:0:0:0:
168,280,34534,1,0,0:0:0:0:
360,140,34684,5,8,0:0:0:0:
456,384,34834,1,0,0:0:0:0:
360,140,34984,2,0,P|431:188|491:120,1,187.5,12|0,0:0|0:0,0:0:0:0:
404,20,35284,1,2,0:0:0:0:
436,301,35434,2,0,P|507:221|472:76,1,250,12|2,0:0|0:0,0:0:0:0:
330,46,35884,1,8,0:0:0:0:
336,56,36034,1,0,0:0:0:0:
264,284,36184,5,8,0:0:0:0:
410,107,36334,1,0,0:0:0:0:
492,320,36484,1,8,0:0:0:0:
410,107,36634,1,0,0:0:0:0:
264,284,36784,6,0,B|352:332|352:332|459:317,1,187.5,12|0,0:0|0:0,0:0:0:0:
466,204,37084,1,2,0:0:0:0:
399,67,37234,6,0,B|354:151|354:151|358:259,1,187.5,12|0,0:0|0:0,0:0:0:0:
466,204,37534,1,2,0:0:0:0:
399,67,37684,2,0,L|270:76,1,125,8|0,0:0|0:0,0:0:0:0:
432,192,37984,2,0,L|278:199,1,125,8|0,0:0|0:0,0:0:0:0:
432,192,38284,2,0,P|472:276|427:375,1,187.5,8|0,0:0|0:0,0:0:0:0:
238,322,38584,6,0,P|382:273|505:348,1,299.999990844727,12|2,0:0|0:0,0:0:0:0:
376,340,39034,2,0,B|388:99|388:99|481:156,1,299.999990844727,12|2,0:0|0:0,0:0:0:0:
308,160,39484,2,0,L|313:35,1,125,8|0,0:0|0:0,0:0:0:0:
384,96,39784,2,0,L|496:168,1,125,8|0,0:0|0:0,0:0:0:0:
400,200,40084,2,0,L|279:260,1,125,8|0,0:0|0:0,0:0:0:0:
88,65,40384,6,0,B|25:143|81:247|81:247|69:209|90:158,1,250,12|2,0:0|0:0,0:0:0:0:
267,248,40834,2,0,P|240:161|158:248,1,250,12|2,0:0|0:0,0:0:0:0:
228,338,41284,2,0,L|91:309,1,125,8|0,0:0|0:0,0:0:0:0:
8,240,41584,2,0,L|19:387,1,125,8|0,0:0|0:0,0:0:0:0:
228,338,41884,1,8,0:0:0:0:
155,196,42034,1,0,0:0:0:0:
40,322,42184,6,0,B|17:368|17:368|204:344,1,187.5,12|0,0:0|0:0,0:0:0:0:
372,300,42484,1,2,0:0:0:0:
268,384,42634,2,0,P|212:293|304:218,1,187.5,12|0,0:0|0:0,0:0:0:0:
373,299,42934,1,2,0:0:0:0:
470,171,43084,6,0,L|474:303,1,125,8|0,0:0|0:0,0:0:0:0:
355,89,43384,2,0,P|410:68|498:96,1,125,8|0,0:0|0:0,0:0:0:0:
316,224,43684,1,2,0:0:0:0:
310,235,43759,1,2,0:0:0:0:
305,247,43834,1,2,0:0:0:0:
299,259,43909,1,2,0:0:0:0:
264,316,43984,6,0,P|191:333|108:235,1,187.5,12|0,0:0|0:0,0:0:0:0:
38,320,44284,1,2,0:0:0:0:
136,148,44434,2,0,P|106:242|156:320,1,187.5,12|0,0:0|0:0,0:0:0:0:
264,316,44734,1,2,0:0:0:0:
350,151,44884,6,0,P|378:219|348:296,1,125,8|0,0:0|0:0,0:0:0:0:
136,72,45184,2,0,L|280:68,1,125,8|0,0:0|0:0,0:0:0:0:
224,304,45484,1,2,0:0:0:0:
219,315,45559,1,2,0:0:0:0:
214,326,45634,1,2,0:0:0:0:
210,337,45709,1,2,0:0:0:0:
205,348,45784,6,0,L|190:161,1,187.5,12|0,0:0|0:0,0:0:0:0:
180,56,46084,1,2,0:0:0:0:
424,316,46234,6,0,L|369:90,1,187.5,12|0,0:0|0:0,0:0:0:0:
357,52,46534,1,2,0:0:0:0:
260,136,46684,2,0,P|281:201|310:246,1,112.499996566773,8|0,0:0|0:0,0:0:0:0:
184,208,46984,2,0,P|208:256|250:296,1,100,8|0,0:0|0:0,0:0:0:0:
128,324,47284,2,0,P|174:346|216:353,1,87.499997329712,8|0,0:0|0:0,0:0:0:0:
304,312,47509,1,2,0:0:0:0:
318,307,47584,6,0,P|423:317|492:346,2,174.999994659424,8|2|2,0:0|0:0|0:0,0:0:0:0:
253,197,48484,2,2,P|128:198|19:232,2,224.999993133545,8|0|0,0:0|0:0|0:0,0:0:0:0:
495,138,49384,6,0,P|419:98|338:94,1,162.499992561341,8|2,0:0|0:0,0:0:0:0:
87,206,49684,2,0,P|207:162|288:185,1,174.999994659424,8|2,0:0|0:0,0:0:0:0:
490,330,49984,2,0,P|353:257|245:258,1,187.500007152558,2|2,0:0|0:0,0:0:0:0:
83,67,50284,5,12,0:0:0:0:
310,97,50434,1,2,0:0:0:0:
54,202,50584,1,12,0:0:0:0:
356,162,50734,1,2,0:0:0:0:
34,278,50884,1,12,0:0:0:0:
420,278,51034,1,2,0:0:0:0:
236,26,51184,6,0,B|205:228|205:228|289:138,1,299.999990844727,4|0,0:0|0:0,0:0:0:0:
402,80,51634,1,0,0:0:0:0:
436,339,51784,2,0,P|488:284|440:184,1,149.999995422363,2|0,0:0|0:0,0:0:0:0:
237,236,52009,1,0,0:0:0:0:
243,242,52084,2,0,L|422:251,1,149.999995422363,8|0,0:0|0:0,0:0:0:0:
252,84,52384,5,0,0:0:0:0:
312,316,52534,1,0,0:0:0:0:
416,176,52684,2,0,L|266:168,1,149.999995422363
193,363,52984,6,0,P|238:289|168:200,1,149.999995422363,4|0,0:0|0:0,0:0:0:0:
0,284,53284,2,0,L|154:290,1,149.999995422363
188,164,53509,1,0,0:0:0:0:
188,164,53584,1,2,0:0:0:0:
62,17,53734,1,0,0:0:0:0:
51,27,53809,1,0,0:0:0:0:
37,38,53884,6,0,P|101:100|194:68,1,149.999995422363,8|0,0:0|0:0,0:0:0:0:
280,52,54184,1,2,0:0:0:0:
376,328,54334,1,0,0:0:0:0:
379,77,54484,1,2,0:0:0:0:
276,292,54634,1,0,0:0:0:0:
197,147,54784,6,0,P|311:221|437:178,1,224.999993133545,4|0,0:0|0:0,0:0:0:0:
360,24,55084,2,0,P|304:80|337:202,1,149.999995422363
452,277,55384,2,0,B|299:296|299:296|181:264,1,224.999993133545,2|0,0:0|0:0,0:0:0:0:
156,180,55684,6,0,L|122:376,1,149.999995422363,8|0,0:0|0:0,0:0:0:0:
44,372,55984,1,0,0:0:0:0:
96,100,56134,1,0,0:0:0:0:
292,156,56284,1,0,0:0:0:0:
0,224,56434,1,0,0:0:0:0:
292,156,56584,6,0,P|360:180|388:247,1,149.999995422363,4|0,0:0|0:0,0:0:0:0:
333,384,56884,2,0,P|289:324|290:250,1,149.999995422363
416,264,57109,1,0,0:0:0:0:
416,264,57184,1,2,0:0:0:0:
470,145,57334,1,0,0:0:0:0:
479,133,57409,1,0,0:0:0:0:
486,123,57484,6,0,L|232:130,1,224.999993133545,8|0,0:0|0:0,0:0:0:0:
147,31,57784,1,8,0:0:0:0:
139,52,57859,1,0,0:0:0:0:
137,74,57934,1,0,0:0:0:0:
140,96,58009,1,0,0:0:0:0:
163,134,58084,5,8,0:0:0:0:
172,178,58159,1,0,0:0:0:0:
172,223,58234,1,0,0:0:0:0:
163,267,58309,1,0,0:0:0:0:
112,306,58384,6,0,P|96:217|136:150,1,149.999995422363,4|0,0:0|0:0,0:0:0:0:
221,175,58684,2,0,P|228:248|152:203,1,149.999995422363
339,286,58984,2,0,P|414:237|467:269,1,149.999995422363,2|0,0:0|0:0,0:0:0:0:
453,52,59284,2,0,P|488:121|438:285,1,224.999993133545,8|0,0:0|0:0,0:0:0:0:
292,237,59584,6,0,L|456:235,1,149.999995422363
362,299,59809,1,0,0:0:0:0:
362,299,59884,2,0,P|290:351|234:279,1,149.999995422363,2|0,0:0|0:0,0:0:0:0:
265,14,60184,2,0,L|297:274,1,224.999993133545,4|0,0:0|0:0,0:0:0:0:
246,325,60484,1,0,0:0:0:0:
19,260,60634,5,0,0:0:0:0:
77,12,60784,2,0,P|138:73|146:188,1,149.999995422363,2|0,0:0|0:0,0:0:0:0:
194,275,61009,1,0,0:0:0:0:
209,288,61084,2,0,P|286:189|349:279,1,224.999993133545,8|0,0:0|0:0,0:0:0:0:
440,316,61384,2,0,P|352:328|268:243,1,149.999995422363
453,189,61609,5,0,0:0:0:0:
458,194,61684,1,2,0:0:0:0:
108,84,61984,5,6,0:0:0:0:
207,259,62134,1,0,0:0:0:0:
12,169,62284,1,2,0:0:0:0:
216,128,62434,1,0,0:0:0:0:
77,265,62584,1,2,0:0:0:0:
211,18,62734,1,0,0:0:0:0:
353,204,62884,2,0,L|160:206,1,149.999995422363,8|0,0:0|0:0,0:0:0:0:
393,35,63184,2,0,P|437:107|421:192,1,149.999995422363
384,276,63409,5,2,0:0:0:0:
386,279,63484,1,2,0:0:0:0:
197,357,63784,5,6,0:0:0:0:
96,169,63934,1,0,0:0:0:0:
24,323,64084,1,2,0:0:0:0:
238,336,64234,1,0,0:0:0:0:
114,107,64384,1,2,0:0:0:0:
27,294,64534,1,0,0:0:0:0:
230,151,64684,6,0,L|265:319,1,149.999995422363,8|0,0:0|0:0,0:0:0:0:
116,224,64984,2,2,L|159:154,1,74.9999977111817
260,32,65134,2,2,L|296:124,1,74.9999977111817
392,192,65284,2,0,L|213:235,1,149.999995422363,2|0,0:0|0:0,0:0:0:0:
420,40,65584,6,0,L|501:297,1,224.999993133545,4|0,0:0|0:0,0:0:0:0:
284,344,65884,2,0,L|339:196,1,149.999995422363
406,300,66109,1,0,0:0:0:0:
406,300,66184,1,2,0:0:0:0:
206,137,66334,5,0,0:0:0:0:
211,146,66409,1,0,0:0:0:0:
216,154,66484,2,0,P|155:195|79:161,1,149.999995422363,8|0,0:0|0:0,0:0:0:0:
312,16,66784,2,0,P|365:117|314:243,1,224.999993133545
264,235,67084,1,2,0:0:0:0:
0,156,67384,6,0,B|77:115|77:115|290:118,1,299.999990844727,4|0,0:0|0:0,0:0:0:0:
416,264,67834,1,0,0:0:0:0:
352,29,67984,1,2,0:0:0:0:
312,268,68134,1,0,0:0:0:0:
473,174,68284,2,0,B|401:135|401:135|192:138,1,224.999993133545,8|0,0:0|0:0,0:0:0:0:
219,214,68584,6,0,B|226:338|226:338|178:293,1,149.999995422363,2|0,0:0|0:0,0:0:0:0:
21,271,68809,1,0,0:0:0:0:
0,218,68884,1,2,0:0:0:0:
13,159,68959,1,2,0:0:0:0:
40,105,69034,1,2,0:0:0:0:
92,76,69109,1,2,0:0:0:0:
161,63,69184,6,0,L|387:84,1,224.999993133545,4|0,0:0|0:0,0:0:0:0:
302,213,69484,2,0,P|294:132|341:73,1,149.999995422363
465,95,69709,1,0,0:0:0:0:
465,95,69784,1,2,0:0:0:0:
485,295,69934,1,0,0:0:0:0:
440,293,70009,1,0,0:0:0:0:
395,290,70084,6,0,B|306:268|274:353|166:306,1,224.999993133545,8|0,0:0|0:0,0:0:0:0:
221,104,70384,2,0,P|216:214|238:254,1,149.999995422363,2|0,0:0|0:0,0:0:0:0:
495,97,70684,2,0,P|431:55|353:51,1,149.999995422363
188,28,70984,6,0,B|146:46|126:74|126:74|89:75|50:86,1,149.999995422363,4|0,0:0|0:0,0:0:0:0:
0,164,71209,1,0,0:0:0:0:
0,164,71284,1,2,0:0:0:0:
180,132,71434,1,0,0:0:0:0:
209,167,71509,1,0,0:0:0:0:
240,204,71584,6,0,L|69:215,1,149.999995422363,2|0,0:0|0:0,0:0:0:0:
108,120,71884,5,8,0:0:0:0:
256,312,72034,1,0,0:0:0:0:
208,92,72184,1,2,0:0:0:0:
136,348,72334,1,0,0:0:0:0:
8,152,72484,1,2,0:0:0:0:
312,160,72634,1,0,0:0:0:0:
216,380,72784,6,0,P|234:279|206:166,1,149.999995422363,4|0,0:0|0:0,0:0:0:0:
176,92,73009,1,0,0:0:0:0:
181,97,73084,1,2,0:0:0:0:
46,259,73234,5,0,0:0:0:0:
40,303,73309,1,0,0:0:0:0:
34,347,73384,2,0,P|106:332|206:353,1,149.999995422363,2|0,0:0|0:0,0:0:0:0:
300,232,73684,6,8,L|283:412,1,149.999995422363,8|0,0:0|0:0,0:0:0:0:
201,262,73984,2,0,P|179:191|250:142,1,149.999995422363
379,113,74209,1,0,0:0:0:0:
385,120,74284,1,2,0:0:0:0:
504,364,74584,6,0,L|292:306,1,149.999995422363,4|0,0:0|0:0,0:0:0:0:
472,144,74884,2,0,B|496:212|496:212|453:289,1,149.999995422363,2|0,0:0|0:0,0:0:0:0:
384,356,75184,1,2,0:0:0:0:
216,144,75334,1,0,0:0:0:0:
504,220,75484,1,8,0:0:0:0:
240,312,75634,1,0,0:0:0:0:
368,56,75784,1,0,0:0:0:0:
504,220,75934,6,2,L|380:206,1,74.9999977111817
295,129,76084,1,2,0:0:0:0:
253,111,76159,1,2,0:0:0:0:
208,103,76234,1,2,0:0:0:0:
163,104,76309,1,2,0:0:0:0:
119,114,76384,6,0,B|106:231|106:231|114:282,1,149.999995422363,4|0,0:0|0:0,0:0:0:0:
311,326,76684,1,2,0:0:0:0:
279,102,76834,1,0,0:0:0:0:
232,216,76984,1,8,0:0:0:0:
276,214,77059,1,8,0:0:0:0:
320,212,77134,1,8,0:0:0:0:
364,210,77209,1,8,0:0:0:0:
408,208,77284,1,4,0:0:0:0:
124,116,77584,5,8,0:0:0:0:
116,160,77659,1,8,0:0:0:0:
109,204,77734,1,8,0:0:0:0:
102,248,77809,1,8,0:0:0:0:
94,292,77884,1,2,0:0:0:0:
232,137,78034,1,0,0:0:0:0:
268,336,78184,6,0,L|4:376,1,224.999993133545,4|0,0:0|0:0,0:0:0:0:
401,142,78484,1,8,0:0:0:0:
398,186,78559,1,8,0:0:0:0:
395,230,78634,1,8,0:0:0:0:
391,274,78709,1,8,0:0:0:0:
388,318,78784,1,2,0:0:0:0:
411,47,78934,5,0,0:0:0:0:
64,120,79084,2,0,P|187:163|363:134,2,299.999990844727,8|2|2,0:0|0:0|0:0,0:0:0:0:
140,352,79984,6,0,P|126:263|288:260,1,250,12|2,0:0|0:0,0:0:0:0:
130,103,80434,2,0,P|170:199|158:255,1,125,12|0,0:0|0:0,0:0:0:0:
24,256,80734,1,2,0:0:0:0:
272,146,80884,2,0,P|356:138|400:158,1,125,8|0,0:0|0:0,0:0:0:0:
512,160,81184,2,0,P|428:168|384:148,1,125,8|0,0:0|0:0,0:0:0:0:
336,240,81484,2,0,L|356:404,1,125,8|0,0:0|0:0,0:0:0:0:
233,131,81784,6,2,P|141:67|-3:119,1,250,14|2,0:0|0:0,0:0:0:0:
144,312,82234,2,0,B|156:344|156:344|220:264,1,125,12|0,0:0|0:0,0:0:0:0:
292,184,82534,1,2,0:0:0:0:
16,100,82684,2,0,B|12:172|12:172|56:256,1,125,8|0,0:0|0:0,0:0:0:0:
140,236,82984,2,0,B|152:164|152:164|128:112,1,125,8|0,0:0|0:0,0:0:0:0:
40,312,83284,2,0,B|76:344|76:344|304:348,2,250,8|12|2,0:0|0:0|0:0,0:0:0:0:
356,308,84034,5,12,0:0:0:0:
500,236,84184,2,0,P|400:180|348:192,1,125,2|0,0:0|0:0,0:0:0:0:
284,204,84484,5,8,0:0:0:0:
264,348,84634,1,0,0:0:0:0:
208,156,84784,5,8,0:0:0:0:
188,300,84934,1,0,0:0:0:0:
124,104,85084,5,8,0:0:0:0:
104,248,85234,1,0,0:0:0:0:
31,60,85384,2,12,B|75:11|225:22|249:70|249:70|195:48|145:69,1,299.999990844727,12|2,0:0|0:0,0:0:0:0:
157,290,85834,2,0,B|154:329|129:349|129:349|113:277|129:186|191:131,1,299.999990844727,12|2,0:0|0:0,0:0:0:0:
344,48,86284,6,0,P|420:36|484:72,1,125,8|0,0:0|0:0,0:0:0:0:
448,148,86584,2,0,P|440:204|360:244,1,125,8|0,0:0|0:0,0:0:0:0:
228,148,86884,2,0,B|288:128|288:128|348:146,1,125,8|2,0:0|0:0,0:0:0:0:
196,248,87109,1,2,0:0:0:0:
186,254,87184,6,0,B|-6:266|-6:266|74:230,1,250,12|2,0:0|0:0,0:0:0:0:
284,360,87634,2,0,B|256:160|256:160|308:196,1,250,12|2,0:0|0:0,0:0:0:0:
192,328,88084,1,8,0:0:0:0:
356,144,88234,1,0,0:0:0:0:
500,284,88384,2,0,L|356:284,1,125,8|0,0:0|0:0,0:0:0:0:
232,348,88684,5,2,0:0:0:0:
256,348,88759,1,2,0:0:0:0:
279,348,88834,2,2,L|372:350,1,62.5
274,165,88984,6,0,P|220:85|119:180,1,250,12|2,0:0|0:0,0:0:0:0:
71,293,89434,2,0,P|169:290|192:155,1,250,12|2,0:0|0:0,0:0:0:0:
101,39,89884,2,0,P|97:120|128:169,1,125,8|0,0:0|0:0,0:0:0:0:
31,168,90184,2,0,P|86:221|144:226,1,125,8|0,0:0|0:0,0:0:0:0:
208,157,90484,5,2,0:0:0:0:
152,346,90634,1,2,0:0:0:0:
359,277,90784,2,0,L|213:273,1,125,12|0,0:0|0:0,0:0:0:0:
471,192,91084,1,2,0:0:0:0:
223,182,91234,2,0,P|156:145|142:30,1,187.5,12|0,0:0|0:0,0:0:0:0:
203,0,91534,5,2,0:0:0:0:
402,45,91684,2,0,P|419:121|394:162,1,125,8|0,0:0|0:0,0:0:0:0:
219,101,91984,2,0,L|351:99,1,125,8|0,0:0|0:0,0:0:0:0:
481,205,92284,1,2,0:0:0:0:
454,221,92359,1,2,0:0:0:0:
424,230,92434,1,2,0:0:0:0:
392,233,92509,1,2,0:0:0:0:
360,231,92584,6,0,P|267:204|175:220,1,187.5,12|0,0:0|0:0,0:0:0:0:
97,253,92884,1,2,0:0:0:0:
212,357,93034,2,0,B|243:316|243:316|232:134,1,187.5,12|0,0:0|0:0,0:0:0:0:
228,21,93334,5,2,0:0:0:0:
468,31,93484,1,8,0:0:0:0:
447,175,93634,1,0,0:0:0:0:
209,147,93784,5,8,0:0:0:0:
384,82,93934,1,0,0:0:0:0:
325,257,94084,5,2,0:0:0:0:
235,36,94234,1,2,0:0:0:0:
488,178,94384,6,0,B|506:199|506:199|302:174,1,187.5,12|0,0:0|0:0,0:0:0:0:
389,94,94684,1,2,0:0:0:0:
386,310,94834,2,0,P|313:346|264:265,1,187.5,12|0,0:0|0:0,0:0:0:0:
491,329,95134,1,2,0:0:0:0:
421,129,95284,2,0,B|461:173|461:173|447:260,1,125,8|0,0:0|0:0,0:0:0:0:
234,83,95584,2,0,B|296:55|296:55|369:80,1,125,8|0,0:0|0:0,0:0:0:0:
166,216,95884,2,0,L|155:60,1,125,8|0,0:0|0:0,0:0:0:0:
0,272,96184,6,0,B|63:318|174:296|174:296|140:295|109:266,1,250,12|2,0:0|0:0,0:0:0:0:
129,143,96634,2,0,P|159:215|262:188,1,187.5,12|0,0:0|0:0,0:0:0:0:
199,153,96934,1,2,0:0:0:0:
152,68,97084,2,0,P|100:40|32:88,1,125,8|0,0:0|0:0,0:0:0:0:
184,188,97384,2,0,P|240:216|316:180,1,125,8|0,0:0|0:0,0:0:0:0:
424,88,97684,2,0,L|242:72,1,125,8|2,0:0|0:0,0:0:0:0:
461,166,97909,1,2,0:0:0:0:
472,178,97984,6,0,B|285:159|285:159|358:212,1,250,12|2,0:0|0:0,0:0:0:0:
473,336,98434,2,0,P|436:262|336:344,1,250,12|2,0:0|0:0,0:0:0:0:
399,179,98884,2,0,B|419:112|419:112|395:30,1,125,8|0,0:0|0:0,0:0:0:0:
307,114,99184,1,8,0:0:0:0:
470,204,99334,1,0,0:0:0:0:
494,42,99484,2,0,L|339:36,1,125,8|0,0:0|0:0,0:0:0:0:
378,272,99784,6,12,B|395:304|383:336|383:336|425:301|438:183|343:136,1,299.999990844727,12|2,0:0|0:0,0:0:0:0:
14,346,100234,2,0,L|319:311,1,299.999990844727,12|2,0:0|0:0,0:0:0:0:
112,128,100684,5,8,0:0:0:0:
88,272,100834,1,0,0:0:0:0:
214,223,100984,1,8,0:0:0:0:
0,196,101134,1,0,0:0:0:0:
192,352,101284,1,8,0:0:0:0:
240,80,101434,1,2,0:0:0:0:
377,240,101584,6,0,P|341:275|151:248,1,250,12|2,0:0|0:0,0:0:0:0:
175,148,102034,2,0,P|79:223|129:333,1,250,12|2,0:0|0:0,0:0:0:0:
264,104,102484,2,0,P|238:62|152:56,1,125,8|0,0:0|0:0,0:0:0:0:
408,156,102784,2,0,P|457:149|500:87,1,125,8|0,0:0|0:0,0:0:0:0:
320,248,103084,2,0,P|321:325|361:357,1,125,8|2,0:0|0:0,0:0:0:0:
512,204,103309,1,2,0:0:0:0:
500,189,103384,6,0,B|444:144|346:154|306:172|306:172|341:169|382:196,1,250,12|2,0:0|0:0,0:0:0:0:
320,248,103834,2,0,B|276:260|239:305|239:305|228:216|140:148,1,250,12|2,0:0|0:0,0:0:0:0:
44,96,104284,2,0,P|18:194|35:237,1,125,8|0,0:0|0:0,0:0:0:0:
200,168,104584,1,8,0:0:0:0:
200,168,104659,1,2,0:0:0:0:
200,168,104734,1,2,0:0:0:0:
246,324,104884,6,0,L|374:326,1,125,2|0,0:0|0:0,0:0:0:0:
378,128,105184,2,0,P|368:201|405:272,1,125,12|0,0:0|0:0,0:0:0:0:
474,275,105484,1,2,0:0:0:0:
320,40,105634,2,0,P|280:134|303:278,1,250,12|2,0:0|0:0,0:0:0:0:
415,324,106084,5,8,0:0:0:0:
192,204,106234,1,0,0:0:0:0:
331,157,106384,2,0,P|328:209|287:297,1,125,8|0,0:0|0:0,0:0:0:0:
303,69,106684,1,10,0:0:0:0:
333,60,106759,1,2,0:0:0:0:
364,57,106834,1,2,0:0:0:0:
395,59,106909,1,2,0:0:0:0:
423,71,106984,6,0,P|461:135|430:204,1,125,12|0,0:0|0:0,0:0:0:0:
332,225,107284,1,2,0:0:0:0:
146,121,107434,2,0,L|277:123,1,125,12|0,0:0|0:0,0:0:0:0:
195,345,107734,1,2,0:0:0:0:
146,121,107884,2,0,B|189:74|189:74|193:281,1,250,12|2,0:0|0:0,0:0:0:0:
34,198,108334,1,2,0:0:0:0:
244,332,108484,5,2,0:0:0:0:
206,334,108559,1,2,0:0:0:0:
168,336,108634,1,2,0:0:0:0:
130,338,108709,1,2,0:0:0:0:
74,346,108784,6,0,B|28:254|28:254|88:164,1,187.500007152558,12|0,0:0|0:0,0:0:0:0:
385,321,109234,2,2,L|492:332,2,93.7500035762788
438,197,109684,6,0,B|484:105|484:105|424:15,1,187.500007152558,8|0,0:0|0:0,0:0:0:0:
110,183,110134,2,2,L|3:194,2,93.7500035762788
326,335,110584,2,0,L|429:381,1,93.7500035762788,8|0,0:0|0:0,0:0:0:0:
159,8,110884,2,0,L|116:104,1,93.7500035762788,8|0,0:0|0:0,0:0:0:0:
482,91,111184,1,2,0:0:0:0:
311,40,111334,1,2,0:0:0:0:
366,337,111484,5,12,0:0:0:0:
397,83,111634,1,0,0:0:0:0:
268,346,111784,1,12,0:0:0:0:
239,50,111934,1,0,0:0:0:0:
159,349,112084,1,12,0:0:0:0:
34,87,112234,1,0,0:0:0:0:
31,254,112384,6,0,B|134:294|250:262|250:262|265:209|234:142,1,299.999990844727,4|2,0:0|0:0,0:0:0:0:
201,18,112834,1,0,0:0:0:0:
31,140,112984,2,0,L|151:173,1,74.9999977111817,2|0,0:0|0:0,0:0:0:0:
234,82,113134,2,0,L|346:64,1,74.9999977111817
486,141,113284,2,0,P|401:204|377:128,1,149.999995422363,8|0,0:0|0:0,0:0:0:0:
422,56,113584,1,2,0:0:0:0:
305,255,113734,1,0,0:0:0:0:
211,119,113884,2,0,B|291:89|291:89|414:118,1,149.999995422363,2|0,0:0|0:0,0:0:0:0:
294,348,114184,6,0,B|263:249|297:164|297:164|361:206|365:258,1,299.999990844727,4|0,0:0|0:0,0:0:0:0:
216,335,114634,1,0,0:0:0:0:
466,122,114784,2,0,L|463:284,1,149.999995422363,2|0,0:0|0:0,0:0:0:0:
232,68,115084,2,0,B|286:141|286:141|34:131,1,299.999990844727,8|0,0:0|0:0,0:0:0:0:
92,38,115534,1,0,0:0:0:0:
36,288,115684,5,2,0:0:0:0:
18,246,115759,1,2,0:0:0:0:
12,201,115834,1,2,0:0:0:0:
12,156,115909,1,2,0:0:0:0:
20,111,115984,6,0,B|99:113|155:188|155:188|179:104|254:82,1,299.999990844727,4|0,0:0|0:0,0:0:0:0:
352,192,116434,1,0,0:0:0:0:
448,32,116584,2,0,L|447:204,1,149.999995422363,2|0,0:0|0:0,0:0:0:0:
280,320,116884,2,0,P|349:270|416:329,1,149.999995422363,8|0,0:0|0:0,0:0:0:0:
352,380,117184,1,0,0:0:0:0:
403,126,117334,1,0,0:0:0:0:
512,312,117484,1,2,0:0:0:0:
211,273,117634,1,0,0:0:0:0:
316,96,117784,6,0,B|387:8|497:70|497:70|455:12|362:13,1,299.999990844727,4|0,0:0|0:0,0:0:0:0:
184,121,118234,1,0,0:0:0:0:
225,348,118384,2,0,L|145:348,1,74.9999977111817,2|0,0:0|0:0,0:0:0:0:
159,237,118534,2,0,L|268:237,1,74.9999977111817
55,350,118684,6,0,P|45:274|125:132,1,224.999993133545,8|0,0:0|0:0,0:0:0:0:
217,46,118984,1,8,0:0:0:0:
246,80,119059,1,8,0:0:0:0:
252,124,119134,1,8,0:0:0:0:
241,167,119209,1,8,0:0:0:0:
219,206,119284,1,10,0:0:0:0:
204,248,119359,1,2,0:0:0:0:
219,290,119434,1,2,0:0:0:0:
250,322,119509,1,2,0:0:0:0:
292,336,119584,6,0,P|378:300|398:212,1,149.999995422363,6|0,0:0|0:0,0:0:0:0:
339,37,119884,2,0,L|325:237,1,149.999995422363
512,184,120184,1,2,0:0:0:0:
423,17,120334,1,0,0:0:0:0:
239,183,120484,2,0,B|263:210|263:210|411:201,1,149.999995422363,8|0,0:0|0:0,0:0:0:0:
267,6,120784,5,0,0:0:0:0:
169,231,120934,1,0,0:0:0:0:
293,137,121084,2,0,B|253:95|253:95|101:86,1,149.999995422363,2|0,0:0|0:0,0:0:0:0:
104,286,121384,2,0,B|153:362|153:362|221:149,2,299.999990844727,4|0|2,0:0|0:0|0:0,0:0:0:0:
34,165,122134,5,2,0:0:0:0:
58,144,122209,1,2,0:0:0:0:
82,120,122284,2,0,L|259:140,1,149.999995422363,8|0,0:0|0:0,0:0:0:0:
443,207,122584,2,0,P|342:217|288:156,1,149.999995422363
456,6,122884,2,0,L|495:166,1,149.999995422363,2|2,0:0|0:0,0:0:0:0:
220,96,123109,1,2,0:0:0:0:
240,68,123184,2,0,L|422:67,1,149.999995422363,4|0,0:0|0:0,0:0:0:0:
243,291,123484,5,2,0:0:0:0:
437,119,123634,1,0,0:0:0:0:
446,342,123784,1,2,0:0:0:0:
428,115,123934,1,0,0:0:0:0:
243,291,124084,2,0,L|443:315,1,149.999995422363,8|0,0:0|0:0,0:0:0:0:
185,204,124384,2,0,P|143:292|157:389,1,149.999995422363,2|0,0:0|0:0,0:0:0:0:
395,173,124684,5,2,0:0:0:0:
389,167,124759,1,2,0:0:0:0:
383,161,124834,1,2,0:0:0:0:
377,155,124909,1,2,0:0:0:0:
371,149,124984,2,0,L|189:147,1,149.999995422363,4|0,0:0|0:0,0:0:0:0:
237,331,125284,5,2,0:0:0:0:
154,47,125434,1,0,0:0:0:0:
22,252,125584,1,2,0:0:0:0:
297,169,125734,1,0,0:0:0:0:
20,138,125884,2,0,B|28:184|28:184|72:236|72:236|86:313,1,149.999995422363,8|0,0:0|0:0,0:0:0:0:
214,342,126184,5,10,0:0:0:0:
230,292,126259,1,10,0:0:0:0:
266,254,126334,1,10,0:0:0:0:
311,227,126409,1,10,0:0:0:0:
363,222,126484,1,10,0:0:0:0:
377,216,126559,1,2,0:0:0:0:
386,204,126634,1,2,0:0:0:0:
390,189,126709,1,2,0:0:0:0:
353,123,126784,6,0,L|158:126,1,149.999995422363,4|0,0:0|0:0,0:0:0:0:
87,132,127084,1,2,0:0:0:0:
457,130,127234,2,0,P|233:29|159:63,1,299.999990844727
302,219,127684,2,0,P|352:228|368:134,1,149.999995422363,8|0,0:0|0:0,0:0:0:0:
202,286,127984,2,0,B|255:324|255:324|405:320,1,149.999995422363,2|0,0:0|0:0,0:0:0:0:
496,310,128209,5,0,0:0:0:0:
496,310,128284,1,2,0:0:0:0:
365,25,128584,6,0,B|477:167|304:168|419:310,1,299.999990844727,4|2,0:0|0:0,0:0:0:0:
279,113,129034,1,0,0:0:0:0:
490,202,129184,1,2,0:0:0:0:
276,264,129334,1,0,0:0:0:0:
495,341,129484,2,0,P|404:348|337:305,1,149.999995422363,8|0,0:0|0:0,0:0:0:0:
426,126,129784,5,2,0:0:0:0:
234,297,129934,1,0,0:0:0:0:
296,23,130084,2,0,P|323:113|307:197,1,149.999995422363,2|0,0:0|0:0,0:0:0:0:
100,103,130384,2,0,B|61:92|30:117|30:117|77:44|216:49|269:126,1,299.999990844727,4|2,0:0|0:0,0:0:0:0:
340,224,130834,5,0,0:0:0:0:
75,174,130984,1,2,0:0:0:0:
340,224,131134,1,0,0:0:0:0:
280,16,131284,2,0,P|308:109|273:151,1,149.999995422363,8|0,0:0|0:0,0:0:0:0:
204,349,131584,2,0,P|182:284|231:205,1,149.999995422363,2|0,0:0|0:0,0:0:0:0:
463,298,131884,2,0,L|285:284,1,149.999995422363,2|0,0:0|0:0,0:0:0:0:
419,72,132184,6,0,B|497:19|497:19|461:241,1,299.999990844727,4|0,0:0|0:0,0:0:0:0:
93,223,132634,2,0,P|246:139|400:227,1,299.999990844727
200,335,133084,1,8,0:0:0:0:
275,209,133234,1,0,0:0:0:0:
309,317,133384,1,2,0:0:0:0:
384,191,133534,1,0,0:0:0:0:
416,316,133684,1,2,0:0:0:0:
491,190,133834,1,0,0:0:0:0:
334,61,133984,6,0,B|395:110|395:110|153:93,1,299.999990844727,4|0,0:0|0:0,0:0:0:0:
239,24,134434,1,0,0:0:0:0:
348,189,134584,2,0,L|134:171,1,149.999995422363,2|0,0:0|0:0,0:0:0:0:
190,309,134809,1,0,0:0:0:0:
190,309,134884,1,8,0:0:0:0:
18,162,135034,1,0,0:0:0:0:
18,162,135109,1,0,0:0:0:0:
18,162,135184,2,0,L|222:144,1,149.999995422363
96,56,135484,5,2,0:0:0:0:
421,178,135784,6,0,P|457:295|306:180,1,449.99998626709,4|0,0:0|0:0,0:0:0:0:
392,84,136384,2,0,P|304:126|268:59,1,149.999995422363,2|0,0:0|0:0,0:0:0:0:
453,314,136684,2,0,L|110:341,1,299.999990844727,8|2,0:0|0:0,0:0:0:0:
45,211,137134,1,0,0:0:0:0:
189,33,137284,5,2,0:0:0:0:
230,75,137359,1,2,0:0:0:0:
248,132,137434,1,2,0:0:0:0:
250,191,137509,1,2,0:0:0:0:
214,239,137584,2,0,P|183:158|219:65,1,149.999995422363,4|0,0:0|0:0,0:0:0:0:
381,104,137884,5,2,0:0:0:0:
337,352,138034,1,0,0:0:0:0:
138,240,138184,1,8,0:0:0:0:
190,240,138259,1,8,0:0:0:0:
242,240,138334,1,8,0:0:0:0:
294,240,138409,1,8,0:0:0:0:
346,238,138484,1,12,0:0:0:0:
48,240,138784,5,2,0:0:0:0:
120,33,138934,1,0,0:0:0:0:
428,177,139084,2,0,L|152:175,1,224.999993133545,10|2,0:0|0:0,0:0:0:0:
223,111,139384,2,0,P|247:226|135:195,1,224.999993133545,6|0,0:0|0:0,0:0:0:0:
50,121,139684,5,8,0:0:0:0:
98,140,139759,1,8,0:0:0:0:
118,188,139834,1,8,0:0:0:0:
98,236,139909,1,8,0:0:0:0:
50,258,139984,2,0,P|138:232|198:331,1,224.999993133545,8|2,0:0|0:0,0:0:0:0:
118,313,140284,6,0,L|140:105,1,149.999995422363,6|0,0:0|0:0,0:0:0:0:
459,188,140584,1,8,0:0:0:0:
406,217,140659,1,8,0:0:0:0:
348,233,140734,1,8,0:0:0:0:
289,220,140809,1,8,0:0:0:0:
242,181,140884,1,10,0:0:0:0:
215,127,140959,1,2,0:0:0:0:
168,89,141034,1,2,0:0:0:0:
108,84,141109,1,2,0:0:0:0:
48,124,141184,5,4,0:0:0:0:
56,112,148384,6,0,B|48:244|48:244|80:316,1,200,4|0,0:0|0:0,0:0:0:0:
344,216,148834,2,0,B|284:172|284:172|128:176,1,200,4|0,0:0|0:0,0:0:0:0:
176,344,149284,2,0,P|220:288|204:244,1,100,2|0,0:0|0:0,0:0:0:0:
304,328,149584,2,0,P|306:256|267:230,1,100,2|0,0:0|0:0,0:0:0:0:
456,260,149884,2,0,P|395:183|349:192,1,150,2|0,0:0|0:0,0:0:0:0:
384,256,150184,6,0,P|408:336|460:344,1,100,4|0,0:0|0:0,0:0:0:0:
432,116,150484,1,2,0:0:0:0:
280,208,150634,2,0,P|304:288|356:296,1,100,4|0,0:0|0:0,0:0:0:0:
328,68,150934,1,2,0:0:0:0:
456,200,151084,2,0,L|344:204,1,100,4|0,0:0|0:0,0:0:0:0:
488,288,151384,2,0,L|368:292,1,100,4|0,0:0|0:0,0:0:0:0:
240,180,151684,6,4,B|268:220|268:220|236:336,1,150,2|0,0:0|0:0,0:0:0:0:
172,248,151984,2,0,P|136:284|92:256,1,100,4|0,0:0|0:0,0:0:0:0:
80,184,152284,1,2,0:0:0:0:
284,160,152434,2,0,P|248:196|204:168,1,100,4|0,0:0|0:0,0:0:0:0:
192,96,152734,1,2,0:0:0:0:
416,80,152884,6,0,B|480:96|480:96|528:80,1,100,4|0,0:0|0:0,0:0:0:0:
240,12,153184,2,0,B|188:-4|188:-4|124:8,1,100,4|0,0:0|0:0,0:0:0:0:
16,96,153484,2,0,L|32:208,1,100,4|0,0:0|0:0,0:0:0:0:
196,160,153784,6,0,L|88:160,1,100,4|0,0:0|0:0,0:0:0:0:
208,336,154084,1,2,0:0:0:0:
352,228,154234,6,0,L|244:228,1,100,4|0,0:0|0:0,0:0:0:0:
360,384,154534,1,2,0:0:0:0:
364,152,154684,1,2,0:0:0:0:
352,192,154759,1,2,0:0:0:0:
340,228,154834,1,2,0:0:0:0:
324,264,154909,1,2,0:0:0:0:
312,304,154984,2,0,L|456:300,1,100,8|0,0:0|0:0,0:0:0:0:
476,220,155284,5,2,0:0:0:0:
464,184,155359,1,2,0:0:0:0:
452,144,155434,1,2,0:0:0:0:
440,108,155509,1,2,0:0:0:0:
420,68,155584,6,0,B|385:238|385:238|432:196,1,224.999993133545,12|2,0:0|0:0,0:0:0:0:
216,40,156034,2,0,P|282:115|354:44,1,224.999993133545,12|2,0:0|0:0,0:0:0:0:
88,0,156484,2,0,B|37:34|37:34|27:103,1,112.499996566773,8|0,0:0|0:0,0:0:0:0:
288,32,156784,2,0,B|228:8|228:8|148:48,1,112.499996566773,8|0,0:0|0:0,0:0:0:0:
104,80,157084,2,0,B|156:120|156:120|280:124,1,168.749994850159,8|0,0:0|0:0,0:0:0:0:
80,0,157384,6,0,P|40:48|48:136,1,112.499996566773,12|0,0:0|0:0,0:0:0:0:
136,200,157684,1,2,0:0:0:0:
224,28,157834,2,0,P|264:80|272:136,1,112.499996566773,12|0,0:0|0:0,0:0:0:0:
217,233,158134,1,2,0:0:0:0:
60,136,158284,2,0,L|200:136,1,112.499996566773,8|0,0:0|0:0,0:0:0:0:
144,249,158584,2,0,L|4:249,1,112.499996566773,8|0,0:0|0:0,0:0:0:0:
217,233,158884,2,0,B|219:350|219:350|269:265,1,168.749994850159,8|0,0:0|0:0,0:0:0:0:
144,249,159184,6,0,L|146:372,1,112.499996566773,12|0,0:0|0:0,0:0:0:0:
306,237,159484,1,2,0:0:0:0:
404,384,159634,6,0,L|400:240,1,112.499996566773,12|0,0:0|0:0,0:0:0:0:
306,237,159934,1,2,0:0:0:0:
361,56,160084,2,0,B|325:96|325:96|313:192,1,112.499996566773,8|0,0:0|0:0,0:0:0:0:
512,132,160384,2,0,L|372:136,1,112.499996566773,8|0,0:0|0:0,0:0:0:0:
484,318,160684,2,0,P|516:258|500:190,1,112.499996566773,8|0,0:0|0:0,0:0:0:0:
324,0,160984,6,0,L|252:132,1,112.499996566773,12|0,0:0|0:0,0:0:0:0:
208,212,161284,1,2,0:0:0:0:
428,292,161434,2,0,L|384:144,1,112.499996566773,12|0,0:0|0:0,0:0:0:0:
360,76,161734,1,2,0:0:0:0:
192,196,161884,2,0,P|256:200|304:168,1,112.499996566773,8|0,0:0|0:0,0:0:0:0:
152,108,162184,2,0,P|156:40|124:0,1,112.499996566773,8|0,0:0|0:0,0:0:0:0:
100,184,162484,2,0,P|36:196|-4:240,1,112.499996566773,8|0,0:0|0:0,0:0:0:0:
224,236,162784,6,0,P|281:214|356:228,2,112.499996566773,12|0|2,0:0|0:0|0:0,0:0:0:0:
209,136,163234,2,0,P|244:88|240:28,2,112.499996566773,12|0|2,0:0|0:0|0:0,0:0:0:0:
416,28,163684,1,8,0:0:0:0:
468,192,163834,1,0,0:0:0:0:
407,0,163984,1,8,0:0:0:0:
476,219,164134,1,0,0:0:0:0:
184,224,164284,6,0,L|364:216,1,168.749994850159,8|0,0:0|0:0,0:0:0:0:
436,216,164584,2,0,L|368:352,1,112.499996566773,12|0,0:0|0:0,0:0:0:0:
352,384,164884,1,2,0:0:0:0:
204,148,165034,2,0,L|352:144,1,112.499996566773,12|0,0:0|0:0,0:0:0:0:
262,293,165334,1,2,0:0:0:0:
21,232,165484,5,8,0:0:0:0:
183,211,165634,1,0,0:0:0:0:
0,234,165784,1,8,0:0:0:0:
203,208,165934,1,0,0:0:0:0:
130,20,166084,2,0,L|113:205,1,168.749994850159,8|0,0:0|0:0,0:0:0:0:
94,287,166384,6,0,P|169:253|254:264,1,168.749994850159,12|0,0:0|0:0,0:0:0:0:
337,306,166684,1,2,0:0:0:0:
505,172,166834,2,0,P|430:138|345:149,1,168.749994850159,12|0,0:0|0:0,0:0:0:0:
262,191,167134,1,2,0:0:0:0:
175,336,167284,5,8,0:0:0:0:
128,113,167434,1,0,0:0:0:0:
329,340,167584,1,8,0:0:0:0:
388,118,167734,1,0,0:0:0:0:
457,266,167884,1,2,0:0:0:0:
457,266,167959,1,2,0:0:0:0:
457,266,168034,1,2,0:0:0:0:
457,266,168109,1,2,0:0:0:0:
494,300,168184,6,0,L|510:391,2,81.2499962806703,4|0|0,0:0|0:0|0:0,0:0:0:0:
363,76,168634,2,0,L|399:-30,2,81.2499962806703,4|0|0,0:0|0:0|0:0,0:0:0:0:
317,304,169084,2,0,L|331:409,1,81.2499962806703,4|0,0:0|0:0,0:0:0:0:
466,220,169384,5,8,0:0:0:0:
424,186,169459,1,8,0:0:0:0:
374,168,169534,1,8,0:0:0:0:
322,178,169609,1,8,0:0:0:0:
277,206,169684,1,10,0:0:0:0:
233,235,169759,1,2,0:0:0:0:
182,249,169834,1,2,0:0:0:0:
132,231,169909,1,2,0:0:0:0:
73,178,169984,6,4,P|133:118|265:235,1,299.999990844727,4|0,0:0|0:0,0:0:0:0:
171,309,170434,1,0,0:0:0:0:
484,306,170584,2,0,B|452:326|452:326|285:315,1,149.999995422363,2|2,0:0|0:0,0:0:0:0:
226,349,170809,5,2,0:0:0:0:
226,349,170884,1,8,0:0:0:0:
144,114,171034,1,0,0:0:0:0:
0,256,171184,2,0,B|120:256|120:256|164:280,1,149.999995422363
287,249,171409,1,0,0:0:0:0:
287,249,171484,1,2,0:0:0:0:
162,33,171634,5,2,0:0:0:0:
109,39,171709,1,2,0:0:0:0:
57,48,171784,2,8,B|9:116|9:116|70:207|70:207|61:138|124:111,1,299.999990844727,4|0,0:0|0:0,0:0:0:0:
295,184,172234,2,0,B|205:155|139:190,1,149.999995422363
341,299,172534,1,0,0:0:0:0:
512,130,172684,2,0,B|442:146|442:146|363:118,1,149.999995422363,8|0,0:0|0:0,0:0:0:0:
286,224,172984,5,0,0:0:0:0:
445,60,173134,1,0,0:0:0:0:
473,298,173284,1,2,0:0:0:0:
294,86,173434,1,0,0:0:0:0:
512,232,173584,6,0,B|478:286|386:304|321:279|321:279|388:272|412:224,1,299.999990844727,4|0,0:0|0:0,0:0:0:0:
328,200,174034,2,0,P|280:155|190:179,1,149.999995422363
247,258,174334,1,0,0:0:0:0:
112,87,174484,2,0,P|126:182|72:257,1,149.999995422363,8|0,0:0|0:0,0:0:0:0:
256,349,174784,5,0,0:0:0:0:
103,227,174934,1,0,0:0:0:0:
400,192,175084,2,0,B|414:287|414:287|376:346,1,149.999995422363,2|0,0:0|0:0,0:0:0:0:
192,104,175384,6,0,B|229:69|229:69|452:67,1,224.999993133545,4|0,0:0|0:0,0:0:0:0:
484,0,175684,2,0,L|471:175,1,149.999995422363
377,250,175984,2,0,P|463:222|524:262,1,149.999995422363,2|0,0:0|0:0,0:0:0:0:
441,378,176284,1,8,0:0:0:0:
295,137,176434,1,0,0:0:0:0:
495,170,176584,1,8,0:0:0:0:
249,342,176734,5,0,0:0:0:0:
319,67,176884,1,2,0:0:0:0:
319,67,176959,1,2,0:0:0:0:
319,67,177034,1,2,0:0:0:0:
319,67,177109,1,2,0:0:0:0:
347,109,177184,6,0,P|254:129|249:314,1,299.999990844727,4|0,0:0|0:0,0:0:0:0:
292,230,177634,1,0,0:0:0:0:
0,117,177784,2,0,B|10:192|10:192|97:252,1,149.999995422363,2|0,0:0|0:0,0:0:0:0:
217,153,178084,2,0,B|268:112|268:112|102:114,1,224.999993133545,8|0,0:0|0:0,0:0:0:0:
0,118,178384,1,0,0:0:0:0:
196,240,178534,1,0,0:0:0:0:
249,28,178684,2,0,L|85:29,1,149.999995422363,2|0,0:0|0:0,0:0:0:0:
363,108,178984,6,0,L|547:104,1,149.999995422363,4|0,0:0|0:0,0:0:0:0:
302,182,179209,1,0,0:0:0:0:
302,182,179284,1,0,0:0:0:0:
470,354,179434,1,2,0:0:0:0:
449,305,179509,1,2,0:0:0:0:
428,256,179584,6,0,B|300:268|300:268|236:364,1,224.999993133545,2|0,0:0|0:0,0:0:0:0:
341,368,179884,2,0,P|259:249|173:285,1,224.999993133545,8|0,0:0|0:0,0:0:0:0:
121,364,180184,1,0,0:0:0:0:
24,92,180484,6,0,B|6:122|6:122|-1:276,1,149.999995422363,2|0,0:0|0:0,0:0:0:0:
170,275,180784,1,4,0:0:0:0:
148,108,180934,1,0,0:0:0:0:
50,211,181084,1,2,0:0:0:0:
283,278,181234,5,0,0:0:0:0:
322,65,181384,1,2,0:0:0:0:
130,111,181534,1,0,0:0:0:0:
431,210,181684,6,0,P|448:127|391:-8,1,224.999993133545,8|0,0:0|0:0,0:0:0:0:
238,99,181984,2,0,P|327:128|378:91,1,149.999995422363,2|0,0:0|0:0,0:0:0:0:
210,3,182284,1,2,0:0:0:0:
351,213,182584,5,4,0:0:0:0:
317,68,182734,1,0,0:0:0:0:
230,291,182884,1,2,0:0:0:0:
461,203,183034,1,0,0:0:0:0:
183,208,183184,1,2,0:0:0:0:
382,317,183334,1,0,0:0:0:0:
316,125,183484,2,0,B|276:293|276:293|359:237,1,224.999993133545,8|0,0:0|0:0,0:0:0:0:
463,106,183784,5,8,0:0:0:0:
435,52,183859,1,8,0:0:0:0:
386,16,183934,1,8,0:0:0:0:
326,17,184009,1,8,0:0:0:0:
272,44,184084,1,10,0:0:0:0:
252,75,184159,1,2,0:0:0:0:
220,94,184234,1,2,0:0:0:0:
183,100,184309,1,2,0:0:0:0:
146,89,184384,6,0,P|101:51|-5:39,1,149.999995422363,4|0,0:0|0:0,0:0:0:0:
248,192,184684,2,0,L|248:389,1,149.999995422363,2|0,0:0|0:0,0:0:0:0:
40,261,184984,2,0,P|107:176|129:306,1,299.999990844727,2|8,0:0|0:0,0:0:0:0:
0,344,185434,2,0,P|72:304|203:329,1,149.999995422363
257,298,185734,5,2,0:0:0:0:
247,341,185809,1,2,0:0:0:0:
237,384,185884,1,2,0:0:0:0:
295,114,186034,1,0,0:0:0:0:
16,82,186184,6,0,B|82:57|171:40|245:54|245:54|210:98|217:134,1,299.999990844727,4|2,0:0|0:0,0:0:0:0:
342,79,186634,2,0,P|298:106|410:137,1,224.999993133545
432,130,186934,1,0,0:0:0:0:
275,0,187084,2,0,L|293:176,1,149.999995422363,8|0,0:0|0:0,0:0:0:0:
360,283,187384,6,0,P|311:351|265:293,1,149.999995422363,2|0,0:0|0:0,0:0:0:0:
89,264,187684,2,0,P|183:241|275:264,1,149.999995422363,2|0,0:0|0:0,0:0:0:0:
36,375,187984,2,0,B|4:324|4:324|24:143,1,224.999993133545,4|0,0:0|0:0,0:0:0:0:
231,185,188284,2,0,B|190:187|155:203|155:203|121:181|73:175,1,149.999995422363,2|0,0:0|0:0,0:0:0:0:
81,275,188509,1,0,0:0:0:0:
81,275,188584,1,2,0:0:0:0:
132,44,188734,5,2,0:0:0:0:
147,86,188809,1,2,0:0:0:0:
161,127,188884,2,0,P|80:111|10:126,1,149.999995422363,8|0,0:0|0:0,0:0:0:0:
337,235,189184,2,0,B|403:281|498:257|498:257|496:216|456:158,1,224.999993133545,2|0,0:0|0:0,0:0:0:0:
403,40,189484,1,2,0:0:0:0:
240,306,189784,6,0,B|201:233|217:144|217:144|253:166|287:219,1,224.999993133545,4|0,0:0|0:0,0:0:0:0:
200,384,190084,2,0,L|45:380,1,149.999995422363,2|0,0:0|0:0,0:0:0:0:
2,268,190309,1,0,0:0:0:0:
2,268,190384,1,2,0:0:0:0:
204,200,190534,5,2,0:0:0:0:
249,202,190609,1,2,0:0:0:0:
294,204,190684,2,0,P|298:306|248:330,1,149.999995422363,8|0,0:0|0:0,0:0:0:0:
182,118,190984,5,2,0:0:0:0:
226,121,191059,1,2,0:0:0:0:
270,124,191134,1,2,0:0:0:0:
314,127,191209,1,2,0:0:0:0:
358,130,191284,1,2,0:0:0:0:
372,146,191359,1,2,0:0:0:0:
386,162,191434,1,2,0:0:0:0:
400,178,191509,1,2,0:0:0:0:
409,254,191584,6,0,B|293:278|293:278|165:210,1,224.999993133545,4|0,0:0|0:0,0:0:0:0:
302,70,191884,2,0,P|334:142|298:206,1,149.999995422363,2|0,0:0|0:0,0:0:0:0:
162,131,192109,1,0,0:0:0:0:
162,131,192184,1,2,0:0:0:0:
408,26,192334,5,2,0:0:0:0:
408,50,192409,1,2,0:0:0:0:
408,74,192484,1,10,0:0:0:0:
398,285,192634,1,0,0:0:0:0:
512,161,192784,2,0,L|348:153,1,149.999995422363,2|0,0:0|0:0,0:0:0:0:
189,146,193009,1,0,0:0:0:0:
189,146,193084,1,2,0:0:0:0:
181,358,193384,6,0,B|219:206|219:206|166:101,1,224.999993133545,4|0,0:0|0:0,0:0:0:0:
87,106,193684,1,2,0:0:0:0:
91,326,193834,2,0,B|67:158|67:158|99:78,1,224.999993133545
184,52,194134,1,0,0:0:0:0:
0,238,194284,2,0,P|48:286|143:230,1,149.999995422363,8|0,0:0|0:0,0:0:0:0:
85,64,194584,2,0,L|69:228,1,149.999995422363,2|0,0:0|0:0,0:0:0:0:
200,308,194884,5,2,0:0:0:0:
220,320,194959,1,2,0:0:0:0:
240,332,195034,1,2,0:0:0:0:
260,340,195109,1,2,0:0:0:0:
280,352,195184,6,0,B|356:355|356:355|439:319,1,149.999995422363,4|0,0:0|0:0,0:0:0:0:
465,153,195484,1,2,0:0:0:0:
328,269,195634,2,0,B|251:249|251:249|182:185,1,149.999995422363,4|0,0:0|0:0,0:0:0:0:
226,16,195934,1,2,0:0:0:0:
0,230,196084,5,6,0:0:0:0:
258,133,196234,1,0,0:0:0:0:
74,55,196384,1,4,0:0:0:0:
179,321,196534,1,0,0:0:0:0:
364,92,196684,1,8,0:0:0:0:
364,92,196759,1,8,0:0:0:0:
364,92,196834,1,8,0:0:0:0:
476,196,196984,6,0,P|420:256|292:220,1,224.999993133545,4|0,0:0|0:0,0:0:0:0:
200,76,197284,1,10,0:0:0:0:
492,88,197434,1,4,0:0:0:0:
256,324,197584,1,0,0:0:0:0:
328,48,197734,1,10,0:0:0:0:
500,232,197884,1,4,0:0:0:0:
144,224,198034,1,0,0:0:0:0:
317,349,198184,5,8,0:0:0:0:
368,317,198259,1,8,0:0:0:0:
393,262,198334,1,8,0:0:0:0:
370,206,198409,1,8,0:0:0:0:
328,178,198484,1,10,0:0:0:0:
286,150,198559,1,2,0:0:0:0:
257,108,198634,1,2,0:0:0:0:
259,58,198709,1,2,0:0:0:0:
293,21,198784,6,0,P|323:91|262:269,1,250,6|0,0:0|0:0,0:0:0:0:
29,285,199234,2,0,B|68:250|68:250|160:254,1,125
357,268,199534,1,2,0:0:0:0:
265,375,199684,2,0,B|220:321|220:321|208:120,1,250,8|2,0:0|0:0,0:0:0:0:
316,17,200134,1,2,0:0:0:0:
490,154,200284,2,0,L|341:160,1,125,2|2,0:0|0:0,0:0:0:0:
298,235,200509,5,2,0:0:0:0:
298,235,200584,2,0,P|268:165|405:19,1,250,6|0,0:0|0:0,0:0:0:0:
366,160,201034,1,2,0:0:0:0:
189,28,201184,1,2,0:0:0:0:
25,170,201334,1,2,0:0:0:0:
149,382,201484,6,0,B|185:332|185:332|186:260,1,125,8|0,0:0|0:0,0:0:0:0:
25,170,201784,2,0,B|31:238|31:238|70:294,1,125,2|0,0:0|0:0,0:0:0:0:
350,78,202084,1,2,0:0:0:0:
302,79,202159,1,2,0:0:0:0:
250,79,202234,1,2,0:0:0:0:
202,79,202309,1,2,0:0:0:0:
154,79,202384,6,0,P|93:104|61:166,1,125,4|0,0:0|0:0,0:0:0:0:
220,27,202684,2,0,P|164:7|51:38,1,125,2|0,0:0|0:0,0:0:0:0:
0,226,202984,2,0,P|59:246|136:229,1,125,2|2,0:0|0:0,0:0:0:0:
227,156,203209,1,2,0:0:0:0:
200,137,203284,2,0,L|198:312,1,125,8|0,0:0|0:0,0:0:0:0:
376,366,203584,5,2,0:0:0:0:
227,156,203734,1,0,0:0:0:0:
132,322,203884,2,0,P|194:340|290:317,1,125,2|0,0:0|0:0,0:0:0:0:
403,189,204184,2,0,B|434:158|434:158|424:322,1,187.5,4|0,0:0|0:0,0:0:0:0:
348,273,204484,1,2,0:0:0:0:
506,115,204634,1,0,0:0:0:0:
506,115,204709,1,0,0:0:0:0:
506,115,204784,2,0,L|501:246,1,125,2|2,0:0|0:0,0:0:0:0:
255,264,205009,5,2,0:0:0:0:
269,245,205084,2,0,L|447:238,1,125,8|0,0:0|0:0,0:0:0:0:
360,384,205384,1,2,0:0:0:0:
250,153,205534,5,8,0:0:0:0:
207,142,205609,1,8,0:0:0:0:
163,147,205684,1,8,0:0:0:0:
131,177,205759,1,2,0:0:0:0:
93,198,205834,1,2,0:0:0:0:
50,207,205909,1,2,0:0:0:0:
11,186,205984,6,0,P|88:135|140:148,1,125,6|0,0:0|0:0,0:0:0:0:
149,340,206284,2,0,P|93:296|100:233,1,125,2|0,0:0|0:0,0:0:0:0:
226,132,206584,1,2,0:0:0:0:
252,359,206734,1,0,0:0:0:0:
54,243,206884,2,0,L|256:236,1,187.5,8|0,0:0|0:0,0:0:0:0:
149,340,207184,2,0,L|25:344,1,125,2|2,0:0|0:0,0:0:0:0:
233,111,207409,5,2,0:0:0:0:
233,111,207484,2,0,L|242:257,1,125,2|0,0:0|0:0,0:0:0:0:
442,377,207784,1,4,0:0:0:0:
352,153,207934,1,0,0:0:0:0:
183,292,208084,2,0,B|235:322|235:322|365:282,1,187.5,2|0,0:0|0:0,0:0:0:0:
501,318,208384,1,2,0:0:0:0:
454,88,208534,5,2,0:0:0:0:
435,127,208609,1,2,0:0:0:0:
417,167,208684,1,8,0:0:0:0:
501,318,208834,1,0,0:0:0:0:
454,88,208984,2,0,B|413:64|413:64|292:91,1,125,2|0,0:0|0:0,0:0:0:0:
141,22,209209,5,0,0:0:0:0:
141,22,209284,1,2,0:0:0:0:
60,176,209584,5,4,0:0:0:0:
270,158,209734,1,0,0:0:0:0:
31,225,209884,1,2,0:0:0:0:
305,197,210034,1,0,0:0:0:0:
124,357,210184,1,2,0:0:0:0:
178,42,210334,1,0,0:0:0:0:
280,269,210484,6,0,P|125:211|19:251,1,250,8|2,0:0|0:0,0:0:0:0:
403,280,210934,1,0,0:0:0:0:
403,280,211084,1,2,0:0:0:0:
351,75,211384,5,4,0:0:0:0:
483,293,211534,1,0,0:0:0:0:
441,36,211684,1,2,0:0:0:0:
310,309,211834,1,0,0:0:0:0:
343,8,211984,1,2,0:0:0:0:
397,256,212134,1,0,0:0:0:0:
201,113,212284,6,0,L|421:126,1,187.5,8|0,0:0|0:0,0:0:0:0:
470,233,212584,1,8,0:0:0:0:
448,246,212659,1,8,0:0:0:0:
423,250,212734,1,8,0:0:0:0:
398,248,212809,1,8,0:0:0:0:
345,193,212884,1,10,0:0:0:0:
298,173,212959,1,2,0:0:0:0:
248,170,213034,1,2,0:0:0:0:
198,176,213109,1,2,0:0:0:0:
154,200,213184,6,0,B|232:235|361:215|361:215|278:227|216:146,1,324.999985122681,4|2,0:0|0:0,0:0:0:0:
371,135,213634,2,0,P|299:130|321:19,1,162.499992561341,0|2,0:0|0:0,0:0:0:0:
435,51,213934,1,0,0:0:0:0:
512,223,214084,6,0,B|529:302|529:302|321:254,1,243.749988842011,8|0,0:0|0:0,0:0:0:0:
252,382,214384,2,0,P|301:292|244:153,1,243.749988842011,2|0,0:0|0:0,0:0:0:0:
146,269,214684,1,2,0:0:0:0:
29,144,214984,6,0,B|33:107|10:81|10:81|134:149|282:106,1,324.999985122681,4|2,0:0|0:0,0:0:0:0:
211,8,215434,2,0,P|154:172|228:224,1,243.749988842011
259,111,215734,1,0,0:0:0:0:
340,352,215884,2,0,P|392:256|329:147,1,243.749988842011,8|0,0:0|0:0,0:0:0:0:
12,249,216184,5,8,0:0:0:0:
49,280,216259,1,8,0:0:0:0:
94,298,216334,1,8,0:0:0:0:
142,303,216409,1,8,0:0:0:0:
189,290,216484,1,10,0:0:0:0:
229,262,216559,1,2,0:0:0:0:
251,218,216634,1,2,0:0:0:0:
257,169,216709,1,2,0:0:0:0:
202,125,216784,6,0,B|173:179|179:247|222:309|222:309|218:277|246:221,1,243.749988842011,4|0,0:0|0:0,0:0:0:0:
324,352,217084,1,2,0:0:0:0:
390,199,217234,1,0,0:0:0:0:
422,199,217309,1,0,0:0:0:0:
454,200,217384,2,0,B|491:239|491:239|258:240,1,243.749988842011,2|0,0:0|0:0,0:0:0:0:
308,91,217684,6,0,P|332:175|261:265,1,162.499992561341,8|0,0:0|0:0,0:0:0:0:
254,354,217909,1,0,0:0:0:0:
254,354,217984,2,0,P|150:284|43:344,1,243.749988842011
0,266,218284,1,2,0:0:0:0:
168,8,218584,6,0,B|146:183|146:183|171:153|225:129,1,243.749988842011,4|0,0:0|0:0,0:0:0:0:
198,279,218884,2,0,P|230:211|304:259,1,162.499992561341
380,362,219109,1,0,0:0:0:0:
380,362,219184,1,0,0:0:0:0:
476,264,219334,1,0,0:0:0:0:
476,264,219409,1,0,0:0:0:0:
476,264,219484,2,0,P|467:186|371:113,1,162.499992561341,8|0,0:0|0:0,0:0:0:0:
154,76,219784,5,0,0:0:0:0:
302,35,219934,1,0,0:0:0:0:
218,264,220084,1,0,0:0:0:0:
87,17,220384,6,0,B|3:155|218:180|93:344,1,324.999985122681,6|0,0:0|0:0,0:0:0:0:
54,384,220834,1,2,0:0:0:0:
18,233,220984,1,2,0:0:0:0:
223,368,221134,1,0,0:0:0:0:
349,285,221284,2,0,B|195:259|195:259|111:320,1,243.749988842011,8|0,0:0|0:0,0:0:0:0:
223,368,221584,5,2,0:0:0:0:
149,158,221734,1,2,0:0:0:0:
158,112,221809,1,2,0:0:0:0:
166,71,221884,2,0,B|286:28|286:28|301:94|301:94|225:125,1,243.749988842011,2|0,0:0|0:0,0:0:0:0:
76,207,222184,6,0,B|31:262|31:262|35:71,1,243.749988842011,4|0,0:0|0:0,0:0:0:0:
111,293,222484,1,2,0:0:0:0:
326,262,222634,1,0,0:0:0:0:
227,338,222784,2,0,L|203:138,1,162.499992561341,2|2,0:0|0:0,0:0:0:0:
363,70,223009,1,2,0:0:0:0:
363,70,223084,6,0,P|258:119|190:32,1,243.749988842011,10|0,0:0|0:0,0:0:0:0:
277,24,223384,2,0,L|261:337,1,243.749988842011,2|0,0:0|0:0,0:0:0:0:
76,198,223684,5,8,0:0:0:0:
156,205,223759,5,8,0:0:0:0:
236,212,223834,5,8,0:0:0:0:
316,219,223909,5,8,0:0:0:0:
396,228,223984,5,12,0:0:0:0:
256,192,224059,12,0,238384,0:0:0:0:
