osu file format v14

[General]
AudioFilename: audio.mp3
AudioLeadIn: 0
PreviewTime: 254766
Countdown: 0
SampleSet: Soft
StackLeniency: 0.3
Mode: 0
LetterboxInBreaks: 0
WidescreenStoryboard: 0

[Editor]
Bookmarks: 703,24453,44610,64453,84453,107110,126953,147110,166953,186953,206953,227110,247110,266953,299766,313203
DistanceSpacing: 1.2
BeatDivisor: 4
GridSize: 4
TimelineZoom: 1.6

[Metadata]
Title:TWiNKLE CiRCLE
TitleUnicode:TWiNKLE CiRCLE
Artist:Aimi, Sakura Ayane, Maeshima Ami, Aiba Aina, Itou Miku
ArtistUnicode:愛美、 佐倉綾音、 前島亜美、 相羽あいな、 伊藤美来
Creator:Andrea
Version:WE LOVE MUSiC
Source:バンドリ! ガールズバンドパーティ!
Tags:Pastel Palettes Pastel*Palettes Pastel✽Palettes パスパレ PasuPare パステル パレット Afterglow アフターグロウ poppin'party ポッピン パーティー PoPiPa ポピパ roselia ロゼリア hello happy world! ハロー、ハッピーワールド!HaroHapi ハロハピ 3rd anniversary Toyama Kasumi 戸山香澄 Ran Mitake 美竹蘭 Kokoro Tsurumaki 弦巻こころ Aya Maruyama 丸山彩 Minato Yukina 湊友希那 osuplayer111 Sekai Sekaii Sekai-nyan Baack Collaboration Full Version Female Vocals Anime Video Game Japanese JPop J-Pop Pop Idols bandori GARUPA PICO BanG Dream! girls band party GBP! Special Band 大盛り一丁!ガルパ☆ピコ Ohmori Icchou! Videogame
BeatmapID:3544927
BeatmapSetID:1734361

[Difficulty]
HPDrainRate:6
CircleSize:4
OverallDifficulty:9.2
ApproachRate:9.4
SliderMultiplier:1.6
SliderTickRate:1

[Events]
//Background and Video events
0,0,"BG.jpg",0,0
//Break Periods
//Storyboard Layer 0 (Background)
//Storyboard Layer 1 (Fail)
//Storyboard Layer 2 (Pass)
//Storyboard Layer 3 (Foreground)
//Storyboard Layer 4 (Overlay)
//Storyboard Sound Samples

[TimingPoints]
-390,312.5,4,2,1,60,1,0
703,-111.111111111111,4,2,1,60,0,0
1172,-111.111111111111,4,2,1,60,0,0
1406,-111.111111111111,4,2,1,5,0,0
1485,-111.111111111111,4,2,1,60,0,0
3437,-111.111111111111,4,2,1,5,0,0
3516,-111.111111111111,4,2,1,60,0,0
4922,-111.111111111111,4,2,1,60,0,0
6172,-111.111111111111,4,2,1,60,0,0
8437,-111.111111111111,4,2,1,5,0,0
8516,-111.111111111111,4,2,1,60,0,0
10703,-111.111111111111,4,2,1,5,0,0
10860,-111.111111111111,4,2,1,60,0,0
11562,-111.111111111111,4,2,1,5,0,0
11641,-111.111111111111,4,2,1,60,0,0
11875,-111.111111111111,4,2,1,5,0,0
11953,-100,4,2,1,70,0,0
14766,-100,4,2,1,70,0,0
16406,-100,4,2,1,5,0,0
16485,-100,4,2,1,70,0,0
17735,-100,4,2,1,70,0,0
22187,-100,4,2,1,5,0,0
22266,-100,4,2,1,70,0,0
23437,-100,4,2,1,5,0,0
23516,-100,4,2,1,70,0,0
24453,-100,4,2,1,65,0,0
32344,-100,4,2,1,5,0,0
32422,-100,4,2,1,65,0,0
39531,-100,4,2,1,5,0,0
39610,-100,4,2,1,65,0,0
41562,-100,4,2,1,5,0,0
41641,-100,4,2,1,65,0,0
42812,-100,4,2,1,5,0,0
42891,-100,4,2,1,65,0,0
44531,-100,4,2,1,5,0,0
44610,-100,4,2,1,70,0,0
44844,-100,4,2,1,5,0,0
44922,-100,4,2,1,70,0,0
46875,-100,4,2,1,5,0,0
46953,-100,4,2,1,70,0,0
47187,-100,4,2,1,5,0,0
47266,-100,4,2,1,70,0,0
49375,-100,4,2,1,5,0,0
49453,-100,4,2,1,70,0,0
49687,-100,4,2,1,5,0,0
49766,-100,4,2,1,70,0,0
51875,-100,4,2,1,5,0,0
51953,-100,4,2,1,70,0,0
52187,-100,4,2,1,5,0,0
52266,-100,4,2,1,70,0,0
55469,-100,4,2,1,5,0,0
55547,-100,4,2,1,70,0,0
57969,-100,4,2,1,5,0,0
58047,-100,4,2,1,70,0,0
59844,-100,4,2,1,5,0,0
59922,-100,4,2,1,70,0,0
61953,-100,4,2,1,73,0,0
62187,-100,4,2,1,5,0,0
62266,-100,4,2,1,73,0,0
63672,-125,4,2,1,73,0,0
63906,-125,4,2,1,5,0,0
63985,-125,4,2,1,73,0,0
64219,-125,4,2,1,5,0,0
64297,-125,4,2,1,73,0,0
64453,-90.9090909090909,4,2,1,76,0,1
64687,-90.9090909090909,4,2,1,5,0,1
64766,-90.9090909090909,4,2,1,76,0,1
67187,-90.9090909090909,4,2,1,5,0,1
67266,-90.9090909090909,4,2,1,76,0,1
72187,-90.9090909090909,4,2,1,5,0,1
72266,-90.9090909090909,4,2,1,76,0,1
84375,-90.9090909090909,4,2,1,76,0,0
84453,-90.9090909090909,4,2,1,76,0,1
84687,-90.9090909090909,4,2,1,5,0,1
84766,-90.9090909090909,4,2,1,76,0,1
92187,-90.9090909090909,4,2,1,5,0,1
92266,-90.9090909090909,4,2,1,76,0,1
98906,-90.9090909090909,4,2,1,5,0,1
98985,-90.9090909090909,4,2,1,76,0,1
99687,-90.9090909090909,4,2,1,5,0,1
99766,-90.9090909090909,4,2,1,76,0,1
105781,-90.9090909090909,4,2,1,5,0,1
105860,-90.9090909090909,4,2,1,76,0,1
106250,-90.9090909090909,4,2,1,5,0,1
106328,-90.9090909090909,4,2,1,76,0,1
106562,-90.9090909090909,4,2,1,5,0,1
106641,-90.9090909090909,4,2,1,76,0,1
107031,-90.9090909090909,4,2,1,5,0,1
107110,-100,4,2,1,73,0,0
108594,-100,4,2,1,5,0,0
108672,-100,4,2,1,73,0,0
109687,-100,4,2,1,5,0,0
109766,-100,4,2,1,73,0,0
110937,-100,4,2,1,5,0,0
111016,-100,4,2,1,73,0,0
114687,-100,4,2,1,5,0,0
114766,-100,4,2,1,73,0,0
118437,-100,4,2,1,5,0,0
118516,-100,4,2,1,73,0,0
120156,-100,4,2,1,5,0,0
120235,-100,4,2,1,73,0,0
120937,-100,4,2,1,5,0,0
121016,-100,4,2,1,73,0,0
121562,-100,4,2,1,5,0,0
121641,-100,4,2,1,73,0,0
124687,-100,4,2,1,5,0,0
124766,-100,4,2,1,73,0,0
126953,-111.111111111111,4,2,1,65,0,0
127969,-111.111111111111,4,2,1,5,0,0
128047,-111.111111111111,4,2,1,65,0,0
130937,-111.111111111111,4,2,1,5,0,0
131016,-111.111111111111,4,2,1,65,0,0
133906,-111.111111111111,4,2,1,5,0,0
133985,-111.111111111111,4,2,1,65,0,0
135312,-111.111111111111,4,2,1,5,0,0
135391,-111.111111111111,4,2,1,65,0,0
135937,-111.111111111111,4,2,1,5,0,0
136016,-111.111111111111,4,2,1,65,0,0
136953,-100,4,2,1,65,0,0
137656,-100,4,2,1,5,0,0
137735,-100,4,2,1,65,0,0
142031,-100,4,2,1,5,0,0
142110,-100,4,2,1,65,0,0
142344,-100,4,2,1,5,0,0
142422,-100,4,2,1,65,0,0
145235,-100,4,2,1,5,0,0
145391,-100,4,2,1,65,0,0
145547,-100,4,2,1,5,0,0
145703,-100,4,2,1,65,0,0
147110,-100,4,2,1,70,0,0
157187,-100,4,2,1,5,0,0
157266,-100,4,2,1,70,0,0
158437,-100,4,2,1,5,0,0
158516,-100,4,2,1,70,0,0
159687,-100,4,2,1,5,0,0
159766,-100,4,2,1,70,0,0
160937,-100,4,2,1,5,0,0
161016,-100,4,2,1,70,0,0
162578,-100,4,2,1,5,0,0
162735,-100,4,2,1,70,0,0
164453,-100,4,2,1,73,0,0
164687,-100,4,2,1,5,0,0
164766,-83.3333333333333,4,2,1,73,0,0
165078,-100,4,2,1,73,0,0
165859,-100,4,2,1,5,0,0
166016,-100,4,2,1,73,0,0
166953,-90.9090909090909,4,2,1,76,0,1
167187,-90.9090909090909,4,2,1,5,0,1
167266,-90.9090909090909,4,2,1,76,0,1
168437,-90.9090909090909,4,2,1,5,0,1
168516,-90.9090909090909,4,2,1,76,0,1
173906,-90.9090909090909,4,2,1,5,0,1
173985,-90.9090909090909,4,2,1,76,0,1
174687,-90.9090909090909,4,2,1,5,0,1
174766,-90.9090909090909,4,2,1,76,0,1
175937,-90.9090909090909,4,2,1,5,0,1
176016,-90.9090909090909,4,2,1,76,0,1
180937,-90.9090909090909,4,2,1,5,0,1
181016,-90.9090909090909,4,2,1,76,0,1
184844,-90.9090909090909,4,2,1,5,0,1
184922,-90.9090909090909,4,2,1,76,0,1
186875,-90.9090909090909,4,2,1,76,0,0
186953,-90.9090909090909,4,2,1,76,0,1
187109,-90.9090909090909,4,2,1,5,0,1
187266,-90.9090909090909,4,2,1,76,0,1
190469,-90.9090909090909,4,2,1,5,0,1
190547,-90.9090909090909,4,2,1,76,0,1
194687,-90.9090909090909,4,2,1,5,0,1
194766,-90.9090909090909,4,2,1,76,0,1
198594,-90.9090909090909,4,2,1,5,0,1
198672,-90.9090909090909,4,2,1,76,0,1
206953,-125,4,2,1,70,0,0
207422,-125,4,2,1,50,0,0
214193,-125,4,2,1,5,0,0
214297,-125,4,2,1,50,0,0
216172,-125,4,2,1,60,0,0
216406,-125,4,2,1,5,0,0
216485,-125,4,2,1,50,0,0
217110,-100,4,2,1,70,0,0
221640,-100,4,2,1,5,0,0
221797,-100,4,2,1,70,0,0
227110,-125,4,2,1,60,0,0
227344,-125,4,2,1,5,0,0
227422,-125,4,2,1,50,0,0
229531,-125,4,2,1,5,0,0
229610,-125,4,2,1,50,0,0
229844,-125,4,2,1,5,0,0
229922,-125,4,2,1,50,0,0
232031,-125,4,2,1,5,0,0
232110,-125,4,2,1,50,0,0
232344,-125,4,2,1,5,0,0
232422,-125,4,2,1,50,0,0
234531,-125,4,2,1,5,0,0
234610,-125,4,2,1,50,0,0
234844,-125,4,2,1,5,0,0
234922,-125,4,2,1,50,0,0
235391,-125,4,2,1,5,0,0
235547,-125,4,2,1,50,0,0
235781,-125,4,2,1,5,0,0
235860,-166.666666666667,4,2,1,55,0,0
236406,-166.666666666667,4,2,1,5,0,0
236485,-142.857142857143,4,2,1,60,0,0
237031,-142.857142857143,4,2,1,5,0,0
237110,-111.111111111111,4,2,1,65,0,0
237344,-111.111111111111,4,2,1,5,0,0
237422,-111.111111111111,4,2,1,65,0,0
242031,-111.111111111111,4,2,1,5,0,0
242110,-111.111111111111,4,2,1,60,0,0
248360,-100,4,2,1,65,0,0
251953,-100,4,2,1,70,0,0
254766,-125,4,2,1,70,0,0
255156,-125,4,2,1,5,0,0
255235,-125,4,2,1,70,0,0
256406,-125,4,2,1,5,0,0
256485,-125,4,2,1,70,0,0
256953,-200,4,2,1,60,0,0
258359,-200,4,2,1,5,0,0
258672,-200,4,2,1,60,0,0
266953,-111.111111111111,4,2,1,63,0,0
267187,-111.111111111111,4,2,1,5,0,0
267266,-111.111111111111,4,2,1,63,0,0
267969,-111.111111111111,4,2,1,5,0,0
268047,-111.111111111111,4,2,1,63,0,0
268437,-111.111111111111,4,2,1,5,0,0
268516,-111.111111111111,4,2,1,63,0,0
269687,-111.111111111111,4,2,1,5,0,0
269766,-111.111111111111,4,2,1,63,0,0
270937,-111.111111111111,4,2,1,5,0,0
271016,-111.111111111111,4,2,1,63,0,0
272110,-100,4,2,1,66,0,0
274610,-100,4,2,1,69,0,0
275860,-100,4,2,1,73,0,0
276953,-90.9090909090909,4,2,1,76,0,1
278437,-90.9090909090909,4,2,1,5,0,1
278516,-90.9090909090909,4,2,1,76,0,1
279687,-90.9090909090909,4,2,1,5,0,1
279766,-90.9090909090909,4,2,1,76,0,1
284687,-90.9090909090909,4,2,1,5,0,1
284766,-90.9090909090909,4,2,1,76,0,1
287187,-90.9090909090909,4,2,1,5,0,1
287266,-90.9090909090909,4,2,1,76,0,1
288594,-90.9090909090909,4,2,1,5,0,1
288672,-90.9090909090909,4,2,1,76,0,1
289687,-90.9090909090909,4,2,1,5,0,1
289766,-90.9090909090909,4,2,1,76,0,1
290937,-90.9090909090909,4,2,1,5,0,1
291016,-90.9090909090909,4,2,1,76,0,1
297578,-90.9090909090909,4,2,1,5,0,1
297735,-90.9090909090909,4,2,1,76,0,1
297891,-90.9090909090909,4,2,1,5,0,1
298047,-90.9090909090909,4,2,1,76,0,1
298438,-90.9090909090909,4,2,1,5,0,1
298516,-90.9090909090909,4,2,1,76,0,1
298594,-90.9090909090909,4,2,1,5,0,1
298828,-133.333333333333,4,2,1,76,0,1
299531,-133.333333333333,4,2,1,5,0,1
299610,-90.9090909090909,4,2,1,76,0,1
299688,-90.9090909090909,4,2,1,50,0,1
299922,-90.9090909090909,4,2,1,76,0,1
300000,-90.9090909090909,4,2,1,50,0,1
300235,-90.9090909090909,4,2,1,76,0,1
300313,-90.9090909090909,4,2,1,50,0,1
300547,-90.9090909090909,4,2,1,76,0,1
300703,-100,4,2,1,70,0,0
302656,-100,4,2,1,5,0,0
302735,-100,4,2,1,70,0,0
305156,-100,4,2,1,5,0,0
305235,-100,4,2,1,70,0,0
307656,-100,4,2,1,5,0,0
307735,-100,4,2,1,70,0,0
310703,-100,4,2,1,76,0,0
310937,-100,4,2,1,5,0,0
311016,-100,4,2,1,76,0,0
311953,-100,4,2,1,76,0,0
312187,-100,4,2,1,5,0,0
312266,-100,4,2,1,76,0,0

[Colours]
Combo1 : 255,128,255
Combo2 : 255,255,128
Combo3 : 255,128,128
Combo4 : 213,170,170
Combo5 : 170,170,213
Combo6 : 191,128,255
SliderBorder : 51,153,255
SliderTrackOverride : 255,153,204

[HitObjects]
164,304,703,6,0,P|132:272|112:172,1,143.999995605469,4|2,3:2|0:0,0:0:0:0:
60,96,1172,2,0,P|116:84|172:100,1,107.999996704102,2|0,3:0|0:0,0:0:0:0:
208,116,1485,1,2,3:0:0:0:
304,52,1641,1,0,0:0:0:0:
328,164,1797,1,2,3:0:0:0:
466,176,1953,6,0,B|410:164|410:164|378:176|378:176|314:160,1,143.999995605469,2|2,0:3|0:3,0:0:0:0:
224,72,2422,2,0,B|280:84|280:84|312:72|312:72|376:88,1,143.999995605469,2|2,3:0|3:0,0:0:0:0:
395,203,2891,2,0,P|403:239|391:275,1,71.9999978027344,2|0,0:3|3:0,0:0:0:0:
280,356,3203,6,0,P|232:364|172:344,1,107.999996704102,2|0,0:3|0:0,0:0:0:0:
136,328,3516,1,2,0:3:0:0:
172,220,3672,2,0,P|188:184|188:152,1,71.9999978027344,2|0,3:0|0:0,0:0:0:0:
40,152,3985,2,0,P|76:168|108:168,1,71.9999978027344,2|0,3:0|0:0,0:0:0:0:
263,136,4297,1,2,3:0:0:0:
232,272,4453,6,0,P|264:204|260:124,1,143.999995605469,2|2,0:3|0:0,0:0:0:0:
352,56,4922,1,2,3:0:0:0:
408,160,5078,1,0,0:0:0:0:
424,12,5235,2,0,P|436:52|432:84,1,71.9999978027344,2|0,3:0|3:0,0:0:0:0:
392,244,5547,1,8,0:0:0:0:
276,140,5703,6,0,B|236:128|220:92|220:92|152:80,1,143.999995605469,4|2,3:2|0:0,0:0:0:0:
136,232,6172,2,0,P|160:200|168:168,1,71.9999978027344,2|0,3:0|0:0,0:0:0:0:
108,20,6485,2,0,P|84:52|76:84,1,71.9999978027344,2|0,3:0|0:0,0:0:0:0:
44,200,6797,1,2,3:0:0:0:
176,304,6953,6,0,P|216:264|248:184,1,143.999995605469,2|2,0:3|0:3,0:0:0:0:
340,104,7422,1,2,3:0:0:0:
384,216,7578,1,0,0:0:0:0:
364,28,7735,2,0,P|395:47|414:78,1,71.9999978027344,2|2,3:0|0:3,0:0:0:0:
484,168,8047,1,0,3:0:0:0:
392,296,8203,6,0,P|344:288|300:236,1,107.999996704102,2|0,0:3|0:0,0:0:0:0:
280,208,8516,1,8,0:0:0:0:
188,308,8672,1,0,3:0:0:0:
116,192,8828,1,8,0:3:0:0:
116,192,8906,1,8,0:3:0:0:
116,192,8985,1,8,0:3:0:0:
232,120,9141,1,8,0:3:0:0:
112,280,9297,1,4,0:3:0:0:
56,88,9453,1,4,3:2:0:0:
256,192,9531,12,0,10703,0:0:0:0:
256,144,10860,5,10,0:0:0:0:
360,44,11016,1,0,3:0:0:0:
360,44,11094,1,0,3:0:0:0:
360,44,11172,1,8,0:0:0:0:
392,188,11328,2,0,B|380:232|380:232|388:252|388:252|376:296,1,107.999996704102,2|0,3:0|0:0,0:0:0:0:
292,368,11641,2,0,B|304:324|304:324|296:304|296:304|308:260,1,107.999996704102,2|0,3:0|0:0,0:0:0:0:
256,144,11953,6,0,P|204:104|108:116,1,160,6|0,3:2|3:0,0:0:0:0:
152,268,12422,1,10,0:0:0:0:
256,144,12578,1,0,0:0:0:0:
113,112,12735,1,2,3:2:0:0:
232,256,12891,1,0,3:0:0:0:
232,256,12969,1,0,3:0:0:0:
232,256,13047,2,0,P|228:296|208:332,1,80,10|0,0:0|3:0,0:0:0:0:
376,192,13360,6,0,P|380:152|400:116,1,80,2|0,0:0|3:0,0:0:0:0:
504,16,13672,1,10,0:0:0:0:
464,180,13828,1,0,0:0:0:0:
348,60,13985,2,0,B|292:80|292:80|272:104|272:104|208:128,1,160,2|10,3:2|0:0,0:0:0:0:
368,228,14453,2,0,P|368:188|344:148,1,80,2|0,3:2|0:0,0:0:0:0:
208,40,14766,5,2,3:2:0:0:
208,40,14844,1,2,3:0:0:0:
208,40,14922,2,0,B|148:64|116:40|116:40|64:84,1,160,10|0,0:0|3:0,0:0:0:0:
40,232,15391,1,0,3:0:0:0:
184,176,15547,1,8,0:0:0:0:
67,81,15703,6,0,P|80:144|128:228,1,160,2|0,3:2|3:0,0:0:0:0:
276,168,16172,2,0,P|312:148|396:160,1,120,8|0,0:0|0:0,0:0:0:0:
432,176,16485,1,10,0:0:0:0:
312,288,16641,1,0,3:0:0:0:
248,68,16797,5,8,0:0:0:0:
248,68,16875,1,8,0:0:0:0:
248,68,16953,2,0,B|168:44|168:96|84:68,1,160,6|0,3:2|3:0,0:0:0:0:
208,148,17422,2,0,P|196:188|204:224,1,80,10|0,0:0|0:0,0:0:0:0:
348,352,17735,2,0,P|360:312|352:276,1,80,2|0,3:2|3:0,0:0:0:0:
276,188,18047,1,10,0:0:0:0:
196,320,18203,1,0,3:0:0:0:
360,204,18360,1,2,0:0:0:0:
216,64,18516,5,0,3:0:0:0:
216,64,18594,1,0,3:0:0:0:
216,64,18672,2,0,B|256:40|288:56|288:56|312:32|368:48,1,160,10|2,0:0|3:2,0:0:0:0:
484,156,19141,1,0,3:0:0:0:
367,47,19297,1,10,0:0:0:0:
492,16,19453,6,0,P|456:72|380:136,1,160,2|2,3:2|3:2,0:0:0:0:
356,160,19844,1,2,3:2:0:0:
356,160,19922,1,10,0:0:0:0:
232,244,20078,1,0,0:0:0:0:
360,328,20235,2,0,P|356:284|328:248,1,80,0|0,3:0|3:0,0:0:0:0:
256,132,20547,1,8,0:0:0:0:
128,344,20703,6,0,B|186:327|186:327|216:340|216:340|281:317,1,160,2|0,3:2|3:0,0:0:0:0:
452,264,21172,1,8,0:0:0:0:
304,160,21328,1,0,3:0:0:0:
304,160,21406,1,0,3:0:0:0:
304,160,21485,1,10,0:0:0:0:
388,352,21641,1,0,3:0:0:0:
388,352,21719,1,0,3:0:0:0:
388,352,21797,1,8,0:0:0:0:
388,132,21953,6,0,P|344:88|284:68,1,120,4|0,3:2|0:0,0:0:0:0:
248,60,22266,1,2,3:2:0:0:
168,220,22422,1,10,0:0:0:0:
32,108,22578,1,0,3:0:0:0:
32,108,22656,1,0,3:0:0:0:
32,108,22735,1,10,0:0:0:0:
236,148,22891,1,0,3:0:0:0:
84,20,23047,1,8,0:0:0:0:
64,232,23203,6,0,P|48:272|68:352,1,120,6|0,3:2|0:0,0:0:0:0:
128,292,23516,1,2,3:2:0:0:
236,148,23672,1,10,0:0:0:0:
280,324,23828,1,0,0:0:0:0:
144,168,23985,1,10,0:0:0:0:
144,168,24063,1,8,0:0:0:0:
144,168,24141,1,8,0:0:0:0:
144,168,24219,1,8,0:0:0:0:
144,168,24297,1,8,0:0:0:0:
340,72,24453,6,0,B|383:66|383:66|505:84,1,160,6|0,3:2|3:0,0:0:0:0:
423,253,24922,2,0,P|426:196|436:146,1,80,10|0,0:0|0:0,0:0:0:0:
506,361,25235,2,0,P|458:343|414:339,1,80,2|0,3:2|3:0,0:0:0:0:
335,178,25547,1,10,0:0:0:0:
252,320,25703,2,0,P|304:306|333:292,1,80,2|0,3:2|0:0,0:0:0:0:
261,117,26016,2,0,P|241:162|246:212,1,80,2|8,3:2|0:0,0:0:0:0:
154,45,26328,2,0,P|65:44|-11:69,1,160,2|0,0:0|3:0,0:0:0:0:
23,216,26797,1,8,0:0:0:0:
165,133,26953,6,0,P|158:174|136:304,1,160,2|0,3:2|3:0,0:0:0:0:
278,149,27422,2,0,P|259:189|243:234,1,80,10|0,0:0|0:0,0:0:0:0:
301,353,27735,1,2,3:2:0:0:
409,234,27891,2,0,P|348:232|307:238,1,80,2|8,3:2|0:0,0:0:0:0:
199,93,28203,6,0,B|297:69|263:126|361:92,1,160,2|0,3:2|3:0,0:0:0:0:
234,169,28672,2,0,P|226:214|240:262,1,80,8|0,0:0|0:0,0:0:0:0:
328,364,28985,1,2,3:2:0:0:
335,215,29141,1,0,3:0:0:0:
222,355,29297,1,10,0:0:0:0:
392,281,29453,1,0,0:0:0:0:
156,164,29610,6,0,P|75:158|33:228,1,160,6|8,3:2|0:0,0:0:0:0:
65,73,30078,1,0,0:0:0:0:
114,235,30235,1,2,3:2:0:0:
155,78,30391,2,0,P|191:85|248:93,1,80,2|8,3:2|0:0,0:0:0:0:
404,204,30703,6,0,B|312:169|330:233|246:196,1,160,2|0,3:2|3:0,0:0:0:0:
358,356,31172,2,0,P|358:305|353:268,1,80,8|0,0:0|0:0,0:0:0:0:
290,124,31485,1,2,3:2:0:0:
250,291,31641,1,0,3:0:0:0:
404,204,31797,2,0,P|405:165|404:117,1,80,10|0,0:0|0:0,0:0:0:0:
473,342,32110,6,0,P|426:319|348:302,1,120,2|0,3:2|0:0,0:0:0:0:
331,301,32422,1,10,0:0:0:0:
294,130,32578,2,0,P|344:143|384:154,1,80,2|0,3:2|0:0,0:0:0:0:
213,269,32891,2,0,P|167:245|130:225,1,80,2|8,3:2|0:0,0:0:0:0:
59,87,33203,6,0,P|108:64|189:132,1,160,2|2,3:2|3:0,0:0:0:0:
250,280,33672,1,8,0:0:0:0:
261,112,33828,1,0,3:0:0:0:
145,277,33985,1,10,0:0:0:0:
306,178,34141,2,0,P|358:173|404:176,1,80,0|10,3:0|0:0,0:0:0:0:
296,327,34453,6,0,P|230:305|138:275,1,160,6|0,3:2|3:0,0:0:0:0:
71,163,34922,2,0,P|43:212|31:242,1,80,8|0,0:0|0:0,0:0:0:0:
183,147,35235,1,2,3:2:0:0:
8,114,35391,1,0,3:0:0:0:
134,205,35547,1,8,0:0:0:0:
65,37,35703,6,0,P|110:41|231:27,1,160,0|0,3:0|3:0,0:0:0:0:
374,89,36172,1,10,0:0:0:0:
249,174,36328,1,2,0:0:0:0:
293,23,36485,1,2,3:2:0:0:
344,187,36641,1,2,3:2:0:0:
211,60,36797,1,10,0:0:0:0:
386,46,36953,6,0,B|328:137|328:137|344:188,1,160,2|0,3:2|3:0,0:0:0:0:
427,352,37422,2,0,P|432:310|431:265,1,80,8|0,0:0|0:0,0:0:0:0:
316,288,37735,1,0,3:0:0:0:
430,179,37891,1,0,3:0:0:0:
427,352,38047,1,8,0:0:0:0:
285,176,38203,6,0,P|239:178|190:184,1,80,2|0,3:2|0:0,0:0:0:0:
72,293,38516,1,2,3:2:0:0:
94,166,38672,1,10,0:0:0:0:
171,300,38828,2,0,P|210:298|250:294,1,80,2|0,3:2|0:0,0:0:0:0:
408,348,39141,1,2,3:2:0:0:
373,159,39297,2,0,P|355:210|333:278,1,120,8|0,0:0|0:0,0:0:0:0:
424,233,39610,6,0,P|481:239|509:240,1,80,4|0,3:2|0:0,0:0:0:0:
373,159,39922,1,10,0:0:0:0:
414,314,40078,1,2,0:0:0:0:
444,130,40235,2,0,P|423:101|366:82,1,80,2|0,3:2|3:0,0:0:0:0:
231,186,40547,1,10,0:0:0:0:
293,21,40703,6,0,P|288:61|281:105,1,80,2|0,0:0|3:0,0:0:0:0:
294,279,41016,1,2,3:2:0:0:
373,159,41172,1,8,0:0:0:0:
231,186,41328,2,0,P|167:172|133:220,1,120,2|0,3:2|0:0,0:0:0:0:
131,241,41641,1,0,3:0:0:0:
19,132,41797,2,0,P|36:88|56:55,1,80,8|2,0:0|0:0,0:0:0:0:
55,287,42110,5,6,3:2:0:0:
100,126,42266,1,0,3:0:0:0:
199,265,42422,1,10,0:0:0:0:
1,197,42578,2,0,P|44:221|44:305,1,120,2|0,3:2|0:0,0:0:0:0:
48,332,42891,2,0,P|93:334|135:337,1,80,2|8,3:2|0:0,0:0:0:0:
287,237,43203,2,0,P|247:235|208:233,1,80,6|0,3:2|0:0,0:0:0:0:
427,110,43516,5,8,0:0:0:0:
420,149,43594,1,8,0:0:0:0:
414,188,43672,1,8,0:0:0:0:
407,228,43750,1,8,0:0:0:0:
401,267,43828,1,0,3:0:0:0:
301,109,43985,5,8,0:0:0:0:
265,90,44063,1,8,0:0:0:0:
226,87,44141,1,0,3:0:0:0:
188,100,44219,1,0,3:0:0:0:
159,127,44297,2,0,P|134:145|134:86,1,120,10|0,0:0|0:0,0:0:0:0:
159,127,44610,6,0,P|140:189|128:260,1,120,6|0,3:2|0:0,0:0:0:0:
124,288,44922,1,8,0:0:0:0:
28,172,45078,1,2,3:2:0:0:
224,240,45235,2,0,P|232:200|244:160,1,80,10|0,0:0|3:0,0:0:0:0:
380,48,45547,1,8,0:0:0:0:
464,208,45703,1,2,3:2:0:0:
288,80,45860,1,10,0:0:0:0:
504,128,46016,1,0,3:0:0:0:
324,244,46172,5,10,0:0:0:0:
288,260,46250,1,0,3:0:0:0:
252,276,46328,1,0,3:0:0:0:
216,292,46406,1,0,3:0:0:0:
180,312,46485,1,10,0:0:0:0:
80,216,46641,2,0,P|40:176|32:112,1,120,2|0,3:2|0:0,0:0:0:0:
24,32,46953,6,0,B|72:40|72:40|88:56|88:56|144:64,1,120,6|0,3:2|0:0,0:0:0:0:
184,68,47266,1,0,3:0:0:0:
324,176,47422,1,8,0:0:0:0:
156,216,47578,1,2,3:2:0:0:
344,100,47735,2,0,P|384:120|404:152,1,80,10|0,0:0|3:0,0:0:0:0:
348,320,48047,1,8,0:0:0:0:
512,196,48203,1,2,3:2:0:0:
324,176,48360,1,10,0:0:0:0:
484,344,48516,1,0,3:0:0:0:
484,116,48672,5,8,3:0:0:0:
456,88,48750,1,8,3:0:0:0:
428,60,48828,1,4,3:0:0:0:
396,36,48906,1,4,3:0:0:0:
364,12,48985,1,8,0:0:0:0:
256,104,49141,2,0,P|224:132|144:132,1,120,4|0,3:2|0:0,0:0:0:0:
68,124,49453,6,0,P|56:172|48:252,1,120,4|0,3:2|0:0,0:0:0:0:
44,288,49766,1,0,3:0:0:0:
149,134,49922,1,8,0:0:0:0:
208,300,50078,1,2,3:2:0:0:
316,144,50235,2,0,P|276:152|244:180,1,80,10|0,0:0|3:0,0:0:0:0:
112,324,50547,1,8,0:0:0:0:
149,134,50703,1,2,3:2:0:0:
300,264,50860,1,10,0:0:0:0:
88,212,51016,1,0,3:0:0:0:
256,60,51172,5,8,3:0:0:0:
296,68,51250,1,8,3:0:0:0:
336,76,51328,1,4,3:0:0:0:
376,84,51406,1,4,3:0:0:0:
416,92,51485,1,8,0:0:0:0:
464,228,51641,2,0,P|468:272|432:344,1,120,4|0,3:2|0:0,0:0:0:0:
388,268,51953,6,0,B|336:240|328:280|264:240,1,120,4|0,3:2|0:0,0:0:0:0:
232,224,52266,1,0,3:0:0:0:
400,160,52422,1,8,0:0:0:0:
340,344,52578,1,2,3:2:0:0:
200,152,52735,2,0,P|164:176|152:212,1,80,10|0,0:0|3:0,0:0:0:0:
40,352,53047,1,8,0:0:0:0:
48,156,53203,1,2,0:0:0:0:
176,312,53360,1,2,3:2:0:0:
0,232,53516,1,2,0:0:0:0:
104,32,53672,5,8,0:0:0:0:
129,63,53750,1,8,0:0:0:0:
162,85,53828,1,8,0:0:0:0:
201,94,53906,1,8,0:0:0:0:
241,90,53985,2,0,P|265:90|285:78,1,40,8|8,0:0|0:0,0:0:0:0:
352,8,54141,2,0,P|371:1|391:2,1,40,8|8,0:3|0:3,0:0:0:0:
484,48,54297,2,0,P|484:67|477:86,1,40,4|4,0:3|0:3,0:0:0:0:
408,196,54453,6,0,P|336:228|332:316,1,160,6|2,3:2|3:2,0:0:0:0:
416,280,54922,1,10,0:0:0:0:
272,368,55078,1,2,0:0:0:0:
208,216,55235,2,0,P|152:228|96:188,1,120,2|0,3:2|0:0,0:0:0:0:
72,160,55547,1,8,0:0:0:0:
180,40,55703,6,0,B|240:48|240:48|268:76|268:76|336:84,1,160,2|2,3:2|3:2,0:0:0:0:
200,132,56172,1,10,0:0:0:0:
320,4,56328,1,2,0:0:0:0:
388,164,56485,2,0,P|392:208|380:244,1,80,2|0,3:2|3:0,0:0:0:0:
272,332,56797,1,8,0:0:0:0:
320,96,56953,6,0,P|384:80|472:124,1,160,2|2,3:2|3:2,0:0:0:0:
381,241,57422,1,10,0:0:0:0:
466,117,57578,1,2,0:0:0:0:
308,16,57735,2,0,P|264:36|232:104,1,120,2|0,3:2|0:0,0:0:0:0:
240,144,58047,1,10,0:0:0:0:
264,292,58203,6,0,B|204:304|204:304|184:336|184:336|124:352,1,160,2|2,3:2|3:2,0:0:0:0:
264,376,58672,1,10,0:0:0:0:
120,268,58828,1,0,0:0:0:0:
168,120,58985,2,0,P|192:160|192:200,1,80,2|0,3:2|3:0,0:0:0:0:
24,264,59297,1,12,0:0:0:0:
100,68,59453,5,0,3:0:0:0:
100,68,59531,1,0,3:0:0:0:
100,68,59610,2,0,P|156:40|220:52,1,120,4|0,3:2|0:0,0:0:0:0:
256,64,59922,1,10,0:0:0:0:
344,184,60078,1,0,0:0:0:0:
456,88,60235,2,0,P|472:128|464:164,1,80,2|0,3:2|3:0,0:0:0:0:
416,296,60547,1,10,0:0:0:0:
268,236,60703,6,0,B|208:248|208:248|192:272|192:272|120:288,1,160,6|0,3:2|3:0,0:0:0:0:
268,320,61172,1,10,0:0:0:0:
140,200,61328,2,0,P|112:168|100:128,1,80,2|0,0:0|3:0,0:0:0:0:
232,12,61641,2,0,P|260:44|272:84,1,80,2|8,3:2|0:0,0:0:0:0:
92,264,61953,6,0,P|156:276|208:244,1,120,6|0,3:2|0:0,0:0:0:0:
232,216,62266,1,10,3:0:0:0:
376,104,62422,1,10,3:0:0:0:
408,288,62578,1,0,3:0:0:0:
408,288,62656,1,0,3:0:0:0:
408,288,62735,1,14,0:0:0:0:
280,124,62891,1,0,3:0:0:0:
272,328,63047,1,12,0:0:0:0:
452,180,63203,1,14,0:0:0:0:
452,180,63672,6,0,P|480:132|480:84,1,96,2|0,0:1|0:0,0:0:0:0:
396,116,63985,2,0,P|368:164|368:212,1,96,2|0,0:1|0:0,0:0:0:0:
424,264,64297,1,8,0:2:0:0:
225,339,64453,6,0,P|148:335|135:281,1,132.00000402832,6|0,3:1|0:0,0:0:0:0:
148,221,64766,1,0,3:0:0:0:
267,56,64922,2,0,P|273:112|279:152,1,88.000002685547,10|0,0:0|0:0,0:0:0:0:
75,108,65235,2,0,P|81:64|85:20,1,88.000002685547,2|0,3:2|3:0,0:0:0:0:
183,191,65547,1,8,0:0:0:0:
386,65,65703,6,0,P|327:54|281:153,1,176.000005371094,2|2,3:2|3:2,0:0:0:0:
222,322,66172,2,0,P|212:279|191:233,1,88.000002685547,10|0,0:0|0:0,0:0:0:0:
361,135,66485,2,0,P|346:180|333:226,1,88.000002685547,2|0,3:1|3:0,0:0:0:0:
388,355,66797,1,10,0:0:0:0:
199,131,66953,6,0,P|147:130|68:140,1,132.00000402832,6|0,3:1|0:0,0:0:0:0:
12,195,67266,1,0,3:0:0:0:
222,46,67422,2,0,P|209:94|197:136,1,88.000002685547,8|0,0:0|0:0,0:0:0:0:
339,285,67735,2,0,P|326:242|332:197,1,88.000002685547,2|0,3:2|3:0,0:0:0:0:
460,95,68047,1,8,0:0:0:0:
422,327,68203,6,0,P|334:305|234:280,1,176.000005371094,2|0,3:2|3:0,0:0:0:0:
81,291,68672,2,0,P|97:247|120:191,1,88.000002685547,10|0,0:0|0:0,0:0:0:0:
191,86,68985,2,0,P|207:126|222:168,1,88.000002685547,2|2,3:1|3:1,0:0:0:0:
151,314,69297,1,8,0:0:0:0:
312,114,69453,6,0,P|394:95|448:184,1,176.000005371094,6|0,3:1|3:0,0:0:0:0:
390,279,69922,1,8,0:0:0:0:
423,56,70078,1,0,0:0:0:0:
249,167,70235,1,2,3:2:0:0:
447,158,70391,1,0,3:0:0:0:
288,280,70547,1,8,0:0:0:0:
290,79,70703,6,0,P|242:69|205:100,1,88.000002685547,2|0,0:0|3:0,0:0:0:0:
351,203,71016,1,2,3:0:0:0:
121,167,71172,1,8,0:0:0:0:
290,79,71328,1,0,0:0:0:0:
199,272,71485,1,2,3:1:0:0:
351,203,71641,1,0,3:2:0:0:
156,65,71797,1,10,0:0:0:0:
199,272,71953,6,0,P|247:248|323:214,1,132.00000402832,6|0,3:1|0:0,0:0:0:0:
351,203,72266,1,2,3:1:0:0:
315,358,72422,1,10,0:0:0:0:
467,212,72578,1,2,0:0:0:0:
260,241,72735,1,2,3:1:0:0:
443,362,72891,1,2,3:1:0:0:
307,158,73047,1,8,0:0:0:0:
166,353,73203,6,0,P|99:365|86:255,1,176.000005371094,6|8,3:1|0:0,0:0:0:0:
174,135,73672,1,8,0:0:0:0:
166,353,73828,1,2,3:0:0:0:
60,168,73985,1,8,0:0:0:0:
264,280,74141,1,2,3:0:0:0:
150,99,74297,1,8,0:0:0:0:
373,177,74453,6,0,P|357:232|345:280,1,88.000002685547,6|0,3:1|0:0,0:0:0:0:
439,69,74766,1,2,3:1:0:0:
457,275,74922,1,10,0:0:0:0:
342,108,75078,1,2,0:0:0:0:
500,180,75235,1,0,3:0:0:0:
349,261,75391,2,0,P|306:273|264:284,1,88.000002685547,0|8,3:0|0:0,0:0:0:0:
146,62,75703,6,0,P|155:98|166:157,1,88.000002685547,2|0,3:1|0:0,0:0:0:0:
148,303,76016,1,2,3:1:0:0:
248,135,76172,1,10,0:0:0:0:
85,212,76328,1,2,0:0:0:0:
295,201,76485,1,0,3:0:0:0:
66,297,76641,2,0,P|74:253|84:211,1,88.000002685547,0|8,3:0|0:0,0:0:0:0:
324,119,76953,6,0,P|277:112|241:141,1,88.000002685547,2|0,3:1|0:0,0:0:0:0:
210,307,77266,1,0,3:0:0:0:
292,192,77422,1,10,0:0:0:0:
120,229,77578,1,2,0:0:0:0:
322,302,77735,1,0,3:0:0:0:
126,141,77891,2,0,P|122:191|119:234,1,88.000002685547,0|10,3:0|0:0,0:0:0:0:
344,154,78203,6,0,P|350:104|361:62,1,88.000002685547,2|0,3:1|0:0,0:0:0:0:
220,283,78516,2,0,P|215:239|204:196,1,88.000002685547,2|8,3:1|0:0,0:0:0:0:
469,281,78828,2,0,P|404:261|276:227,1,176.000005371094,2|0,0:0|3:0,0:0:0:0:
460,153,79297,1,8,0:0:0:0:
281,345,79453,6,0,P|252:313|216:279,1,88.000002685547,2|4,0:0|3:1,0:0:0:0:
383,359,79766,1,2,3:1:0:0:
303,194,79922,1,10,0:0:0:0:
281,345,80078,1,2,0:0:0:0:
205,177,80235,1,0,3:0:0:0:
411,279,80391,2,0,P|366:275|317:269,1,88.000002685547,0|8,3:0|0:0,0:0:0:0:
105,152,80703,6,0,P|155:138|190:129,1,88.000002685547,2|4,0:0|3:1,0:0:0:0:
295,22,81016,1,2,3:1:0:0:
390,177,81172,2,0,P|407:126|424:90,1,88.000002685547,10|2,0:0|0:0,0:0:0:0:
458,302,81485,1,2,3:0:0:0:
312,227,81641,1,0,3:0:0:0:
481,161,81797,1,8,0:0:0:0:
355,326,81953,1,2,0:0:0:0:
351,108,82110,5,6,3:1:0:0:
249,291,82266,1,0,3:0:0:0:
231,85,82422,1,8,0:0:0:0:
372,243,82578,1,2,0:0:0:0:
166,155,82735,1,2,3:1:0:0:
365,81,82891,1,0,3:0:0:0:
158,262,83047,2,0,P|104:247|54:231,1,88.000002685547,8|0,0:0|3:0,0:0:0:0:
258,367,83360,5,12,0:0:0:0:
244,142,83516,1,0,3:0:0:0:
416,265,83672,2,0,P|381:261|338:294,1,88.000002685547,14|0,0:0|0:0,0:0:0:0:
382,90,83985,1,10,0:0:0:0:
338,83,84063,1,8,0:0:0:0:
294,78,84141,1,8,0:0:0:0:
251,73,84219,1,8,0:0:0:0:
207,68,84297,1,10,0:0:0:0:
38,235,84453,6,0,P|74:263|162:259,1,132.00000402832,6|0,3:1|0:0,0:0:0:0:
200,248,84766,1,0,3:0:0:0:
338,83,84922,2,0,P|344:39|327:0,1,88.000002685547,10|0,0:0|0:0,0:0:0:0:
100,104,85235,1,2,3:2:0:0:
100,104,85313,1,2,0:0:0:0:
100,104,85391,2,0,P|93:147|110:187,1,88.000002685547,2|8,3:0|0:0,0:0:0:0:
328,204,85703,6,0,P|284:148|180:140,1,176.000005371094,2|2,3:2|3:2,0:0:0:0:
208,304,86172,1,10,0:0:0:0:
412,192,86328,1,2,0:0:0:0:
412,192,86406,1,2,0:0:0:0:
412,192,86485,2,0,P|408:236|376:276,1,88.000002685547,2|0,3:1|3:0,0:0:0:0:
256,376,86797,1,10,0:0:0:0:
168,224,86953,6,0,B|112:232|112:232|76:264|76:264|4:276,1,176.000005371094,2|0,3:1|3:0,0:0:0:0:
160,312,87422,1,8,0:0:0:0:
36,184,87578,1,0,0:0:0:0:
160,88,87735,1,2,3:2:0:0:
8,28,87891,1,0,3:0:0:0:
8,28,87969,1,0,3:0:0:0:
8,28,88047,1,8,0:0:0:0:
152,184,88203,2,0,P|208:156|244:48,1,176.000005371094,2|0,3:2|3:0,0:0:0:0:
432,16,88672,5,10,0:0:0:0:
428,200,88828,1,2,0:0:0:0:
428,200,88906,1,2,0:0:0:0:
428,200,88985,1,2,3:1:0:0:
512,68,89141,1,2,3:1:0:0:
352,112,89297,1,8,0:0:0:0:
408,288,89453,6,0,P|464:276|508:176,1,176.000005371094,6|0,3:1|3:0,0:0:0:0:
352,112,89922,1,8,0:0:0:0:
408,288,90078,1,2,0:0:0:0:
232,228,90235,2,0,P|276:236|316:224,1,88.000002685547,2|2,3:2|3:0,0:0:0:0:
356,212,90469,1,2,0:0:0:0:
356,212,90547,1,8,0:0:0:0:
280,84,90703,1,0,0:0:0:0:
156,188,90860,6,0,P|148:232|160:272,1,88.000002685547,2|2,3:2|3:0,0:0:0:0:
268,364,91172,1,8,0:0:0:0:
80,316,91328,1,2,0:0:0:0:
80,316,91406,1,2,0:0:0:0:
80,316,91485,1,2,3:1:0:0:
248,240,91641,1,0,3:0:0:0:
152,376,91797,1,10,0:0:0:0:
224,140,91953,6,0,P|184:112|104:120,1,132.00000402832,6|0,3:1|0:0,0:0:0:0:
64,136,92266,1,2,3:1:0:0:
104,312,92422,2,0,P|136:280|144:240,1,88.000002685547,10|2,0:0|0:0,0:0:0:0:
156,188,92656,1,2,0:0:0:0:
156,188,92735,1,2,3:1:0:0:
292,84,92891,1,2,3:1:0:0:
292,256,93047,1,8,0:0:0:0:
232,20,93203,6,0,P|312:8|380:76,1,176.000005371094,6|0,3:1|3:0,0:0:0:0:
416,272,93672,1,12,0:0:0:0:
512,108,93828,1,0,3:0:0:0:
512,108,93906,1,0,3:0:0:0:
512,108,93985,1,12,0:0:0:0:
312,156,94141,1,0,3:0:0:0:
508,276,94297,1,12,0:0:0:0:
288,236,94453,6,0,P|232:192|248:96,1,176.000005371094,6|0,3:1|3:0,0:0:0:0:
100,8,94922,1,10,0:0:0:0:
32,148,95078,1,0,0:0:0:0:
192,32,95235,1,2,3:1:0:0:
12,72,95391,1,0,3:0:0:0:
12,72,95469,1,0,3:0:0:0:
12,72,95547,2,0,P|60:72|96:96,1,88.000002685547,10|0,0:0|3:0,0:0:0:0:
188,264,95860,6,0,P|144:265|107:243,1,88.000002685547,2|0,0:0|3:0,0:0:0:0:
92,92,96172,1,10,0:0:0:0:
256,76,96328,1,2,0:0:0:0:
268,244,96485,2,0,P|269:287|247:324,1,88.000002685547,0|0,3:0|3:0,0:0:0:0:
184,156,96797,1,8,0:0:0:0:
348,40,96953,6,0,B|412:56|412:56|436:84|436:84|512:112,1,176.000005371094,2|0,3:1|3:0,0:0:0:0:
360,136,97422,1,10,0:0:0:0:
492,20,97578,1,0,3:0:0:0:
492,20,97656,1,0,3:0:0:0:
492,20,97735,1,2,0:0:0:0:
488,192,97891,1,2,3:1:0:0:
348,40,98047,1,8,0:0:0:0:
292,236,98203,6,0,P|232:288|140:268,1,176.000005371094,2|0,3:1|3:0,0:0:0:0:
172,76,98672,2,0,B|164:132|208:128|208:200,1,132.00000402832,10|0,0:0|0:0,0:0:0:0:
120,188,98985,1,0,3:0:0:0:
256,80,99141,1,10,0:0:0:0:
48,44,99297,1,10,0:0:0:0:
312,16,99453,6,0,P|336:64|316:144,1,132.00000402832,6|0,3:1|0:0,0:0:0:0:
288,176,99766,1,2,3:1:0:0:
164,276,99922,1,10,0:0:0:0:
312,340,100078,1,2,0:0:0:0:
312,340,100156,1,2,0:0:0:0:
312,340,100235,1,0,3:0:0:0:
468,232,100391,2,0,P|430:253|387:247,1,88.000002685547,2|10,3:1|0:0,0:0:0:0:
204,80,100703,6,0,B|154:96|114:77|114:77|34:104,1,176.000005371094,6|2,3:1|3:1,0:0:0:0:
164,4,101172,1,10,0:0:0:0:
117,170,101328,2,0,P|115:213|141:248,1,88.000002685547,2|0,0:0|3:0,0:0:0:0:
288,76,101641,1,2,3:1:0:0:
117,170,101797,1,10,0:0:0:0:
288,280,101953,6,0,P|340:320|452:296,1,176.000005371094,6|0,3:1|3:0,0:0:0:0:
512,132,102422,1,8,0:0:0:0:
376,240,102578,1,2,3:1:0:0:
376,240,102656,1,0,3:0:0:0:
376,240,102735,1,10,0:0:0:0:
288,88,102891,1,0,3:0:0:0:
460,252,103047,6,0,P|443:292|406:313,1,88.000002685547,10|0,0:0|3:0,0:0:0:0:
368,112,103360,1,10,0:0:0:0:
208,240,103516,1,0,3:0:0:0:
436,176,103672,1,10,0:0:0:0:
256,12,103828,1,0,3:0:0:0:
256,12,103906,1,0,3:0:0:0:
256,12,103985,1,10,0:0:0:0:
304,256,104141,1,2,3:1:0:0:
456,40,104297,1,8,0:0:0:0:
188,96,104453,6,0,P|128:112|72:208,1,176.000005371094,6|0,3:1|3:0,0:0:0:0:
268,324,104922,2,0,P|261:262|175:191,1,176.000005371094,12|0,0:0|3:0,0:0:0:0:
84,40,105391,1,0,0:0:0:0:
264,72,105547,2,0,B|316:80|316:80|336:100|336:100|388:108,1,132.00000402832,8|0,0:0|0:0,0:0:0:0:
428,112,105860,5,14,0:0:0:0:
496,340,106016,2,0,P|448:300|376:308,1,132.00000402832,14|0,0:0|0:0,0:0:0:0:
312,348,106328,2,0,P|306:283|347:233,1,132.00000402832,14|0,0:0|0:0,0:0:0:0:
420,192,106641,1,0,3:0:0:0:
264,72,106797,2,0,B|204:56|204:100|136:72,1,132.00000402832,8|0,0:0|0:0,0:0:0:0:
80,128,107110,6,0,P|77:203|145:239,1,160,6|10,3:1|0:1,0:0:0:0:
252,340,107578,1,0,0:0:0:0:
222,172,107735,1,0,3:1:0:0:
121,315,107891,1,0,3:1:0:0:
278,264,108047,2,0,P|263:306|250:344,1,80,8|0,0:1|0:0,0:0:0:0:
450,238,108360,6,0,P|401:168|374:129,1,120,0|0,3:1|0:0,0:0:0:0:
360,114,108672,1,10,0:1:0:0:
292,257,108828,1,0,0:0:0:0:
451,173,108985,1,2,3:1:0:0:
303,64,109141,2,0,P|277:94|242:127,1,80,2|8,3:1|0:1,0:0:0:0:
97,167,109453,6,0,P|142:185|221:225,1,120,6|0,3:1|0:0,0:0:0:0:
235,241,109766,1,2,3:2:0:0:
72,262,109922,1,8,0:1:0:0:
173,99,110078,1,2,0:2:0:0:
155,298,110235,6,0,P|149:326|151:351,1,40,2|2,3:2|0:0,0:0:0:0:
319,257,110391,2,0,P|318:237|313:217,1,40,2|2,3:2|0:0,0:0:0:0:
173,99,110547,1,8,0:1:0:0:
275,327,110703,6,0,P|342:339|386:304,1,120,2|0,0:2|0:0,0:0:0:0:
401,283,111016,1,2,3:2:0:0:
331,139,111172,2,0,P|320:187|309:233,1,80,10|0,0:1|0:0,0:0:0:0:
461,335,111485,1,2,3:1:0:0:
403,189,111641,1,0,3:1:0:0:
328,342,111797,1,10,0:1:0:0:
331,139,111953,6,0,B|231:112|259:169|167:139,1,160,6|0,3:1|3:1,0:0:0:0:
73,266,112422,2,0,P|103:260|160:252,1,80,8|0,0:1|0:0,0:0:0:0:
268,371,112735,2,0,P|273:313|282:208,1,160,2|8,3:1|0:1,0:0:0:0:
211,71,113203,1,0,0:0:0:0:
439,108,113360,6,0,P|415:144|387:188,1,80,2|0,3:1|3:1,0:0:0:0:
302,288,113672,2,0,P|291:239|271:185,1,80,10|0,0:1|0:0,0:0:0:0:
49,102,113985,2,0,P|128:100|168:172,1,160,2|10,3:1|0:1,0:0:0:0:
47,321,114453,6,0,P|58:275|81:196,1,120,6|0,3:1|0:0,0:0:0:0:
87,174,114766,1,0,3:1:0:0:
189,337,114922,2,0,P|181:287|170:237,1,80,8|0,0:1|0:0,0:0:0:0:
312,320,115235,1,0,3:1:0:0:
207,160,115391,1,0,3:1:0:0:
189,337,115547,1,8,0:1:0:0:
313,150,115703,6,0,P|360:144|397:138,1,80,2|4,0:0|3:1,0:0:0:0:
491,252,116016,1,8,0:1:0:0:
491,252,116094,1,8,0:1:0:0:
491,252,116172,2,0,P|496:222|500:208,1,40,8|8,0:1|0:1,0:0:0:0:
368,275,116328,1,0,3:1:0:0:
421,67,116485,5,8,0:1:0:0:
389,43,116563,1,8,0:1:0:0:
350,32,116641,1,8,0:3:0:0:
311,36,116719,1,8,0:3:0:0:
275,54,116797,1,4,0:3:0:0:
249,84,116875,1,4,0:3:0:0:
235,121,116953,6,0,P|189:110|72:80,1,160,6|0,3:1|3:1,0:0:0:0:
8,243,117422,2,0,P|53:219|92:200,1,80,8|0,0:1|0:0,0:0:0:0:
170,350,117735,1,2,3:1:0:0:
222,213,117891,2,0,P|186:230|151:249,1,80,2|8,3:1|0:1,0:0:0:0:
363,324,118203,6,0,P|407:308|434:228,1,120,2|0,3:1|0:0,0:0:0:0:
435,209,118516,1,2,3:1:0:0:
287,300,118672,2,0,P|285:342|306:372,1,80,8|2,0:1|0:1,0:0:0:0:
376,234,118985,1,0,3:1:0:0:
204,312,119141,1,0,3:1:0:0:
304,164,119297,1,10,0:1:0:0:
154,78,119453,6,0,P|173:123|220:227,1,160,2|0,3:1|3:1,0:0:0:0:
354,351,119922,2,0,P|362:294|381:216,1,120,8|0,0:1|0:0,0:0:0:0:
390,199,120235,1,2,3:1:0:0:
256,302,120391,1,2,3:1:0:0:
302,138,120547,1,10,0:1:0:0:
159,314,120703,6,0,P|121:303|34:331,1,120,2|0,3:1|0:0,0:0:0:0:
1,253,121016,1,2,3:1:0:0:
1,253,121094,1,2,3:1:0:0:
1,253,121172,2,0,P|23:224|28:212,1,40,14|2,0:1|0:0,0:0:0:0:
106,211,121328,2,0,P|111:154|120:92,1,120,2|0,0:0|0:0,0:0:0:0:
216,55,121641,2,0,P|207:90|201:112,1,40,2|2,0:3|0:0,0:0:0:0:
236,197,121797,2,0,P|208:184|189:173,1,40,8|2,0:1|0:0,0:0:0:0:
309,117,121953,6,0,P|356:110|395:138,1,80,4|0,3:1|0:0,0:0:0:0:
391,284,122266,1,0,3:1:0:0:
460,183,122422,1,10,0:1:0:0:
308,248,122578,1,0,0:0:0:0:
404,66,122735,5,2,3:1:0:0:
389,246,122891,1,2,3:1:0:0:
309,117,123047,1,8,0:1:0:0:
460,183,123203,2,0,P|473:136|486:94,1,80,2|0,0:1|3:1,0:0:0:0:
473,311,123516,5,2,3:1:0:0:
352,201,123672,1,10,0:1:0:0:
374,361,123828,1,0,0:0:0:0:
460,183,123985,5,2,3:1:0:0:
306,307,124141,1,2,3:1:0:0:
304,113,124297,1,8,0:1:0:0:
133,228,124453,6,0,P|177:224|260:218,1,120,6|0,3:1|0:0,0:0:0:0:
283,221,124766,1,2,3:1:0:0:
171,316,124922,5,10,0:1:0:0:
183,118,125078,1,2,3:1:0:0:
267,306,125235,5,8,0:1:0:0:
93,146,125391,1,2,3:1:0:0:
77,331,125547,5,10,0:1:0:0:
301,134,125703,1,2,3:1:0:0:
174,364,125860,5,12,0:1:0:0:
148,76,126016,1,2,3:1:0:0:
272,325,126172,5,10,0:1:0:0:
51,95,126328,1,2,3:1:0:0:
315,142,126485,5,8,0:1:0:0:
315,142,126563,1,8,0:1:0:0:
315,142,126641,2,0,P|357:130|369:124,1,40,8|8,0:3|0:3,0:0:0:0:
443,296,126797,2,0,P|424:289|404:285,1,40,4|4,0:3|0:3,0:0:0:0:
271,364,126953,6,0,P|282:320|310:197,1,143.999995605469,4|0,3:1|0:0,0:0:0:0:
216,132,127422,1,2,3:2:0:0:
184,248,127578,1,0,0:0:0:0:
304,223,127735,2,0,P|348:235|412:203,1,107.999996704102,2|0,3:2|0:0,0:0:0:0:
432,180,128047,1,2,3:2:0:0:
456,32,128203,6,0,P|476:68|472:108,1,71.9999978027344,2|0,0:0|3:0,0:0:0:0:
451,245,128516,2,0,P|431:209|435:169,1,71.9999978027344,2|0,0:0|3:0,0:0:0:0:
356,88,128828,1,2,0:0:0:0:
240,112,128985,2,0,B|188:124|188:124|172:144|172:144|108:160,1,143.999995605469,0|0,3:0|3:0,0:0:0:0:
232,336,129453,6,0,P|252:292|232:188,1,143.999995605469,2|2,0:0|0:0,0:0:0:0:
120,72,129922,1,2,3:2:0:0:
96,216,130078,1,2,0:0:0:0:
96,216,130156,1,2,0:0:0:0:
96,216,130235,2,0,P|56:228|32:260,1,71.9999978027344,2|2,3:2|0:0,0:0:0:0:
104,352,130547,1,0,3:0:0:0:
204,276,130703,6,0,P|236:236|232:168,1,107.999996704102,2|0,0:0|0:0,0:0:0:0:
224,136,131016,1,8,0:3:0:0:
304,32,131172,1,0,3:0:0:0:
368,148,131328,1,8,0:3:0:0:
180,72,131485,2,0,P|152:100|144:144,1,71.9999978027344,8|4,3:0|0:3,0:0:0:0:
256,256,131797,2,0,P|284:228|292:184,1,71.9999978027344,4|4,3:0|0:3,0:0:0:0:
416,48,132110,6,0,B|424:96|464:108|464:108|480:172,1,143.999995605469,4|0,3:2|3:0,0:0:0:0:
408,280,132578,1,0,0:0:0:0:
292,197,132735,2,0,P|328:181|364:189,1,71.9999978027344,2|2,3:2|0:0,0:0:0:0:
488,248,133047,1,0,3:0:0:0:
372,108,133203,6,0,P|312:104|228:144,1,143.999995605469,2|2,0:0|0:0,0:0:0:0:
192,280,133672,2,0,P|152:248|124:188,1,107.999996704102,2|0,3:0|0:0,0:0:0:0:
112,160,133985,1,2,3:2:0:0:
152,40,134141,1,0,0:0:0:0:
236,136,134297,1,2,3:2:0:0:
52,80,134453,5,0,3:0:0:0:
52,80,134531,1,0,3:0:0:0:
52,80,134610,1,10,0:0:0:0:
24,256,134766,1,0,3:0:0:0:
188,208,134922,1,10,0:0:0:0:
104,12,135078,2,0,P|132:58|127:121,1,107.999996704102,2|0,3:0|0:0,0:0:0:0:
104,148,135391,1,2,3:0:0:0:
100,292,135547,1,2,0:0:0:0:
236,136,135703,6,0,P|264:184|256:264,1,107.999996704102,6|0,3:2|0:0,0:0:0:0:
256,276,136016,1,8,0:0:0:0:
296,288,136094,1,8,0:0:0:0:
336,300,136172,1,8,0:0:0:0:
376,312,136250,1,8,0:0:0:0:
416,324,136328,1,0,3:0:0:0:
504,208,136485,1,8,0:0:0:0:
420,88,136641,1,0,3:0:0:0:
420,88,136719,1,0,3:0:0:0:
420,88,136797,1,10,0:0:0:0:
264,164,136953,6,0,P|196:128|112:152,1,160,6|0,3:2|3:0,0:0:0:0:
120,352,137422,2,0,P|160:316|176:252,1,120,8|0,0:0|0:0,0:0:0:0:
184,208,137735,1,2,3:2:0:0:
344,184,137891,1,0,3:0:0:0:
272,324,138047,2,0,P|312:336|348:328,1,80,8|0,0:0|3:0,0:0:0:0:
420,187,138360,2,0,P|380:175|344:183,1,80,2|0,0:0|3:0,0:0:0:0:
244,72,138672,5,10,0:0:0:0:
184,208,138828,1,2,0:0:0:0:
184,208,138906,1,2,0:0:0:0:
184,208,138985,1,2,3:2:0:0:
64,76,139141,2,0,P|104:80|140:108,1,80,2|8,3:2|0:0,0:0:0:0:
184,304,139453,6,0,P|232:284|276:188,1,160,2|0,3:2|3:0,0:0:0:0:
340,36,139922,2,0,P|414:60|453:128,1,160,8|0,0:0|3:0,0:0:0:0:
440,284,140391,1,0,3:0:0:0:
332,184,140547,1,8,0:0:0:0:
288,340,140703,5,2,3:2:0:0:
288,340,140781,1,2,3:2:0:0:
288,340,140860,2,0,P|328:324|352:288,1,80,2|2,3:2|3:2,0:0:0:0:
408,128,141172,1,10,0:0:0:0:
236,80,141328,2,0,P|176:92|116:172,1,160,2|2,3:2|3:2,0:0:0:0:
312,232,141797,2,0,P|268:224|216:172,1,120,8|0,0:0|0:0,0:0:0:0:
304,148,142110,6,0,P|348:109|363:52,1,120,4|0,3:2|0:0,0:0:0:0:
440,24,142422,1,10,0:0:0:0:
512,136,142578,1,2,0:0:0:0:
400,216,142735,2,0,P|412:256|400:292,1,80,2|0,3:2|3:0,0:0:0:0:
304,384,143047,1,10,0:0:0:0:
248,252,143203,6,0,P|288:240|324:252,1,80,2|0,0:0|3:0,0:0:0:0:
180,360,143516,2,0,P|140:372|104:360,1,80,2|8,3:2|0:0,0:0:0:0:
64,192,143828,2,0,B|40:252|40:252|48:280|48:280|20:344,1,160,2|0,3:2|3:0,0:0:0:0:
136,248,144297,1,8,0:0:0:0:
72,72,144453,5,2,3:2:0:0:
72,72,144531,1,2,3:2:0:0:
72,72,144610,1,14,0:0:0:0:
256,20,144766,1,0,3:0:0:0:
128,164,144922,1,10,0:0:0:0:
188,64,145078,2,0,P|224:92|260:100,1,80,2|0,3:0|0:0,0:0:0:0:
432,56,145391,2,0,P|396:28|360:20,1,80,2|0,3:0|0:0,0:0:0:0:
328,260,145703,6,0,P|376:248|412:148,1,160,4|0,3:2|3:0,0:0:0:0:
272,32,146172,1,8,0:0:0:0:
332,176,146328,1,0,3:0:0:0:
332,176,146406,1,0,3:0:0:0:
332,176,146485,1,8,0:0:0:0:
196,252,146641,1,0,3:0:0:0:
355,101,146797,2,0,P|391:121|415:161,1,80,8|4,3:0|3:0,0:0:0:0:
352,334,147110,6,0,P|348:295|332:163,1,160,6|8,3:2|0:0,0:0:0:0:
202,90,147578,2,0,P|194:135|188:173,1,80,2|2,0:0|3:2,0:0:0:0:
153,288,147891,1,0,3:0:0:0:
267,225,148047,1,8,0:0:0:0:
106,166,148203,1,2,0:0:0:0:
231,302,148360,6,0,P|192:295|153:288,1,80,2|0,3:2|3:0,0:0:0:0:
50,108,148672,2,0,P|84:141|113:174,1,80,10|0,0:0|0:0,0:0:0:0:
35,332,148985,2,0,P|23:284|42:246,1,80,2|10,3:2|0:0,0:0:0:0:
131,358,149297,1,8,0:0:0:0:
180,193,149453,6,0,P|134:213|21:262,1,160,6|0,3:2|3:0,0:0:0:0:
174,317,149922,1,8,0:0:0:0:
180,193,150078,2,0,P|178:151|177:112,1,80,2|2,0:0|3:2,0:0:0:0:
294,75,150391,1,0,3:0:0:0:
181,12,150547,1,8,0:0:0:0:
255,155,150703,1,2,0:0:0:0:
87,78,150860,6,0,P|45:69|4:96,1,80,2|0,3:2|3:0,0:0:0:0:
106,199,151172,2,0,P|148:208|189:181,1,80,10|0,0:0|0:0,0:0:0:0:
291,102,151485,1,10,0:0:0:0:
275,261,151641,1,10,0:0:0:0:
194,109,151797,1,8,0:0:0:0:
356,237,151953,6,0,P|354:305|273:344,1,160,6|0,3:2|3:0,0:0:0:0:
356,237,152422,1,8,0:0:0:0:
460,287,152578,1,2,0:0:0:0:
389,169,152735,2,0,P|342:159|305:179,1,80,2|0,3:2|3:0,0:0:0:0:
210,233,153047,1,8,0:0:0:0:
246,107,153203,1,2,0:0:0:0:
302,249,153360,5,2,3:2:0:0:
321,79,153516,1,8,0:0:0:0:
321,79,153594,1,8,0:0:0:0:
321,79,153672,2,0,P|269:98|235:111,1,80,8|8,0:0|0:0,0:0:0:0:
204,124,153906,1,8,0:0:0:0:
204,124,153985,1,10,0:0:0:0:
356,160,154141,1,8,3:0:0:0:
368,4,154297,1,4,3:0:0:0:
203,49,154453,6,0,B|104:26|132:84|38:54,1,160,6|0,3:2|3:0,0:0:0:0:
162,132,154922,1,8,0:0:0:0:
47,56,155078,1,2,0:0:0:0:
36,219,155235,2,0,P|47:176|76:154,1,80,2|0,3:2|3:0,0:0:0:0:
157,262,155547,1,8,0:0:0:0:
162,132,155703,1,2,0:0:0:0:
264,275,155860,5,2,3:2:0:0:
142,224,156016,1,8,0:0:0:0:
142,224,156094,1,8,0:0:0:0:
142,224,156172,2,0,P|155:257|161:273,1,40,8|8,0:0|0:0,0:0:0:0:
253,167,156328,2,0,P|260:148|267:129,1,40,0|0,3:0|3:0,0:0:0:0:
377,70,156485,2,0,P|384:88|391:107,1,40,8|8,0:0|0:0,0:0:0:0:
480,192,156641,2,0,P|473:211|466:230,1,40,0|0,3:0|3:0,0:0:0:0:
369,317,156797,1,8,0:0:0:0:
253,167,156953,6,0,P|199:152|147:206,1,120,6|0,3:2|0:0,0:0:0:0:
139,220,157266,1,2,3:2:0:0:
208,64,157422,1,10,0:0:0:0:
222,241,157578,1,2,0:0:0:0:
131,92,157735,2,0,P|92:90|44:86,1,80,2|0,3:2|3:0,0:0:0:0:
139,220,158047,1,8,0:0:0:0:
208,64,158203,6,0,P|216:114|230:190,1,120,2|0,3:2|0:0,0:0:0:0:
234,222,158516,1,2,3:2:0:0:
300,72,158672,1,10,0:0:0:0:
139,150,158828,1,2,0:0:0:0:
300,72,158985,2,0,P|344:69|377:94,1,80,2|0,3:2|3:0,0:0:0:0:
381,270,159297,1,8,0:0:0:0:
485,185,159453,6,0,P|436:178|351:167,1,120,2|0,3:2|0:0,0:0:0:0:
329,169,159766,1,2,3:2:0:0:
480,104,159922,1,10,0:0:0:0:
408,272,160078,1,2,0:0:0:0:
364,100,160235,2,0,P|320:89|276:110,1,80,2|0,3:2|3:0,0:0:0:0:
209,228,160547,1,10,0:0:0:0:
183,40,160703,6,0,P|234:68|294:103,1,120,2|0,3:2|0:0,0:0:0:0:
317,118,161016,1,2,3:2:0:0:
172,141,161172,1,14,0:0:0:0:
294,6,161328,1,0,0:0:0:0:
172,141,161485,6,0,P|161:175|174:221,1,80,10|8,0:0|0:0,0:0:0:0:
197,249,161719,1,8,0:0:0:0:
237,249,161797,1,8,0:0:0:0:
276,247,161875,1,8,0:0:0:0:
316,246,161953,1,8,0:0:0:0:
356,246,162031,1,8,0:0:0:0:
396,247,162110,6,0,P|402:208|413:161,1,80,6|0,3:2|3:0,0:0:0:0:
262,45,162422,2,0,P|269:85|274:125,1,80,10|0,0:0|0:0,0:0:0:0:
396,247,162735,1,2,3:2:0:0:
359,91,162891,1,0,3:0:0:0:
276,247,163047,1,10,0:0:0:0:
176,82,163203,6,0,P|125:63|56:139,1,160,6|0,3:2|3:0,0:0:0:0:
138,277,163672,1,10,0:0:0:0:
177,162,163828,2,0,P|223:160|263:158,1,80,2|0,0:0|3:0,0:0:0:0:
341,312,164141,2,0,P|303:289|262:266,1,80,2|8,3:2|0:0,0:0:0:0:
417,93,164453,6,0,P|394:151|369:214,1,120,6|0,3:2|0:0,0:0:0:0:
477,213,164766,6,0,P|476:177|475:150,1,47.9999985351563,8|8,3:0|3:0,0:0:0:0:
332,51,164922,2,0,P|331:74|330:98,1,47.9999985351563,8|8,3:0|3:0,0:0:0:0:
497,41,165078,1,8,3:0:0:0:
372,204,165235,2,0,P|323:181|259:255,1,160,14|12,0:0|0:0,0:0:0:0:
136,350,165703,2,0,P|148:308|161:268,1,80,14|0,0:0|0:0,0:0:0:0:
75,81,166016,5,8,0:0:0:0:
112,69,166094,1,8,0:0:0:0:
151,78,166172,1,8,0:0:0:0:
178,106,166250,1,8,0:0:0:0:
194,145,166328,1,0,3:0:0:0:
220,174,166406,1,0,3:0:0:0:
258,184,166484,5,8,3:0:0:0:
295,172,166562,1,8,3:0:0:0:
319,141,166640,1,0,3:0:0:0:
335,102,166719,1,0,3:0:0:0:
366,78,166797,1,8,0:0:0:0:
405,72,166875,1,8,0:0:0:0:
442,87,166953,6,0,P|429:138|403:244,1,132.00000402832,6|0,3:1|0:0,0:0:0:0:
386,288,167266,1,0,3:0:0:0:
204,352,167422,2,0,P|156:356|124:332,1,88.000002685547,10|0,0:0|0:0,0:0:0:0:
24,200,167735,1,2,3:2:0:0:
24,200,167813,1,2,3:2:0:0:
24,200,167891,1,2,3:0:0:0:
188,136,168047,1,8,0:0:0:0:
268,292,168203,2,0,P|300:240|372:224,1,132.00000402832,2|0,3:2|0:0,0:0:0:0:
352,304,168516,1,2,3:2:0:0:
364,112,168672,6,0,P|412:120|444:148,1,88.000002685547,10|0,0:0|0:0,0:0:0:0:
248,184,168985,1,2,3:1:0:0:
324,32,169141,1,0,3:0:0:0:
324,32,169219,1,0,3:0:0:0:
324,32,169297,1,10,0:0:0:0:
164,184,169453,6,0,P|203:253|291:254,1,176.000005371094,2|0,3:1|3:0,0:0:0:0:
295,116,169922,2,0,P|259:144|247:188,1,88.000002685547,8|0,0:0|0:0,0:0:0:0:
312,336,170235,1,2,3:2:0:0:
440,236,170391,1,0,3:0:0:0:
376,88,170547,1,8,0:0:0:0:
356,248,170703,2,0,P|396:304|500:300,1,176.000005371094,2|0,3:2|3:0,0:0:0:0:
464,116,171172,5,10,0:0:0:0:
288,184,171328,1,0,3:0:0:0:
288,184,171406,1,0,3:0:0:0:
288,184,171485,1,2,3:1:0:0:
240,4,171641,1,2,3:1:0:0:
420,40,171797,1,8,0:0:0:0:
192,160,171953,6,0,B|128:184|128:184|112:212|112:212|40:240,1,176.000005371094,6|0,3:1|3:0,0:0:0:0:
198,251,172422,1,8,0:0:0:0:
48,148,172578,1,0,0:0:0:0:
152,316,172735,2,0,P|196:332|236:324,1,88.000002685547,2|2,3:2|3:0,0:0:0:0:
276,304,172969,1,2,0:0:0:0:
276,304,173047,1,8,0:0:0:0:
380,176,173203,1,0,0:0:0:0:
440,336,173360,2,0,P|464:295|463:255,1,88.000002685547,2|0,3:2|3:0,0:0:0:0:
432,72,173672,2,0,B|368:52|368:100|296:68,1,132.00000402832,8|0,0:0|0:0,0:0:0:0:
340,0,173985,5,2,3:1:0:0:
472,156,174141,1,0,3:0:0:0:
472,156,174219,1,0,3:0:0:0:
472,156,174297,1,10,0:0:0:0:
256,4,174453,2,0,P|228:48|244:132,1,132.00000402832,6|0,3:1|0:0,0:0:0:0:
264,156,174766,1,2,3:1:0:0:
184,300,174922,1,10,0:0:0:0:
84,172,175078,2,0,P|40:172|-4:196,1,88.000002685547,2|2,0:0|3:1,0:0:0:0:
184,300,175391,2,0,P|184:256|160:212,1,88.000002685547,2|8,3:1|0:0,0:0:0:0:
300,56,175703,6,0,P|368:40|428:88,1,132.00000402832,6|0,3:1|0:0,0:0:0:0:
352,120,176016,1,2,3:0:0:0:
244,224,176172,1,8,0:0:0:0:
444,184,176328,1,2,3:0:0:0:
216,80,176485,1,8,0:0:0:0:
348,260,176641,1,2,3:0:0:0:
348,260,176719,1,2,3:0:0:0:
348,260,176797,1,8,0:0:0:0:
152,332,176953,6,0,P|100:348|16:264,1,176.000005371094,6|2,3:1|3:1,0:0:0:0:
0,120,177422,1,10,0:0:0:0:
128,184,177578,2,0,P|124:228|100:268,1,88.000002685547,2|0,0:0|3:0,0:0:0:0:
193,129,177891,2,0,P|155:107|112:104,1,88.000002685547,0|8,3:0|0:0,0:0:0:0:
256,252,178203,6,0,B|320:232|320:232|356:240|356:240|424:216,1,176.000005371094,2|2,3:1|3:1,0:0:0:0:
320,320,178672,1,10,0:0:0:0:
361,150,178828,2,0,P|353:107|324:76,1,88.000002685547,2|0,0:0|3:0,0:0:0:0:
188,16,179141,1,0,3:0:0:0:
188,16,179297,1,8,0:0:0:0:
204,184,179453,6,0,P|246:176|278:146,1,88.000002685547,2|0,3:1|0:0,0:0:0:0:
268,32,179766,1,0,3:0:0:0:
120,176,179922,2,0,P|127:218|157:250,1,88.000002685547,10|2,0:0|0:0,0:0:0:0:
280,352,180235,1,0,3:0:0:0:
348,216,180391,1,0,3:0:0:0:
200,320,180547,1,10,0:0:0:0:
328,132,180703,6,0,P|384:140|436:200,1,132.00000402832,6|0,3:1|0:0,0:0:0:0:
436,236,181016,1,2,3:1:0:0:
280,272,181172,1,12,0:0:0:0:
264,84,181328,2,0,L|208:68,1,44.0000013427735,2|2,0:0|0:0,0:0:0:0:
140,48,181485,5,8,0:0:0:0:
105,43,181563,1,8,0:0:0:0:
71,53,181641,1,8,0:0:0:0:
45,75,181719,1,8,0:0:0:0:
44,111,181797,1,8,0:3:0:0:
49,144,181875,1,8,0:3:0:0:
41,179,181953,1,4,0:3:0:0:
19,206,182031,1,4,0:3:0:0:
0,236,182110,6,0,P|21:274|59:293,1,88.000002685547,6|2,3:1|0:0,0:0:0:0:
128,160,182422,1,10,0:0:0:0:
140,316,182578,2,0,P|120:354|82:375,1,88.000002685547,2|0,0:0|3:0,0:0:0:0:
160,236,182891,2,0,P|198:255|219:293,1,88.000002685547,0|8,3:0|0:0,0:0:0:0:
416,348,183203,5,2,0:0:0:0:
416,348,183281,1,2,0:0:0:0:
416,348,183360,1,4,3:1:0:0:
496,196,183516,1,2,3:1:0:0:
304,236,183672,2,0,P|352:228|388:244,1,88.000002685547,10|2,0:0|0:0,0:0:0:0:
504,88,183985,2,0,P|456:96|420:80,1,88.000002685547,2|0,3:0|3:0,0:0:0:0:
264,4,184297,1,8,0:0:0:0:
88,120,184453,5,2,0:0:0:0:
88,120,184531,1,2,0:0:0:0:
88,120,184610,2,0,P|100:188|152:220,1,132.00000402832,6|0,3:1|0:0,0:0:0:0:
164,140,184922,1,12,0:0:0:0:
164,312,185078,1,2,0:0:0:0:
300,192,185235,2,0,P|344:200|376:232,1,88.000002685547,2|0,3:1|3:0,0:0:0:0:
448,344,185547,5,12,0:0:0:0:
480,124,185703,1,0,3:0:0:0:
308,268,185860,1,12,0:0:0:0:
512,292,186016,1,0,3:0:0:0:
344,88,186172,5,8,0:0:0:0:
311,59,186250,1,8,0:0:0:0:
269,47,186328,1,0,3:0:0:0:
226,55,186406,1,0,3:0:0:0:
190,80,186484,1,8,3:0:0:0:
154,105,186563,1,8,3:0:0:0:
111,113,186641,1,0,3:0:0:0:
69,101,186719,1,0,3:0:0:0:
36,72,186797,1,10,0:0:0:0:
264,132,186953,6,0,P|254:179|248:220,1,88.000002685547,6|0,3:1|0:0,0:0:0:0:
296,365,187266,1,0,3:0:0:0:
334,214,187422,1,10,0:0:0:0:
196,314,187578,1,0,0:0:0:0:
394,334,187735,1,2,3:2:0:0:
394,334,187813,1,2,3:0:0:0:
394,334,187891,1,2,3:0:0:0:
278,157,188047,1,8,0:0:0:0:
296,365,188203,6,0,P|250:342|123:282,1,176.000005371094,2|2,3:2|3:2,0:0:0:0:
8,164,188672,2,0,P|57:157|95:153,1,88.000002685547,10|0,0:0|0:0,0:0:0:0:
206,55,188985,2,0,P|213:104|217:142,1,88.000002685547,2|0,3:1|3:0,0:0:0:0:
68,241,189297,1,10,0:0:0:0:
299,74,189453,6,0,P|352:55|434:136,1,176.000005371094,2|0,3:1|3:0,0:0:0:0:
376,298,189922,1,8,0:0:0:0:
353,128,190078,1,0,0:0:0:0:
494,261,190235,2,0,P|450:240|367:197,1,132.00000402832,2|0,3:2|0:0,0:0:0:0:
353,128,190547,1,8,0:0:0:0:
204,293,190703,6,0,B|305:271|281:331|379:296,1,176.000005371094,2|0,3:2|3:0,0:0:0:0:
213,125,191172,2,0,P|202:172|193:214,1,88.000002685547,10|0,0:0|0:0,0:0:0:0:
235,372,191485,1,2,3:1:0:0:
58,341,191641,2,0,P|49:291|40:237,1,88.000002685547,2|8,3:1|0:0,0:0:0:0:
177,57,191953,6,0,P|219:47|285:154,1,176.000005371094,6|0,3:1|3:0,0:0:0:0:
334,299,192422,2,0,P|362:255|384:221,1,88.000002685547,8|0,0:0|0:0,0:0:0:0:
509,153,192735,1,2,3:2:0:0:
469,274,192891,1,0,3:0:0:0:
408,106,193047,2,0,P|368:93|326:117,1,88.000002685547,8|0,0:0|0:0,0:0:0:0:
142,136,193360,5,2,3:2:0:0:
234,257,193516,1,2,3:0:0:0:
256,90,193672,1,8,0:0:0:0:
136,251,193828,1,2,0:0:0:0:
329,113,193985,2,0,P|320:166|311:218,1,88.000002685547,2|0,3:1|3:0,0:0:0:0:
366,353,194297,1,10,0:0:0:0:
140,302,194453,6,0,P|147:254|160:164,1,132.00000402832,6|0,3:1|0:0,0:0:0:0:
157,98,194766,1,2,3:1:0:0:
60,247,194922,1,10,0:0:0:0:
237,151,195078,1,2,0:0:0:0:
240,332,195235,1,2,3:1:0:0:
111,172,195391,1,2,3:1:0:0:
326,222,195547,1,8,0:0:0:0:
60,247,195703,2,0,P|66:292|73:347,1,88.000002685547,6|0,3:1|0:0,0:0:0:0:
253,205,196016,5,8,0:3:0:0:
253,205,196094,1,4,0:3:0:0:
253,205,196172,1,6,3:1:0:0:
138,369,196328,1,0,3:0:0:0:
138,369,196406,1,0,3:0:0:0:
138,369,196485,1,14,0:0:0:0:
303,275,196641,1,0,3:0:0:0:
122,185,196797,1,14,0:0:0:0:
303,275,196953,6,0,P|327:211|364:107,1,176.000005371094,6|0,3:1|3:0,0:0:0:0:
182,16,197422,2,0,P|198:66|212:104,1,88.000002685547,10|0,0:0|0:0,0:0:0:0:
134,244,197735,2,0,P|184:260|224:241,1,88.000002685547,2|0,3:1|3:0,0:0:0:0:
74,117,198047,1,10,0:0:0:0:
76,296,198203,1,4,3:1:0:0:
237,65,198360,6,0,P|211:125|178:191,1,132.00000402832,2|0,0:0|0:0,0:0:0:0:
215,248,198672,1,10,0:0:0:0:
138,95,198828,2,0,P|95:74|59:57,1,88.000002685547,2|0,0:0|3:0,0:0:0:0:
94,212,199141,1,0,3:0:0:0:
179,21,199297,1,8,0:0:0:0:
94,212,199453,6,0,P|93:308|163:344,1,176.000005371094,6|0,3:1|3:0,0:0:0:0:
313,177,199922,2,0,P|292:233|278:272,1,88.000002685547,10|0,0:0|3:0,0:0:0:0:
380,369,200235,1,2,0:0:0:0:
212,376,200391,2,0,P|197:334|182:293,1,88.000002685547,2|8,3:1|0:0,0:0:0:0:
387,128,200703,6,0,P|325:95|232:149,1,176.000005371094,6|0,3:1|3:0,0:0:0:0:
414,206,201172,2,0,P|451:185|465:145,1,88.000002685547,12|0,0:0|0:0,0:0:0:0:
349,21,201485,1,12,0:0:0:0:
288,186,201641,5,8,3:0:0:0:
440,79,201797,1,4,3:0:0:0:
220,0,201953,2,0,P|234:48|249:92,1,88.000002685547,4|0,3:1|3:0,0:0:0:0:
196,322,202266,5,2,3:1:0:0:
150,104,202422,1,10,0:0:0:0:
318,247,202578,2,0,P|269:243|219:236,1,88.000002685547,2|0,0:0|3:0,0:0:0:0:
496,148,202891,5,2,3:1:0:0:
368,336,203047,1,10,0:0:0:0:
365,108,203203,2,0,P|329:126|281:152,1,88.000002685547,6|0,3:1|3:0,0:0:0:0:
121,321,203516,5,2,3:1:0:0:
174,94,203672,1,10,0:0:0:0:
6,250,203828,2,0,P|53:238|100:227,1,88.000002685547,2|0,0:0|3:0,0:0:0:0:
228,26,204141,5,2,3:1:0:0:
185,214,204297,1,10,0:0:0:0:
94,24,204453,2,0,P|51:48|71:163,1,176.000005371094,6|0,3:1|3:0,0:0:0:0:
361,74,204922,5,8,0:0:0:0:
265,349,205078,1,2,3:1:0:0:
277,46,205234,5,10,0:0:0:0:
386,330,205391,1,0,3:0:0:0:
142,146,205547,5,10,0:0:0:0:
439,50,205703,1,0,3:0:0:0:
115,143,205860,5,10,0:0:0:0:
411,240,206016,1,0,3:0:0:0:
200,40,206172,5,10,0:0:0:0:
331,329,206328,1,0,3:0:0:0:
346,31,206485,5,10,0:0:0:0:
161,316,206641,1,2,3:1:0:0:
430,136,206797,1,8,0:0:0:0:
94,192,206953,5,6,3:1:0:0:
94,192,207422,2,0,L|72:144,2,42.6666666666667,8|8|8,0:0|0:0|0:0,0:0:0:0:
140,272,207735,1,10,3:2:0:0:
392,140,208047,2,0,L|414:188,2,42.6666666666667,8|8|8,0:0|0:0|0:0,0:0:0:0:
346,60,208360,1,10,3:2:0:0:
151,81,208672,6,0,L|133:42,2,42.6666666666667,8|8|8,0:0|0:0|0:0,0:0:0:0:
182,163,208985,1,10,3:2:0:0:
188,188,209089,1,8,0:0:0:0:
200,210,209193,1,8,0:0:0:0:
220,226,209297,1,8,0:0:0:0:
243,235,209401,1,8,0:0:0:0:
269,236,209505,1,8,0:0:0:0:
293,229,209609,1,10,3:2:0:0:
293,229,209922,6,0,L|325:269,2,42.6666666666667,8|8|8,0:0|0:0|0:0,0:0:0:0:
321,141,210235,1,10,3:2:0:0:
108,76,210547,2,0,L|118:25,2,42.6666666666667,8|8|8,0:0|0:0|0:0,0:0:0:0:
22,111,210860,1,10,3:2:0:0:
275,321,211172,6,0,L|235:337,2,42.6666666666667,8|8|8,0:0|0:0|0:0,0:0:0:0:
359,296,211485,1,10,3:2:0:0:
384,296,211589,1,8,0:0:0:0:
408,289,211693,1,8,0:0:0:0:
429,274,211797,1,10,3:2:0:0:
444,254,211901,1,8,0:0:0:0:
452,230,212005,1,8,0:0:0:0:
451,204,212109,1,14,3:2:0:0:
451,204,212422,6,0,L|497:218,2,42.6666666666667,8|8|8,0:0|0:0|0:0,0:0:0:0:
359,184,212735,1,10,3:2:0:0:
148,76,213047,2,0,L|108:104,2,42.6666666666667,8|8|8,0:0|0:0|0:0,0:0:0:0:
220,16,213360,1,10,3:2:0:0:
388,152,213672,6,0,L|412:186,2,42.6666666666667,8|8|8,0:0|0:0|0:0,0:0:0:0:
328,84,213985,2,0,P|296:112|284:156,1,85.3333333333333,10|0,3:2|0:0,0:0:0:0:
264,233,214297,1,10,0:0:0:0:
238,231,214401,1,8,0:0:0:0:
215,222,214505,1,8,0:0:0:0:
196,204,214609,1,10,3:2:0:0:
196,204,214922,2,0,L|172:256,2,42.6666666666667,10|8|8,0:0|0:0|0:0,0:0:0:0:
152,124,215235,1,10,3:2:0:0:
152,124,215547,5,10,0:0:0:0:
256,36,215703,1,8,0:0:0:0:
304,164,215860,1,10,3:2:0:0:
176,44,216016,1,0,3:0:0:0:
356,100,216172,6,0,P|380:136|384:204,1,96,12|0,0:0|0:0,0:0:0:0:
376,224,216485,1,10,0:0:0:0:
368,260,216563,1,8,0:0:0:0:
360,296,216641,1,8,0:0:0:0:
352,332,216719,1,8,0:0:0:0:
344,368,216797,1,8,3:2:0:0:
168,264,216953,5,8,0:0:0:0:
168,264,217031,1,8,0:0:0:0:
168,264,217110,2,0,P|124:264|92:244,1,80,6|0,3:2|3:0,0:0:0:0:
8,128,217422,1,8,0:0:0:0:
188,44,217578,1,2,0:0:0:0:
188,44,217656,1,2,0:0:0:0:
188,44,217735,2,0,P|188:88|168:120,1,80,0|2,3:0|3:2,0:0:0:0:
168,264,218047,1,8,0:0:0:0:
300,152,218203,6,0,B|356:164|356:164|380:184|380:184|452:200,1,160,2|2,3:2|3:2,0:0:0:0:
492,212,218594,1,2,0:0:0:0:
492,212,218672,1,10,0:0:0:0:
424,88,218828,1,2,0:0:0:0:
312,240,218985,2,0,P|300:284|272:316,1,80,2|2,3:2|3:2,0:0:0:0:
132,352,219297,1,10,0:0:0:0:
76,164,219453,6,0,P|104:104|200:96,1,160,2|0,3:2|3:0,0:0:0:0:
320,124,219922,1,10,0:0:0:0:
160,168,220078,1,2,0:0:0:0:
160,168,220156,1,2,0:0:0:0:
160,168,220235,1,2,3:2:0:0:
248,20,220391,1,0,3:0:0:0:
236,232,220547,1,10,0:0:0:0:
380,56,220703,6,0,P|424:68|456:172,1,160,2|2,3:2|3:2,0:0:0:0:
416,296,221172,1,8,0:0:0:0:
236,232,221328,2,0,B|205:208|186:215|186:215|171:197|152:203|152:203|141:186|122:192|122:192|111:176|92:182|92:182,1,160,2|0,0:0|0:0,0:0:0:0:
264,324,221797,1,8,0:0:0:0:
294,299,221875,1,8,0:0:0:0:
314,264,221953,1,8,0:0:0:0:
321,225,222031,1,8,0:0:0:0:
312,186,222110,6,0,P|352:168|368:136,1,80,6|0,3:2|3:0,0:0:0:0:
304,8,222422,1,10,0:0:0:0:
488,44,222578,1,2,0:0:0:0:
488,44,222656,1,2,0:0:0:0:
488,44,222735,1,0,3:0:0:0:
288,92,222891,1,2,3:2:0:0:
476,128,223047,1,8,0:0:0:0:
272,180,223203,6,0,P|272:204|264:224,1,40,6|2,3:2|0:0,0:0:0:0:
132,300,223360,2,0,P|132:276|140:256,1,40,2|2,0:0|0:0,0:0:0:0:
160,144,223516,1,2,3:0:0:0:
304,16,223672,1,10,0:0:0:0:
360,200,223828,2,0,P|360:176|368:156,1,40,2|2,0:0|0:0,0:0:0:0:
500,80,223985,2,0,P|500:104|492:124,1,40,2|2,3:0|0:0,0:0:0:0:
472,236,224141,1,2,3:2:0:0:
416,84,224297,1,10,0:0:0:0:
328,284,224453,6,0,P|292:264|272:224,1,80,6|0,3:2|0:0,0:0:0:0:
192,88,224766,1,0,3:0:0:0:
76,208,224922,1,14,0:0:0:0:
136,16,225078,1,0,3:0:0:0:
136,16,225156,1,0,3:0:0:0:
136,16,225235,1,2,3:2:0:0:
296,136,225391,1,2,3:2:0:0:
48,104,225547,5,12,0:0:0:0:
248,36,225703,1,2,3:2:0:0:
76,208,225860,1,8,0:0:0:0:
296,136,226016,1,2,3:2:0:0:
56,16,226172,1,12,0:0:0:0:
44,300,226328,5,2,0:0:0:0:
44,300,226406,1,2,0:0:0:0:
44,300,226485,2,0,L|96:312,2,53.3333333333333,8|8|8,0:0|0:0|0:3,0:0:0:0:
76,208,226797,2,0,L|24:196,2,53.3333333333333,8|4|4,0:3|0:3|0:3,0:0:0:0:
188,228,227110,6,0,P|190:181|194:108,1,96,4|0,3:2|0:0,0:0:0:0:
195,98,227422,1,2,0:0:0:0:
318,322,228047,1,2,0:0:0:0:
76,208,228672,1,2,0:0:0:0:
367,72,229297,2,0,P|337:109|298:159,1,96,2|0,0:0|0:0,0:0:0:0:
321,181,229610,6,0,P|353:144|393:100,1,96,2|0,0:0|0:0,0:0:0:0:
406,82,229922,1,2,0:0:0:0:
258,331,230547,1,2,0:0:0:0:
273,46,231172,1,2,0:0:0:0:
307,147,231328,1,2,0:0:0:0:
139,281,231797,2,0,P|137:246|76:223,1,96,2|0,0:3|0:0,0:0:0:0:
46,226,232110,6,0,P|68:159|85:113,1,96,2|0,0:0|0:0,0:0:0:0:
92,100,232422,1,2,0:0:0:0:
117,355,233047,1,2,0:0:0:0:
0,108,233672,1,2,0:0:0:0:
243,110,234297,2,0,P|211:145|167:196,1,96,2|0,0:0|0:0,0:0:0:0:
151,206,234610,6,0,P|190:212|252:225,1,96,2|0,0:0|0:0,0:0:0:0:
281,237,234922,1,2,0:0:0:0:
357,160,235078,1,0,0:0:0:0:
353,297,235235,2,0,P|382:271|405:251,1,64,2|0,0:3|0:0,0:0:0:0:
451,141,235547,2,0,P|411:148|345:163,1,96,2|0,0:0|0:0,0:0:0:0:
317,171,235860,6,0,B|207:138|226:204|143:173,1,167.999994873047,6|0,3:2|0:0,0:0:0:0:
120,95,236485,2,0,P|71:174|138:260,1,195.999994018555,6|0,3:2|0:0,0:0:0:0:
149,271,237110,6,0,P|182:290|249:336,1,107.999996704102,6|0,3:2|0:0,0:0:0:0:
268,351,237422,2,0,P|277:305|286:272,1,71.9999978027344,2|0,0:0|3:0,0:0:0:0:
347,192,237735,1,10,0:0:0:0:
347,192,237891,1,0,0:0:0:0:
220,198,238047,2,0,P|212:229|197:284,1,71.9999978027344,2|0,0:0|0:0,0:0:0:0:
164,140,238360,5,2,3:2:0:0:
61,227,238516,2,0,P|19:216|3:186,1,71.9999978027344,8|0,0:0|0:0,0:0:0:0:
87,118,238828,1,0,3:0:0:0:
141,218,238985,2,0,P|128:257|114:303,1,71.9999978027344,8|0,0:0|0:0,0:0:0:0:
193,365,239297,1,2,0:0:0:0:
71,351,239453,1,0,0:0:0:0:
212,269,239610,6,0,P|227:221|259:129,1,143.999995605469,6|2,3:2|0:0,0:0:0:0:
392,71,240078,1,0,3:0:0:0:
361,205,240235,2,0,P|351:167|339:127,1,71.9999978027344,10|0,0:0|0:0,0:0:0:0:
462,202,240547,2,0,P|451:236|442:271,1,71.9999978027344,2|2,0:0|0:0,0:0:0:0:
275,344,240860,6,0,P|290:310|306:273,1,71.9999978027344,0|8,3:0|0:0,0:0:0:0:
367,334,241172,1,0,0:0:0:0:
361,205,241328,1,0,3:0:0:0:
441,271,241485,1,8,0:0:0:0:
303,278,241641,1,0,3:0:0:0:
413,142,241797,2,0,P|376:126|302:147,1,107.999996704102,8|0,0:3|0:0,0:0:0:0:
281,161,242110,2,0,P|280:122|281:79,1,71.9999978027344,6|0,3:2|0:0,0:0:0:0:
71,180,242422,5,10,0:0:0:0:
37,146,242526,1,8,0:0:0:0:
71,112,242630,1,8,0:0:0:0:
104,146,242735,2,0,P|141:136|185:127,1,71.9999978027344,10|0,3:2|0:0,0:0:0:0:
285,239,243047,5,10,0:0:0:0:
319,273,243151,1,8,0:0:0:0:
285,307,243255,1,8,0:0:0:0:
252,273,243360,2,0,P|215:283|171:292,1,71.9999978027344,10|0,3:2|0:0,0:0:0:0:
31,318,243672,5,10,0:0:0:0:
44,272,243776,1,8,0:0:0:0:
58,225,243880,1,8,0:0:0:0:
70,179,243985,2,0,P|98:188|134:201,1,47.9999985351563,10|8,3:2|0:0,0:0:0:0:
209,135,244193,2,0,P|218:176|220:196,1,47.9999985351563,8|10,0:0|3:2,0:0:0:0:
252,273,244401,2,0,P|218:283|185:288,1,47.9999985351563,8|8,0:0|0:0,0:0:0:0:
351,215,244610,2,0,P|352:253|353:302,1,71.9999978027344,10|0,3:2|0:0,0:0:0:0:
411,164,244922,5,10,0:0:0:0:
371,138,245026,1,8,0:0:0:0:
324,142,245130,1,8,0:0:0:0:
288,173,245235,2,0,P|295:126|303:90,1,71.9999978027344,10|0,3:2|0:0,0:0:0:0:
233,301,245547,5,10,0:0:0:0:
273,273,245651,1,8,0:0:0:0:
314,249,245755,1,8,0:0:0:0:
357,227,245860,2,0,P|375:265|369:300,1,71.9999978027344,10|0,3:2|0:0,0:0:0:0:
74,237,246172,5,10,0:0:0:0:
40,203,246276,1,8,0:0:0:0:
74,169,246380,1,8,0:0:0:0:
107,203,246485,2,0,P|146:195|163:186,1,47.9999985351563,10|8,3:2|0:0,0:0:0:0:
258,156,246693,2,0,P|241:206|242:232,1,47.9999985351563,8|8,0:3|0:3,0:0:0:0:
233,301,246901,2,0,P|194:281|168:276,1,47.9999985351563,4|4,0:3|0:3,0:0:0:0:
314,249,247110,6,0,P|384:260|440:216,1,143.999995605469,6|2,3:2|0:0,0:0:0:0:
388,52,247735,2,0,P|318:41|262:85,1,143.999995605469,4|2,3:2|0:0,0:0:0:0:
136,232,248360,1,4,3:2:0:0:
40,176,248516,1,0,3:0:0:0:
164,308,248672,2,0,P|200:288|216:252,1,80,12|0,0:0|3:0,0:0:0:0:
263,83,248985,2,0,P|288:80|308:84,1,40,8|8,0:0|0:3,0:0:0:0:
400,8,249141,2,0,P|403:33|399:53,1,40,4|4,0:3|0:3,0:0:0:0:
480,144,249297,2,0,P|455:147|435:143,1,40,8|8,0:0|0:3,0:0:0:0:
343,219,249453,2,0,P|340:194|344:174,1,40,4|4,0:3|0:3,0:0:0:0:
200,24,249610,5,6,3:2:0:0:
156,200,249766,1,0,3:0:0:0:
24,72,249922,1,8,0:0:0:0:
252,184,250078,1,0,3:0:0:0:
16,296,250235,1,8,0:0:0:0:
120,56,250391,1,0,3:0:0:0:
220,296,250547,1,8,0:0:0:0:
12,164,250703,5,0,3:0:0:0:
12,164,250781,1,0,3:0:0:0:
12,164,250860,1,8,0:0:0:0:
240,40,251016,1,0,3:0:0:0:
136,280,251172,1,8,0:0:0:0:
336,112,251328,1,0,3:0:0:0:
80,48,251485,1,8,0:0:0:0:
272,224,251641,1,0,3:0:0:0:
272,224,251719,1,0,3:0:0:0:
272,224,251797,1,8,0:0:0:0:
440,20,251953,6,0,P|488:40|504:144,1,160,6|0,3:2|3:0,0:0:0:0:
400,332,252422,1,12,0:0:0:0:
432,104,252578,1,0,3:0:0:0:
208,160,252735,6,0,P|188:164|168:160,1,40,8|8,0:0|0:0,0:0:0:0:
112,48,252891,2,0,P|108:67|112:87,1,40,0|0,3:0|3:0,0:0:0:0:
72,176,253047,1,8,3:0:0:0:
52,210,253125,1,8,3:0:0:0:
48,250,253203,1,0,3:0:0:0:
59,288,253281,1,0,3:0:0:0:
84,319,253360,6,0,P|104:312|128:316,1,40,8|8,0:0|0:0,0:0:0:0:
232,364,253516,2,0,P|212:371|188:367,1,40,0|0,3:0|3:0,0:0:0:0:
208,268,253672,1,8,3:0:0:0:
241,246,253750,1,8,3:0:0:0:
280,239,253828,1,0,3:0:0:0:
319,249,253906,1,0,3:0:0:0:
350,273,253985,6,0,P|356:292|352:312,1,40,4|4,3:0|3:0,0:0:0:0:
452,364,254141,2,0,P|446:345|450:325,1,40,0|0,3:0|3:0,0:0:0:0:
452,196,254297,2,0,P|457:214|453:234,1,40,12|0,0:0|3:0,0:0:0:0:
364,156,254453,1,4,3:2:0:0:
364,156,254766,5,2,0:0:0:0:
272,124,254922,2,0,P|220:128|176:104,1,96,2|0,0:0|0:0,0:0:0:0:
232,48,255235,2,0,P|148:40|104:128,1,192,2|2,0:0|0:0,0:0:0:0:
240,260,256172,6,0,P|292:256|336:280,1,96,2|0,0:0|0:0,0:0:0:0:
332,344,256485,2,0,L|396:232,1,128,2|2,0:0|0:0,0:0:0:0:
456,120,256953,6,0,P|308:27|144:82,1,360,6|0,3:2|0:0,0:0:0:0:
60,112,258672,1,2,0:0:0:0:
100,192,258985,1,2,0:0:0:0:
144,272,259297,1,2,0:0:0:0:
144,272,259453,6,0,B|232:248|232:312|340:272,1,200,2|2,0:0|0:3,0:0:0:0:
339,272,260703,1,2,0:3:0:0:
456,200,261172,5,2,0:0:0:0:
400,128,261485,1,2,0:0:0:0:
400,128,261641,1,2,0:0:0:0:
348,52,261953,6,0,B|272:64|272:64|248:96|248:96|164:112,1,200,2|2,0:0|0:3,0:0:0:0:
166,111,263360,1,2,0:3:0:0:
88,276,263985,5,2,0:0:0:0:
172,308,264297,1,2,0:0:0:0:
172,308,264453,1,2,0:0:0:0:
256,344,264766,1,2,0:0:0:0:
256,344,264922,2,0,L|300:320,1,40,2|2,0:0|0:0,0:0:0:0:
360,284,265235,1,2,0:0:0:0:
360,284,265391,1,2,0:0:0:0:
428,232,265703,6,0,P|440:192|432:156,1,80,2|2,0:0|0:0,0:0:0:0:
344,72,266172,1,0,3:0:0:0:
360,192,266328,1,8,0:0:0:0:
360,192,266406,1,8,0:0:0:0:
360,192,266485,1,8,3:2:0:0:
248,144,266641,1,8,3:0:0:0:
344,72,266797,1,4,3:0:0:0:
440,172,266953,6,0,P|433:227|428:300,1,107.999996704102,6|0,3:2|0:0,0:0:0:0:
428,318,267266,1,2,0:0:0:0:
296,338,267422,2,0,P|300:291|303:254,1,71.9999978027344,2|2,3:2|0:0,0:0:0:0:
185,166,267735,2,0,P|195:216|209:289,1,107.999996704102,8|0,0:0|0:0,0:0:0:0:
211,308,268047,1,2,0:0:0:0:
76,361,268203,6,0,P|60:326|98:250,1,107.999996704102,6|0,3:2|0:0,0:0:0:0:
106,239,268516,1,10,0:0:0:0:
211,308,268672,1,2,3:2:0:0:
187,212,268828,1,2,3:2:0:0:
139,308,268985,2,0,P|178:307|219:307,1,71.9999978027344,8|0,0:0|0:0,0:0:0:0:
321,354,269297,1,2,3:2:0:0:
293,229,269453,6,0,P|250:221|171:209,1,107.999996704102,6|0,3:2|0:0,0:0:0:0:
149,203,269766,1,10,0:0:0:0:
225,114,269922,1,2,0:0:0:0:
238,219,270078,1,0,3:0:0:0:
144,122,270235,2,0,P|105:128|78:158,1,71.9999978027344,8|0,0:0|0:0,0:0:0:0:
34,265,270547,1,2,0:0:0:0:
177,341,270703,6,0,P|164:291|150:235,1,107.999996704102,6|0,3:2|0:0,0:0:0:0:
149,203,271016,2,0,P|186:202|227:203,1,71.9999978027344,10|4,0:0|3:2,0:0:0:0:
351,226,271328,1,2,0:0:0:0:
303,74,271485,1,8,0:0:0:0:
220,202,271641,1,8,0:0:0:0:
376,127,271797,1,8,0:0:0:0:
411,126,271875,1,8,0:0:0:0:
443,141,271953,1,8,0:0:0:0:
465,170,272031,1,8,0:0:0:0:
471,205,272110,6,0,P|455:263|446:292,1,80,6|2,3:2|3:2,0:0:0:0:
303,355,272422,1,10,0:0:0:0:
284,207,272578,2,0,P|305:232|343:274,1,80,2|0,0:0|3:0,0:0:0:0:
425,370,272891,1,0,3:0:0:0:
395,206,273047,1,8,0:0:0:0:
303,355,273203,1,2,0:0:0:0:
300,152,273360,5,6,3:2:0:0:
146,252,273516,1,2,3:2:0:0:
303,355,273672,2,0,P|275:311|248:272,1,80,10|2,0:0|0:0,0:0:0:0:
119,142,273985,5,4,3:2:0:0:
186,344,274141,1,0,3:0:0:0:
253,167,274297,2,0,P|290:196|330:224,1,80,8|2,0:0|3:2,0:0:0:0:
81,339,274610,5,14,0:0:0:0:
169,64,274766,1,0,3:0:0:0:
245,345,274922,5,8,0:0:0:0:
46,128,275078,1,2,3:2:0:0:
333,117,275235,5,14,0:0:0:0:
22,129,275391,1,0,3:0:0:0:
306,292,275547,5,8,0:0:0:0:
94,75,275703,1,0,3:0:0:0:
138,354,275860,5,8,0:0:0:0:
120,318,275938,1,8,0:0:0:0:
122,279,276016,1,0,3:0:0:0:
144,245,276094,1,0,3:0:0:0:
179,227,276172,2,0,P|201:195|207:175,1,40,8|8,3:0|3:0,0:0:0:0:
309,89,276328,2,0,P|345:91|364:102,1,40,0|0,3:0|3:0,0:0:0:0:
478,193,276485,5,8,0:0:0:0:
439,219,276563,1,8,0:0:0:0:
402,246,276641,1,0,3:0:0:0:
364,274,276719,1,0,3:0:0:0:
327,302,276797,2,0,P|343:339|360:360,1,40,8|0,0:0|3:0,0:0:0:0:
191,281,276953,6,0,P|197:223|203:172,1,88.000002685547,6|0,3:1|0:0,0:0:0:0:
30,287,277266,1,0,3:0:0:0:
83,76,277422,2,0,P|90:119|100:162,1,88.000002685547,10|0,0:0|0:0,0:0:0:0:
274,26,277735,2,0,P|259:64|253:83,1,44.0000013427735,2|2,3:2|0:0,0:0:0:0:
298,195,277891,1,2,3:0:0:0:
169,102,278047,1,8,0:0:0:0:
377,77,278203,6,0,P|421:73|479:141,1,132.00000402832,2|0,3:2|0:0,0:0:0:0:
491,204,278516,1,2,3:2:0:0:
364,298,278672,2,0,P|317:292|288:253,1,88.000002685547,10|0,0:0|0:0,0:0:0:0:
377,77,278985,2,0,P|424:83|453:122,1,88.000002685547,2|0,3:1|3:0,0:0:0:0:
474,293,279297,1,10,0:0:0:0:
268,196,279453,6,0,P|281:146|308:62,1,132.00000402832,6|0,3:1|0:0,0:0:0:0:
330,0,279766,1,0,3:0:0:0:
110,99,279922,2,0,P|166:91|202:86,1,88.000002685547,8|0,0:0|0:0,0:0:0:0:
292,254,280235,1,2,3:2:0:0:
305,69,280391,1,0,3:0:0:0:
175,220,280547,1,8,0:0:0:0:
346,161,280703,6,0,P|401:138|511:92,1,176.000005371094,2|0,3:2|3:0,0:0:0:0:
400,323,281172,2,0,P|406:266|410:226,1,88.000002685547,10|0,0:0|0:0,0:0:0:0:
318,85,281485,1,2,3:1:0:0:
204,184,281641,2,0,P|222:228|241:273,1,88.000002685547,2|8,0:0|0:0,0:0:0:0:
65,83,281953,6,0,B|159:126|142:49|260:84,1,176.000005371094,4|0,3:1|3:0,0:0:0:0:
394,51,282422,2,0,P|363:99|340:133,1,88.000002685547,8|0,0:0|0:0,0:0:0:0:
343,288,282735,1,2,3:2:0:0:
224,173,282891,1,2,3:0:0:0:
422,204,283047,1,8,0:0:0:0:
201,290,283203,1,0,0:0:0:0:
373,138,283360,5,2,3:2:0:0:
307,320,283516,1,2,3:0:0:0:
249,132,283672,1,8,0:0:0:0:
395,288,283828,1,2,0:0:0:0:
158,187,283985,2,0,P|174:234|191:286,1,88.000002685547,2|0,3:1|3:0,0:0:0:0:
86,363,284297,1,10,0:0:0:0:
253,210,284453,6,0,P|309:205|364:272,1,132.00000402832,6|0,3:1|0:0,0:0:0:0:
378,326,284766,1,2,3:1:0:0:
416,148,284922,1,10,0:0:0:0:
273,279,285078,1,2,0:0:0:0:
477,235,285235,5,2,3:1:0:0:
302,104,285391,1,2,3:1:0:0:
378,326,285547,1,8,0:0:0:0:
456,107,285703,2,0,P|418:133|375:160,1,88.000002685547,6|0,3:1|0:0,0:0:0:0:
244,304,286016,5,8,0:0:0:0:
302,104,286172,1,10,0:0:0:0:
348,256,286328,1,0,3:0:0:0:
143,153,286485,1,10,0:0:0:0:
156,312,286641,1,0,3:0:0:0:
304,184,286797,1,10,0:0:0:0:
42,84,286953,6,0,P|50:139|65:242,1,132.00000402832,6|0,3:1|0:0,0:0:0:0:
59,290,287266,1,0,3:0:0:0:
206,112,287422,2,0,P|157:103|124:131,1,88.000002685547,10|0,0:0|0:0,0:0:0:0:
256,240,287735,1,2,3:1:0:0:
230,37,287891,1,0,3:0:0:0:
162,208,288047,1,10,0:0:0:0:
238,18,288203,1,4,3:1:0:0:
343,235,288360,6,0,P|342:279|263:322,1,132.00000402832,2|0,0:0|0:0,0:0:0:0:
202,312,288672,1,10,0:0:0:0:
298,171,288828,2,0,P|351:158|405:188,1,88.000002685547,2|0,0:0|3:0,0:0:0:0:
434,346,289141,1,0,3:0:0:0:
471,161,289297,1,8,0:0:0:0:
310,361,289453,6,0,P|323:313|347:229,1,132.00000402832,6|0,3:1|0:0,0:0:0:0:
381,167,289766,1,8,3:0:0:0:
208,236,289922,1,8,3:0:0:0:
320,88,290078,1,8,3:0:0:0:
324,272,290235,1,2,0:0:0:0:
196,128,290391,1,4,3:0:0:0:
332,240,290547,1,4,3:0:0:0:
220,50,290703,6,0,P|151:51|116:134,1,132.00000402832,6|0,3:1|0:0,0:0:0:0:
115,131,291016,1,0,3:0:0:0:
314,65,291172,1,10,0:0:0:0:
81,15,291328,1,0,3:0:0:0:
223,221,291485,1,10,0:0:0:0:
6,172,291641,1,2,3:1:0:0:
239,111,291797,1,10,0:0:0:0:
174,335,291953,6,0,P|151:297|120:248,1,88.000002685547,6|0,3:1|3:0,0:0:0:0:
122,53,292266,1,2,3:1:0:0:
237,238,292422,1,10,0:0:0:0:
329,94,292578,6,0,P|285:94|241:95,1,88.000002685547,2|0,0:0|3:0,0:0:0:0:
105,238,292891,1,2,3:1:0:0:
307,171,293047,1,10,0:0:0:0:
172,53,293203,6,0,P|151:107|176:146,1,88.000002685547,2|0,3:1|3:0,0:0:0:0:
288,312,293516,1,2,3:1:0:0:
241,95,293672,1,10,0:0:0:0:
83,172,293828,6,0,P|129:148|166:129,1,88.000002685547,2|0,0:0|3:0,0:0:0:0:
308,324,294141,1,2,3:1:0:0:
241,95,294297,1,10,0:0:0:0:
171,353,294453,2,0,P|190:278|221:170,1,176.000005371094,6|0,3:1|3:0,0:0:0:0:
405,34,294922,5,8,0:0:0:0:
305,340,295078,1,2,3:1:0:0:
236,22,295235,5,10,0:0:0:0:
401,354,295391,1,0,3:0:0:0:
98,179,295547,5,10,0:0:0:0:
405,34,295703,1,0,3:0:0:0:
183,350,295860,5,10,0:0:0:0:
311,40,296016,1,0,3:0:0:0:
322,354,296172,5,10,0:0:0:0:
139,29,296328,1,0,3:0:0:0:
90,355,296485,5,10,0:0:0:0:
333,52,296641,1,2,3:1:0:0:
253,377,296797,5,8,0:0:0:0:
113,24,296953,2,0,P|174:62|271:120,1,176.000005371094,6|0,3:1|3:0,0:0:0:0:
436,88,297422,6,0,P|399:137|370:178,1,88.000002685547,12|0,0:0|0:0,0:0:0:0:
383,340,297735,2,0,P|346:301|311:275,1,88.000002685547,0|0,3:0|0:0,0:0:0:0:
148,342,298047,1,8,0:0:0:0:
298,193,298203,1,2,0:0:0:0:
246,366,298360,6,0,P|231:328|221:307,1,44.0000013427735,14|0,0:0|0:0,0:0:0:0:
112,231,298516,2,0,P|127:193|137:172,1,44.0000013427735,14|0,0:0|0:0,0:0:0:0:
343,70,298828,6,0,B|184:41|246:139|80:93,1,270.000010299683,14|0,0:0|0:0,0:0:0:0:
128,190,299610,6,0,P|119:210|112:231,1,44.0000013427735,8|8,3:1|0:0,0:0:0:0:
246,366,299766,2,0,P|231:328|221:307,1,44.0000013427735,8|8,0:0|0:0,0:0:0:0:
293,176,299922,5,8,3:1:0:0:
335,165,300000,1,8,0:0:0:0:
377,174,300078,1,8,0:0:0:0:
411,202,300156,1,8,0:0:0:0:
429,242,300235,6,0,P|471:244|487:239,1,44.0000013427735,8|8,3:1|0:0,0:0:0:0:
355,77,300391,2,0,P|313:75|297:80,1,44.0000013427735,8|8,0:0|0:0,0:0:0:0:
239,229,300547,2,0,P|197:230|181:225,1,44.0000013427735,8|8,0:0|0:0,0:0:0:0:
52,120,300703,6,0,P|8:162|28:262,1,160,6|0,3:1|3:0,0:0:0:0:
140,352,301172,1,10,0:0:0:0:
239,229,301328,1,0,0:0:0:0:
80,200,301485,1,2,3:2:0:0:
260,304,301641,5,0,3:0:0:0:
260,304,301719,1,0,3:0:0:0:
260,304,301797,2,0,P|300:288|320:256,1,80,10|4,0:0|3:2,0:0:0:0:
248,112,302110,1,2,0:0:0:0:
404,76,302266,1,2,3:0:0:0:
232,196,302422,2,0,P|196:180|160:112,1,120,10|0,0:0|0:0,0:0:0:0:
160,72,302735,2,0,P|120:72|80:88,1,80,2|0,3:2|3:0,0:0:0:0:
72,232,303047,1,10,0:0:0:0:
248,112,303203,6,0,P|296:76|396:92,1,160,6|2,3:2|3:2,0:0:0:0:
432,108,303594,1,2,3:0:0:0:
432,108,303672,1,10,0:0:0:0:
512,240,303828,1,0,0:0:0:0:
376,224,303985,2,0,P|344:196|336:160,1,80,0|0,3:0|3:0,0:0:0:0:
192,52,304297,1,8,0:0:0:0:
72,196,304453,6,0,B|124:204|124:204|148:228|148:228|224:240,1,160,6|0,3:2|3:0,0:0:0:0:
56,384,304922,2,0,P|92:340|88:280,1,120,8|0,0:0|0:0,0:0:0:0:
16,316,305235,1,10,0:0:0:0:
52,124,305391,1,0,3:0:0:0:
52,124,305469,1,0,3:0:0:0:
52,124,305547,1,8,0:0:0:0:
200,260,305703,6,0,P|268:224|352:244,1,160,6|0,3:2|3:0,0:0:0:0:
492,332,306172,1,10,0:0:0:0:
484,160,306328,1,0,3:0:0:0:
484,160,306406,1,0,3:0:0:0:
484,160,306485,1,2,3:2:0:0:
346,240,306641,1,0,3:0:0:0:
316,52,306797,6,0,P|356:72|376:100,1,80,10|4,0:0|3:2,0:0:0:0:
432,268,307110,1,2,0:0:0:0:
264,208,307266,1,2,3:0:0:0:
372,328,307422,2,0,P|416:352|488:332,1,120,10|0,0:0|0:0,0:0:0:0:
508,300,307735,1,2,3:2:0:0:
404,152,307891,1,0,3:0:0:0:
404,152,307969,1,0,3:0:0:0:
404,152,308047,1,10,0:0:0:0:
248,292,308203,6,0,B|204:272|172:288|172:288|148:328|100:312,1,160,6|2,3:2|3:0,0:0:0:0:
56,304,308594,1,2,3:0:0:0:
56,304,308672,1,10,0:0:0:0:
96,136,308828,1,0,0:0:0:0:
0,208,308985,2,0,P|40:224|76:216,1,80,2|0,3:2|3:0,0:0:0:0:
176,76,309297,1,8,0:0:0:0:
252,252,309453,6,0,B|312:208|336:256|400:192,1,160,6|0,3:2|3:0,0:0:0:0:
312,320,309922,1,14,0:0:0:0:
332,136,310078,1,0,0:0:0:0:
476,272,310235,1,10,0:0:0:0:
496,237,310313,1,8,0:0:0:0:
506,199,310391,1,8,0:3:0:0:
506,159,310469,1,8,0:3:0:0:
496,120,310547,1,4,0:3:0:0:
476,86,310625,1,4,0:3:0:0:
447,58,310703,6,0,P|400:52|332:80,1,120,6|0,3:2|0:0,0:0:0:0:
404,132,311016,1,2,3:2:0:0:
232,20,311172,1,10,0:0:0:0:
152,208,311328,1,0,3:0:0:0:
152,208,311406,1,0,3:0:0:0:
152,208,311485,1,10,0:0:0:0:
334,78,311641,1,0,3:0:0:0:
92,24,311797,1,8,0:0:0:0:
128,292,311953,2,0,B|176:300|176:300|192:316|192:316|240:320,1,120,6|0,3:2|0:0,0:0:0:0:
320,324,312266,5,10,0:0:0:0:
320,324,312344,1,8,0:0:0:0:
320,324,312422,2,0,P|336:328|360:328,1,40,8|8,0:0|0:0,0:0:0:0:
472,216,312578,2,0,P|456:212|432:212,1,40,2|0,3:0|3:0,0:0:0:0:
288,188,312735,5,8,3:0:0:0:
249,179,312813,1,8,3:0:0:0:
213,161,312891,1,0,3:0:0:0:
182,136,312969,1,0,3:0:0:0:
157,105,313047,1,8,0:0:0:0:
140,68,313125,1,8,0:0:0:0:
132,29,313203,1,6,3:2:0:0:
