osu file format v14

[General]
AudioFilename: 02.TWiNKLE CiRCLE.mp3
AudioLeadIn: 0
PreviewTime: 65182
Countdown: 0
SampleSet: Soft
StackLeniency: 0.3
Mode: 3
LetterboxInBreaks: 0
SpecialStyle: 0
WidescreenStoryboard: 1

[Editor]
DistanceSpacing: 1.2
BeatDivisor: 2
GridSize: 4
TimelineZoom: 1.000006

[Metadata]
Title:TWiNKLE CiRCLE
TitleUnicode:TWiNKLE CiRCLE
Artist:Aimi, Sakura Ayane, Maeshima Ami, Aiba Aina, Itou Miku
ArtistUnicode:愛美、 佐倉綾音、 前島亜美、 相羽あいな、 伊藤美来
Creator:Ainer
Version:SYRiON'S NORMAL
Source:バンドリ! ガールズバンドパーティ!
Tags:Ilham Syrion- Noch Einen Slowpoke104 pastel palettes pastel*palettes pastel✽palettes パスパレ pasupare パステル パレット afterglow アフターグロウ poppin'party ポッピン パーティー popipa ポピパ roselia ロゼリア hello happy world! ハロー、ハッピーワールド!harohapi ハロハピ 3rd third anniversary toyama kasumi 戸山香澄 ran mitake 美竹蘭 kokoro tsurumaki 弦巻こころ aya maruyama 丸山彩 minato yukina 湊友希那 short game version female vocals anime video game japanese jpop j-pop pop idols bandori garupa pico bang dream! girls band party gbp! special band 大盛り一丁!ガルパ☆ピコ ohmori icchou! videogame Oda Asuka 織田あすか Kikuta Daisuke 菊田大介
BeatmapID:4223392
BeatmapSetID:2026897

[Difficulty]
HPDrainRate:7
CircleSize:7
OverallDifficulty:7
ApproachRate:9.4
SliderMultiplier:1.6
SliderTickRate:1

[Events]
//Background and Video events
0,0,"BG.jpg",0,0
//Break Periods
//Storyboard Layer 0 (Background)
//Storyboard Layer 1 (Fail)
//Storyboard Layer 2 (Pass)
//Storyboard Layer 3 (Foreground)
//Storyboard Layer 4 (Overlay)
//Storyboard Sound Samples

[TimingPoints]
2526,312.5,4,2,1,60,1,0
63932,-100,4,2,1,60,0,1
65026,-100,4,2,1,60,0,0
66119,-100,4,2,1,60,0,1
85651,-100,4,2,1,60,0,0
86119,-100,4,2,1,60,0,1
107994,-100,4,2,1,60,0,0

[Colours]
Combo1 : 255,128,255
Combo2 : 255,255,128
Combo3 : 255,128,128
Combo4 : 213,170,170
Combo5 : 170,170,213
Combo6 : 191,128,255
SliderBorder : 51,153,255
SliderTrackOverride : 255,153,204

[HitObjects]
329,192,2369,5,0,0:0:0:0:
182,192,2369,1,0,0:0:0:0:
36,192,2369,1,0,0:0:0:0:
109,192,2838,1,0,0:0:0:0:
402,192,2838,1,0,0:0:0:0:
329,192,3151,1,0,0:0:0:0:
475,192,3151,1,0,0:0:0:0:
256,192,3463,1,0,0:0:0:0:
36,192,3463,1,0,0:0:0:0:
402,192,3776,1,0,0:0:0:0:
182,192,3776,1,0,0:0:0:0:
109,192,4088,1,0,0:0:0:0:
329,192,4088,1,0,0:0:0:0:
475,192,4401,1,0,0:0:0:0:
256,192,4401,1,0,0:0:0:0:
36,192,4713,1,0,0:0:0:0:
182,192,4713,1,0,0:0:0:0:
329,192,5026,1,0,0:0:0:0:
475,192,5026,1,0,0:0:0:0:
36,192,5338,1,0,0:0:0:0:
182,192,5338,1,0,0:0:0:0:
256,192,5494,1,0,0:0:0:0:
109,192,5651,1,0,0:0:0:0:
329,192,5651,1,0,0:0:0:0:
182,192,5963,1,0,0:0:0:0:
475,192,5963,1,0,0:0:0:0:
109,192,6119,1,0,0:0:0:0:
36,192,6276,1,0,0:0:0:0:
256,192,6276,1,0,0:0:0:0:
475,192,6588,1,0,0:0:0:0:
329,192,6588,1,0,0:0:0:0:
182,192,6901,1,0,0:0:0:0:
36,192,6901,1,0,0:0:0:0:
329,192,7057,1,0,0:0:0:0:
475,192,7057,1,0,0:0:0:0:
256,192,7213,1,0,0:0:0:0:
182,192,7369,1,0,0:0:0:0:
36,192,7369,1,0,0:0:0:0:
402,192,7369,1,0,0:0:0:0:
475,192,7838,1,0,0:0:0:0:
329,192,7838,1,0,0:0:0:0:
402,192,8151,1,0,0:0:0:0:
109,192,8151,1,0,0:0:0:0:
329,192,8307,1,0,0:0:0:0:
36,192,8463,1,0,0:0:0:0:
256,192,8463,1,0,0:0:0:0:
182,192,8776,1,0,0:0:0:0:
402,192,8776,1,0,0:0:0:0:
329,192,9088,1,0,0:0:0:0:
109,192,9088,1,0,0:0:0:0:
36,192,9401,1,0,0:0:0:0:
256,192,9401,1,0,0:0:0:0:
329,192,9557,1,0,0:0:0:0:
402,192,9713,1,0,0:0:0:0:
475,192,9713,1,0,0:0:0:0:
109,192,10026,1,0,0:0:0:0:
256,192,10182,1,0,0:0:0:0:
402,192,10182,1,0,0:0:0:0:
36,192,10338,1,0,0:0:0:0:
182,192,10494,1,0,0:0:0:0:
329,192,10651,1,0,0:0:0:0:
182,192,10807,1,0,0:0:0:0:
329,192,10963,1,0,0:0:0:0:
36,192,11119,1,0,0:0:0:0:
109,192,11119,1,0,0:0:0:0:
256,192,11119,1,0,0:0:0:0:
475,192,11276,1,0,0:0:0:0:
402,192,11588,1,0,0:0:0:0:
329,192,11901,1,0,0:0:0:0:
256,192,12213,1,0,0:0:0:0:
182,192,12526,1,0,0:0:0:0:
475,192,12526,1,0,0:0:0:0:
402,192,12682,1,0,0:0:0:0:
256,192,12760,1,0,0:0:0:0:
109,192,12838,1,0,0:0:0:0:
36,192,12838,1,0,0:0:0:0:
329,192,12994,1,0,0:0:0:0:
475,192,12994,1,0,0:0:0:0:
329,192,13307,1,0,0:0:0:0:
475,192,13307,1,0,0:0:0:0:
402,192,13619,1,0,0:0:0:0:
256,192,13619,1,0,0:0:0:0:
109,192,13619,1,0,0:0:0:0:
182,192,13932,1,0,0:0:0:0:
329,192,14088,1,0,0:0:0:0:
475,192,14088,1,0,0:0:0:0:
402,192,14401,1,0,0:0:0:0:
256,192,14557,1,0,0:0:0:0:
36,192,14713,1,0,0:0:0:0:
109,192,14713,1,0,0:0:0:0:
329,192,14869,1,0,0:0:0:0:
256,192,15182,1,0,0:0:0:0:
109,192,15338,1,0,0:0:0:0:
402,192,15338,1,0,0:0:0:0:
36,192,15651,1,0,0:0:0:0:
182,192,15807,1,0,0:0:0:0:
329,192,15963,1,0,0:0:0:0:
475,192,15963,1,0,0:0:0:0:
109,192,16119,1,0,0:0:0:0:
256,192,16432,1,0,0:0:0:0:
402,192,16588,1,0,0:0:0:0:
182,192,16588,1,0,0:0:0:0:
329,192,16901,1,0,0:0:0:0:
256,192,17057,1,0,0:0:0:0:
182,192,17213,1,0,0:0:0:0:
36,192,17213,1,0,0:0:0:0:
329,192,17369,1,0,0:0:0:0:
402,192,17682,1,0,0:0:0:0:
182,192,17838,1,0,0:0:0:0:
36,192,17838,1,0,0:0:0:0:
256,192,17994,1,0,0:0:0:0:
402,192,18151,1,0,0:0:0:0:
475,192,18151,1,0,0:0:0:0:
256,192,18307,1,0,0:0:0:0:
109,192,18463,1,0,0:0:0:0:
36,192,18463,1,0,0:0:0:0:
329,192,18619,1,0,0:0:0:0:
182,192,18619,1,0,0:0:0:0:
475,192,18619,1,0,0:0:0:0:
329,192,18932,1,0,0:0:0:0:
36,192,19088,1,0,0:0:0:0:
182,192,19088,1,0,0:0:0:0:
256,192,19401,1,0,0:0:0:0:
329,192,19557,1,0,0:0:0:0:
402,192,19713,1,0,0:0:0:0:
475,192,19713,1,0,0:0:0:0:
109,192,19869,1,0,0:0:0:0:
256,192,20182,1,0,0:0:0:0:
329,192,20338,1,0,0:0:0:0:
475,192,20338,1,0,0:0:0:0:
256,192,20651,1,0,0:0:0:0:
182,192,20807,1,0,0:0:0:0:
109,192,20963,1,0,0:0:0:0:
36,192,20963,1,0,0:0:0:0:
402,192,21119,1,0,0:0:0:0:
256,192,21432,1,0,0:0:0:0:
109,192,21588,1,0,0:0:0:0:
182,192,21588,1,0,0:0:0:0:
256,192,21901,1,0,0:0:0:0:
402,192,22057,1,0,0:0:0:0:
182,192,22213,1,0,0:0:0:0:
36,192,22213,1,0,0:0:0:0:
329,192,22369,1,0,0:0:0:0:
109,192,22682,1,0,0:0:0:0:
256,192,22838,1,0,0:0:0:0:
475,192,22838,1,0,0:0:0:0:
36,192,22994,1,0,0:0:0:0:
329,192,23151,1,0,0:0:0:0:
256,192,23229,1,0,0:0:0:0:
182,192,23307,1,0,0:0:0:0:
109,192,23385,1,0,0:0:0:0:
36,192,23463,1,0,0:0:0:0:
329,192,23619,1,0,0:0:0:0:
182,192,23619,1,0,0:0:0:0:
475,192,23619,1,0,0:0:0:0:
402,192,23932,1,0,0:0:0:0:
329,192,24088,1,0,0:0:0:0:
182,192,24088,1,0,0:0:0:0:
109,192,24244,1,0,0:0:0:0:
36,192,24401,1,0,0:0:0:0:
475,192,24401,1,0,0:0:0:0:
402,192,24557,1,0,0:0:0:0:
329,192,24713,1,0,0:0:0:0:
36,192,24869,1,0,0:0:0:0:
475,192,24869,1,0,0:0:0:0:
256,192,24869,1,0,0:0:0:0:
182,192,25182,1,0,0:0:0:0:
256,192,25338,1,0,0:0:0:0:
402,192,25338,1,0,0:0:0:0:
109,192,25651,1,0,0:0:0:0:
182,192,25729,1,0,0:0:0:0:
256,192,25807,1,0,0:0:0:0:
329,192,25885,1,0,0:0:0:0:
402,192,25963,1,0,0:0:0:0:
182,192,26119,1,0,0:0:0:0:
36,192,26119,1,0,0:0:0:0:
109,192,26119,1,0,0:0:0:0:
329,192,26432,1,0,0:0:0:0:
402,192,26588,1,0,0:0:0:0:
182,192,26588,1,0,0:0:0:0:
256,192,26901,1,0,0:0:0:0:
182,192,27057,1,0,0:0:0:0:
109,192,27213,1,0,0:0:0:0:
402,192,27213,1,0,0:0:0:0:
475,192,27369,1,0,0:0:0:0:
256,192,27682,1,0,0:0:0:0:
36,192,27838,1,0,0:0:0:0:
182,192,27838,1,0,0:0:0:0:
256,192,28151,1,0,0:0:0:0:
329,192,28307,1,0,0:0:0:0:
402,192,28463,1,0,0:0:0:0:
109,192,28463,1,0,0:0:0:0:
36,192,28619,1,0,0:0:0:0:
256,192,28932,1,0,0:0:0:0:
329,192,29088,1,0,0:0:0:0:
475,192,29088,1,0,0:0:0:0:
182,192,29401,1,0,0:0:0:0:
256,192,29557,1,0,0:0:0:0:
329,192,29713,1,0,0:0:0:0:
475,192,29713,1,0,0:0:0:0:
109,192,29869,1,0,0:0:0:0:
256,192,30182,1,0,0:0:0:0:
402,192,30338,1,0,0:0:0:0:
109,192,30338,1,0,0:0:0:0:
329,192,30651,1,0,0:0:0:0:
256,192,30807,1,0,0:0:0:0:
182,192,30963,1,0,0:0:0:0:
36,192,30963,1,0,0:0:0:0:
329,192,31276,1,0,0:0:0:0:
475,192,31276,1,0,0:0:0:0:
402,192,31276,1,0,0:0:0:0:
109,192,31588,1,0,0:0:0:0:
256,192,31588,1,0,0:0:0:0:
475,192,31901,1,0,0:0:0:0:
402,192,32057,1,0,0:0:0:0:
329,192,32213,1,0,0:0:0:0:
182,192,32213,1,0,0:0:0:0:
109,192,32369,1,0,0:0:0:0:
256,192,32682,1,0,0:0:0:0:
329,192,32838,1,0,0:0:0:0:
402,192,32838,1,0,0:0:0:0:
36,192,33151,1,0,0:0:0:0:
109,192,33307,1,0,0:0:0:0:
182,192,33463,1,0,0:0:0:0:
256,192,33463,1,0,0:0:0:0:
475,192,33776,1,0,0:0:0:0:
402,192,33932,1,0,0:0:0:0:
329,192,34088,1,0,0:0:0:0:
182,192,34088,1,0,0:0:0:0:
109,192,34244,1,0,0:0:0:0:
402,192,34244,1,0,0:0:0:0:
109,192,34557,1,0,0:0:0:0:
402,192,34557,1,0,0:0:0:0:
36,192,34713,1,0,0:0:0:0:
475,192,34713,1,0,0:0:0:0:
182,192,34869,1,0,0:0:0:0:
329,192,34869,1,0,0:0:0:0:
402,192,35182,1,0,0:0:0:0:
182,192,35338,1,0,0:0:0:0:
329,192,35338,1,0,0:0:0:0:
109,192,35494,1,0,0:0:0:0:
36,192,35651,1,0,0:0:0:0:
475,192,35651,1,0,0:0:0:0:
402,192,35807,1,0,0:0:0:0:
329,192,35963,1,0,0:0:0:0:
36,192,36119,1,0,0:0:0:0:
475,192,36119,1,0,0:0:0:0:
256,192,36119,1,0,0:0:0:0:
182,192,36432,1,0,0:0:0:0:
109,192,36588,1,0,0:0:0:0:
329,192,36588,1,0,0:0:0:0:
256,192,36901,1,0,0:0:0:0:
182,192,37057,1,0,0:0:0:0:
109,192,37213,1,0,0:0:0:0:
36,192,37213,1,0,0:0:0:0:
402,192,37369,1,0,0:0:0:0:
329,192,37682,1,0,0:0:0:0:
36,192,37838,1,0,0:0:0:0:
182,192,37838,1,0,0:0:0:0:
256,192,38151,1,0,0:0:0:0:
329,192,38307,1,0,0:0:0:0:
402,192,38463,1,0,0:0:0:0:
475,192,38463,1,0,0:0:0:0:
109,192,38619,1,0,0:0:0:0:
256,192,38932,1,0,0:0:0:0:
329,192,39088,1,0,0:0:0:0:
402,192,39088,1,0,0:0:0:0:
256,192,39401,1,0,0:0:0:0:
182,192,39557,1,0,0:0:0:0:
36,192,39713,1,0,0:0:0:0:
109,192,39713,1,0,0:0:0:0:
329,192,39869,1,0,0:0:0:0:
256,192,40182,1,0,0:0:0:0:
402,192,40338,1,0,0:0:0:0:
109,192,40338,1,0,0:0:0:0:
329,192,40494,1,0,0:0:0:0:
182,192,40807,1,0,0:0:0:0:
329,192,40963,1,0,0:0:0:0:
475,192,40963,1,0,0:0:0:0:
36,192,41276,1,0,0:0:0:0:
109,192,41276,1,0,0:0:0:0:
256,192,41276,1,0,0:0:0:0:
329,192,41588,1,0,0:0:0:0:
402,192,41588,1,0,0:0:0:0:
182,192,41901,1,0,0:0:0:0:
256,192,42057,1,0,0:0:0:0:
36,192,42213,1,0,0:0:0:0:
109,192,42213,1,0,0:0:0:0:
329,192,42526,1,0,0:0:0:0:
256,192,42682,1,0,0:0:0:0:
475,192,42838,1,0,0:0:0:0:
402,192,42838,1,0,0:0:0:0:
182,192,42994,1,0,0:0:0:0:
329,192,43307,1,0,0:0:0:0:
182,192,43463,1,0,0:0:0:0:
36,192,43463,1,0,0:0:0:0:
329,192,43776,1,0,0:0:0:0:
475,192,43776,1,0,0:0:0:0:
256,192,43932,1,0,0:0:0:0:
182,192,44088,1,0,0:0:0:0:
109,192,44088,1,0,0:0:0:0:
329,192,44244,1,0,0:0:0:0:
402,192,44244,1,0,0:0:0:0:
329,192,44557,1,0,0:0:0:0:
402,192,44557,1,0,0:0:0:0:
256,192,44713,1,0,0:0:0:0:
182,192,44869,1,0,0:0:0:0:
36,192,44869,1,0,0:0:0:0:
475,192,44869,1,0,0:0:0:0:
329,192,45182,1,0,0:0:0:0:
256,192,45260,1,0,0:0:0:0:
182,192,45338,1,0,0:0:0:0:
109,192,45416,1,0,0:0:0:0:
36,192,45494,1,0,0:0:0:0:
329,192,45651,1,0,0:0:0:0:
402,192,45729,1,0,0:0:0:0:
475,192,45807,1,0,0:0:0:0:
109,192,45963,1,0,0:0:0:0:
182,192,45963,1,0,0:0:0:0:
475,192,46276,1,0,0:0:0:0:
402,192,46276,1,0,0:0:0:0:
256,192,46276,1,0,0:0:0:0:
329,192,46588,1,0,0:0:0:0:
182,192,46588,1,0,0:0:0:0:
109,192,46744,1,0,0:0:0:0:
36,192,46901,1,0,0:0:0:0:
475,192,46901,1,0,0:0:0:0:
402,192,47057,1,0,0:0:0:0:
329,192,47213,1,0,0:0:0:0:
182,192,47213,1,0,0:0:0:0:
109,192,47369,1,0,0:0:0:0:
36,192,47526,1,0,0:0:0:0:
475,192,47526,1,0,0:0:0:0:
256,192,47682,1,0,0:0:0:0:
402,192,47838,1,0,0:0:0:0:
182,192,47838,1,0,0:0:0:0:
109,192,47994,1,0,0:0:0:0:
475,192,48151,1,0,0:0:0:0:
36,192,48151,1,0,0:0:0:0:
182,192,48307,1,0,0:0:0:0:
329,192,48307,1,0,0:0:0:0:
36,192,48619,1,0,0:0:0:0:
402,192,48619,1,0,0:0:0:0:
256,192,48619,1,0,0:0:0:0:
182,192,48932,1,0,0:0:0:0:
475,192,49088,1,0,0:0:0:0:
329,192,49088,1,0,0:0:0:0:
109,192,49244,1,0,0:0:0:0:
182,192,49401,1,0,0:0:0:0:
402,192,49401,1,0,0:0:0:0:
256,192,49557,1,0,0:0:0:0:
36,192,49713,1,0,0:0:0:0:
329,192,49713,1,0,0:0:0:0:
256,192,49869,1,0,0:0:0:0:
182,192,50026,1,0,0:0:0:0:
475,192,50026,1,0,0:0:0:0:
402,192,50182,1,0,0:0:0:0:
36,192,50338,1,0,0:0:0:0:
109,192,50416,1,0,0:0:0:0:
182,192,50494,1,0,0:0:0:0:
475,192,50651,1,0,0:0:0:0:
329,192,50651,1,0,0:0:0:0:
109,192,50807,1,0,0:0:0:0:
256,192,50807,1,0,0:0:0:0:
402,192,51119,1,0,0:0:0:0:
329,192,51119,1,0,0:0:0:0:
182,192,51119,1,0,0:0:0:0:
109,192,51432,1,0,0:0:0:0:
475,192,51588,1,0,0:0:0:0:
182,192,51588,1,0,0:0:0:0:
256,192,51744,1,0,0:0:0:0:
329,192,51901,1,0,0:0:0:0:
109,192,51901,1,0,0:0:0:0:
402,192,52057,1,0,0:0:0:0:
256,192,52213,1,0,0:0:0:0:
475,192,52213,1,0,0:0:0:0:
36,192,52369,1,0,0:0:0:0:
182,192,52447,1,0,0:0:0:0:
329,192,52526,1,0,0:0:0:0:
402,192,52526,1,0,0:0:0:0:
256,192,52838,1,0,0:0:0:0:
109,192,52838,1,0,0:0:0:0:
329,192,53151,1,0,0:0:0:0:
475,192,53151,1,0,0:0:0:0:
36,192,53307,1,0,0:0:0:0:
182,192,53307,1,0,0:0:0:0:
109,192,53619,1,0,0:0:0:0:
402,192,53619,1,0,0:0:0:0:
256,192,53619,1,0,0:0:0:0:
329,192,53932,1,0,0:0:0:0:
256,192,54088,1,0,0:0:0:0:
475,192,54088,1,0,0:0:0:0:
182,192,54244,1,0,0:0:0:0:
109,192,54401,1,0,0:0:0:0:
402,192,54401,1,0,0:0:0:0:
36,192,54557,1,0,0:0:0:0:
329,192,54713,1,0,0:0:0:0:
182,192,54713,1,0,0:0:0:0:
109,192,55026,1,0,0:0:0:0:
402,192,55026,1,0,0:0:0:0:
182,192,55338,1,0,0:0:0:0:
329,192,55416,1,0,0:0:0:0:
475,192,55494,1,0,0:0:0:0:
109,192,55651,1,0,0:0:0:0:
256,192,55729,1,0,0:0:0:0:
402,192,55807,1,0,0:0:0:0:
36,192,55963,1,0,0:0:0:0:
182,192,56041,1,0,0:0:0:0:
329,192,56119,1,0,0:0:0:0:
475,192,56119,1,0,0:0:0:0:
256,192,56432,1,0,0:0:0:0:
36,192,56588,1,0,0:0:0:0:
182,192,56588,1,0,0:0:0:0:
475,192,56901,1,0,0:0:0:0:
402,192,57057,1,0,0:0:0:0:
329,192,57213,1,0,0:0:0:0:
109,192,57213,1,0,0:0:0:0:
182,192,57369,1,0,0:0:0:0:
256,192,57682,1,0,0:0:0:0:
329,192,57838,1,0,0:0:0:0:
475,192,57838,1,0,0:0:0:0:
182,192,58151,1,0,0:0:0:0:
109,192,58307,1,0,0:0:0:0:
36,192,58463,1,0,0:0:0:0:
402,192,58463,1,0,0:0:0:0:
329,192,58619,1,0,0:0:0:0:
256,192,58932,1,0,0:0:0:0:
329,192,59088,1,0,0:0:0:0:
475,192,59088,1,0,0:0:0:0:
109,192,59401,1,0,0:0:0:0:
182,192,59557,1,0,0:0:0:0:
256,192,59713,1,0,0:0:0:0:
402,192,59713,1,0,0:0:0:0:
475,192,59869,1,0,0:0:0:0:
182,192,60182,1,0,0:0:0:0:
36,192,60338,1,0,0:0:0:0:
256,192,60338,1,0,0:0:0:0:
329,192,60651,1,0,0:0:0:0:
256,192,60807,1,0,0:0:0:0:
182,192,60963,1,0,0:0:0:0:
109,192,60963,1,0,0:0:0:0:
475,192,60963,1,0,0:0:0:0:
329,192,61276,1,0,0:0:0:0:
402,192,61276,1,0,0:0:0:0:
182,192,61588,1,0,0:0:0:0:
36,192,61588,1,0,0:0:0:0:
475,192,61901,1,0,0:0:0:0:
402,192,62057,1,0,0:0:0:0:
329,192,62213,1,0,0:0:0:0:
182,192,62369,1,0,0:0:0:0:
109,192,62369,1,0,0:0:0:0:
36,192,62369,1,0,0:0:0:0:
256,192,62682,1,0,0:0:0:0:
329,192,62838,1,0,0:0:0:0:
475,192,62838,1,0,0:0:0:0:
109,192,63151,1,0,0:0:0:0:
256,192,63307,1,0,0:0:0:0:
402,192,63463,1,0,0:0:0:0:
36,192,63619,1,0,0:0:0:0:
109,192,63619,1,0,0:0:0:0:
182,192,63619,1,0,0:0:0:0:
329,192,63932,1,0,0:0:0:0:
402,192,63932,1,0,0:0:0:0:
109,192,64088,1,0,0:0:0:0:
182,192,64088,1,0,0:0:0:0:
36,192,64401,1,0,0:0:0:0:
475,192,64401,1,0,0:0:0:0:
36,192,64713,1,0,0:0:0:0:
475,192,64713,1,0,0:0:0:0:
109,192,64869,1,0,0:0:0:0:
402,192,64869,1,0,0:0:0:0:
256,192,64869,1,0,0:0:0:0:
329,192,65338,1,0,0:0:0:0:
182,192,65651,1,0,0:0:0:0:
182,192,65963,1,0,0:0:0:0:
475,192,66119,1,0,0:0:0:0:
36,192,66119,1,0,0:0:0:0:
329,192,66119,1,0,0:0:0:0:
256,192,66432,1,0,0:0:0:0:
109,192,66588,1,0,0:0:0:0:
36,192,66588,1,0,0:0:0:0:
182,192,66901,1,0,0:0:0:0:
256,192,67057,1,0,0:0:0:0:
329,192,67213,1,0,0:0:0:0:
475,192,67213,1,0,0:0:0:0:
109,192,67369,1,0,0:0:0:0:
329,192,67682,1,0,0:0:0:0:
256,192,67838,1,0,0:0:0:0:
109,192,67838,1,0,0:0:0:0:
475,192,68151,1,0,0:0:0:0:
329,192,68307,1,0,0:0:0:0:
182,192,68463,1,0,0:0:0:0:
475,192,68619,1,0,0:0:0:0:
402,192,68619,1,0,0:0:0:0:
36,192,68619,1,0,0:0:0:0:
109,192,68932,1,0,0:0:0:0:
256,192,69088,1,0,0:0:0:0:
402,192,69088,1,0,0:0:0:0:
329,192,69401,1,0,0:0:0:0:
256,192,69557,1,0,0:0:0:0:
182,192,69713,1,0,0:0:0:0:
36,192,69713,1,0,0:0:0:0:
402,192,69869,1,0,0:0:0:0:
402,192,70182,1,0,0:0:0:0:
329,192,70338,1,0,0:0:0:0:
109,192,70338,1,0,0:0:0:0:
182,192,70651,1,0,0:0:0:0:
256,192,70807,1,0,0:0:0:0:
329,192,70963,1,0,0:0:0:0:
36,192,71119,1,0,0:0:0:0:
109,192,71119,1,0,0:0:0:0:
402,192,71119,1,0,0:0:0:0:
182,192,71432,1,0,0:0:0:0:
329,192,71588,1,0,0:0:0:0:
475,192,71588,1,0,0:0:0:0:
256,192,71901,1,0,0:0:0:0:
182,192,72057,1,0,0:0:0:0:
109,192,72213,1,0,0:0:0:0:
36,192,72213,1,0,0:0:0:0:
256,192,72526,1,0,0:0:0:0:
329,192,72682,1,0,0:0:0:0:
402,192,72838,1,0,0:0:0:0:
475,192,72838,1,0,0:0:0:0:
256,192,73151,1,0,0:0:0:0:
109,192,73307,1,0,0:0:0:0:
329,192,73463,1,0,0:0:0:0:
182,192,73619,1,0,0:0:0:0:
36,192,73619,1,0,0:0:0:0:
475,192,73619,1,0,0:0:0:0:
329,192,73932,1,0,0:0:0:0:
109,192,74088,1,0,0:0:0:0:
475,192,74088,1,0,0:0:0:0:
256,192,74401,1,0,0:0:0:0:
182,192,74557,1,0,0:0:0:0:
109,192,74713,1,0,0:0:0:0:
256,192,74869,1,0,0:0:0:0:
402,192,74869,1,0,0:0:0:0:
36,192,74869,1,0,0:0:0:0:
329,192,75182,1,0,0:0:0:0:
182,192,75182,1,0,0:0:0:0:
36,192,75338,1,0,0:0:0:0:
475,192,75338,1,0,0:0:0:0:
256,192,75494,1,0,0:0:0:0:
182,192,75651,1,0,0:0:0:0:
329,192,75651,1,0,0:0:0:0:
402,192,75807,1,0,0:0:0:0:
36,192,75963,1,0,0:0:0:0:
182,192,76119,1,0,0:0:0:0:
329,192,76119,1,0,0:0:0:0:
475,192,76119,1,0,0:0:0:0:
256,192,76432,1,0,0:0:0:0:
109,192,76588,1,0,0:0:0:0:
402,192,76588,1,0,0:0:0:0:
329,192,76901,1,0,0:0:0:0:
256,192,77057,1,0,0:0:0:0:
182,192,77213,1,0,0:0:0:0:
36,192,77213,1,0,0:0:0:0:
402,192,77369,1,0,0:0:0:0:
109,192,77682,1,0,0:0:0:0:
182,192,77838,1,0,0:0:0:0:
329,192,77838,1,0,0:0:0:0:
256,192,78151,1,0,0:0:0:0:
329,192,78307,1,0,0:0:0:0:
402,192,78463,1,0,0:0:0:0:
475,192,78463,1,0,0:0:0:0:
182,192,78619,1,0,0:0:0:0:
256,192,78932,1,0,0:0:0:0:
109,192,79088,1,0,0:0:0:0:
402,192,79088,1,0,0:0:0:0:
329,192,79401,1,0,0:0:0:0:
256,192,79557,1,0,0:0:0:0:
182,192,79713,1,0,0:0:0:0:
36,192,79713,1,0,0:0:0:0:
329,192,79869,1,0,0:0:0:0:
109,192,80182,1,0,0:0:0:0:
402,192,80338,1,0,0:0:0:0:
256,192,80338,1,0,0:0:0:0:
109,192,80651,1,0,0:0:0:0:
182,192,80807,1,0,0:0:0:0:
475,192,80963,1,0,0:0:0:0:
256,192,80963,1,0,0:0:0:0:
36,192,81276,1,0,0:0:0:0:
182,192,81276,1,0,0:0:0:0:
402,192,81276,1,0,0:0:0:0:
256,192,81432,1,0,0:0:0:0:
329,192,81588,1,0,0:0:0:0:
475,192,81588,1,0,0:0:0:0:
256,192,81901,1,0,0:0:0:0:
182,192,82057,1,0,0:0:0:0:
36,192,82213,1,0,0:0:0:0:
109,192,82213,1,0,0:0:0:0:
256,192,82526,1,0,0:0:0:0:
329,192,82526,1,0,0:0:0:0:
182,192,82682,1,0,0:0:0:0:
402,192,82838,1,0,0:0:0:0:
475,192,82838,1,0,0:0:0:0:
256,192,83151,1,0,0:0:0:0:
182,192,83307,1,0,0:0:0:0:
109,192,83463,1,0,0:0:0:0:
36,192,83463,1,0,0:0:0:0:
256,192,83776,1,0,0:0:0:0:
329,192,83776,1,0,0:0:0:0:
182,192,83776,1,0,0:0:0:0:
402,192,83932,1,0,0:0:0:0:
475,192,84088,1,0,0:0:0:0:
36,192,84088,1,0,0:0:0:0:
182,192,84401,1,0,0:0:0:0:
256,192,84557,1,0,0:0:0:0:
329,192,84713,1,0,0:0:0:0:
36,192,84713,1,0,0:0:0:0:
109,192,84869,1,0,0:0:0:0:
182,192,85026,1,0,0:0:0:0:
402,192,85026,1,0,0:0:0:0:
256,192,85182,1,0,0:0:0:0:
329,192,85338,1,0,0:0:0:0:
475,192,85338,1,0,0:0:0:0:
402,192,85651,1,0,0:0:0:0:
329,192,85729,1,0,0:0:0:0:
256,192,85807,1,0,0:0:0:0:
182,192,85885,1,0,0:0:0:0:
109,192,85963,1,0,0:0:0:0:
329,192,86119,1,0,0:0:0:0:
475,192,86119,1,0,0:0:0:0:
256,192,86432,1,0,0:0:0:0:
109,192,86588,1,0,0:0:0:0:
36,192,86588,1,0,0:0:0:0:
182,192,86901,1,0,0:0:0:0:
256,192,87057,1,0,0:0:0:0:
475,192,87213,1,0,0:0:0:0:
329,192,87213,1,0,0:0:0:0:
109,192,87369,1,0,0:0:0:0:
329,192,87682,1,0,0:0:0:0:
109,192,87838,1,0,0:0:0:0:
256,192,87838,1,0,0:0:0:0:
475,192,88151,1,0,0:0:0:0:
329,192,88307,1,0,0:0:0:0:
36,192,88463,1,0,0:0:0:0:
182,192,88463,1,0,0:0:0:0:
402,192,88619,1,0,0:0:0:0:
109,192,88932,1,0,0:0:0:0:
402,192,89088,1,0,0:0:0:0:
256,192,89088,1,0,0:0:0:0:
329,192,89401,1,0,0:0:0:0:
256,192,89557,1,0,0:0:0:0:
36,192,89713,1,0,0:0:0:0:
182,192,89713,1,0,0:0:0:0:
402,192,89869,1,0,0:0:0:0:
402,192,90182,1,0,0:0:0:0:
109,192,90338,1,0,0:0:0:0:
329,192,90338,1,0,0:0:0:0:
182,192,90651,1,0,0:0:0:0:
256,192,90807,1,0,0:0:0:0:
329,192,90963,1,0,0:0:0:0:
109,192,91119,1,0,0:0:0:0:
36,192,91119,1,0,0:0:0:0:
402,192,91119,1,0,0:0:0:0:
256,192,91432,1,0,0:0:0:0:
182,192,91588,1,0,0:0:0:0:
329,192,91588,1,0,0:0:0:0:
256,192,91901,1,0,0:0:0:0:
182,192,92057,1,0,0:0:0:0:
36,192,92213,1,0,0:0:0:0:
109,192,92213,1,0,0:0:0:0:
256,192,92526,1,0,0:0:0:0:
329,192,92682,1,0,0:0:0:0:
475,192,92838,1,0,0:0:0:0:
402,192,92838,1,0,0:0:0:0:
256,192,93151,1,0,0:0:0:0:
109,192,93307,1,0,0:0:0:0:
329,192,93463,1,0,0:0:0:0:
256,192,93619,1,0,0:0:0:0:
182,192,93619,1,0,0:0:0:0:
36,192,93619,1,0,0:0:0:0:
329,192,93932,1,0,0:0:0:0:
475,192,94088,1,0,0:0:0:0:
402,192,94088,1,0,0:0:0:0:
256,192,94401,1,0,0:0:0:0:
182,192,94557,1,0,0:0:0:0:
109,192,94713,1,0,0:0:0:0:
402,192,94869,1,0,0:0:0:0:
475,192,94869,1,0,0:0:0:0:
36,192,94869,1,0,0:0:0:0:
182,192,95182,1,0,0:0:0:0:
329,192,95182,1,0,0:0:0:0:
475,192,95338,1,0,0:0:0:0:
36,192,95338,1,0,0:0:0:0:
256,192,95494,1,0,0:0:0:0:
329,192,95651,1,0,0:0:0:0:
182,192,95651,1,0,0:0:0:0:
402,192,95807,1,0,0:0:0:0:
475,192,95963,1,0,0:0:0:0:
329,192,96119,1,0,0:0:0:0:
182,192,96119,1,0,0:0:0:0:
36,192,96119,1,0,0:0:0:0:
256,192,96432,1,0,0:0:0:0:
402,192,96588,1,0,0:0:0:0:
109,192,96588,1,0,0:0:0:0:
329,192,96901,1,0,0:0:0:0:
256,192,97057,1,0,0:0:0:0:
36,192,97213,1,0,0:0:0:0:
182,192,97213,1,0,0:0:0:0:
402,192,97369,1,0,0:0:0:0:
109,192,97682,1,0,0:0:0:0:
329,192,97838,1,0,0:0:0:0:
182,192,97838,1,0,0:0:0:0:
256,192,98151,1,0,0:0:0:0:
329,192,98307,1,0,0:0:0:0:
475,192,98463,1,0,0:0:0:0:
402,192,98463,1,0,0:0:0:0:
182,192,98619,1,0,0:0:0:0:
182,192,98932,1,0,0:0:0:0:
402,192,99088,1,0,0:0:0:0:
109,192,99088,1,0,0:0:0:0:
329,192,99244,1,0,0:0:0:0:
329,192,99557,1,0,0:0:0:0:
36,192,99713,1,0,0:0:0:0:
475,192,99713,1,0,0:0:0:0:
256,192,99869,1,0,0:0:0:0:
256,192,100182,1,0,0:0:0:0:
109,192,100338,1,0,0:0:0:0:
402,192,100338,1,0,0:0:0:0:
182,192,100651,1,0,0:0:0:0:
256,192,100807,1,0,0:0:0:0:
329,192,100963,1,0,0:0:0:0:
36,192,101119,1,0,0:0:0:0:
109,192,101119,1,0,0:0:0:0:
402,192,101119,1,0,0:0:0:0:
256,192,101432,1,0,0:0:0:0:
475,192,101588,1,0,0:0:0:0:
329,192,101588,1,0,0:0:0:0:
256,192,101901,1,0,0:0:0:0:
182,192,102057,1,0,0:0:0:0:
109,192,102213,1,0,0:0:0:0:
402,192,102369,1,0,0:0:0:0:
475,192,102369,1,0,0:0:0:0:
36,192,102369,1,0,0:0:0:0:
182,192,102682,1,0,0:0:0:0:
402,192,102838,1,0,0:0:0:0:
329,192,102838,1,0,0:0:0:0:
256,192,103151,1,0,0:0:0:0:
182,192,103307,1,0,0:0:0:0:
109,192,103463,1,0,0:0:0:0:
402,192,103619,1,0,0:0:0:0:
329,192,103619,1,0,0:0:0:0:
36,192,103619,1,0,0:0:0:0:
256,192,103932,1,0,0:0:0:0:
475,192,104088,1,0,0:0:0:0:
36,192,104088,1,0,0:0:0:0:
402,192,104244,1,0,0:0:0:0:
329,192,104401,1,0,0:0:0:0:
109,192,104401,1,0,0:0:0:0:
256,192,104557,1,0,0:0:0:0:
36,192,104713,1,0,0:0:0:0:
475,192,104713,1,0,0:0:0:0:
402,192,105026,1,0,0:0:0:0:
182,192,105026,1,0,0:0:0:0:
256,192,105182,1,0,0:0:0:0:
329,192,105338,1,0,0:0:0:0:
36,192,105338,1,0,0:0:0:0:
402,192,105494,1,0,0:0:0:0:
475,192,105651,1,0,0:0:0:0:
109,192,105651,1,0,0:0:0:0:
182,192,105807,1,0,0:0:0:0:
256,192,105963,1,0,0:0:0:0:
475,192,106119,1,0,0:0:0:0:
329,192,106119,1,0,0:0:0:0:
36,192,106119,1,0,0:0:0:0:
402,192,106432,1,0,0:0:0:0:
36,192,106588,1,0,0:0:0:0:
182,192,106588,1,0,0:0:0:0:
109,192,106588,1,0,0:0:0:0:
256,192,106901,1,0,0:0:0:0:
182,192,107213,1,0,0:0:0:0:
329,192,107213,1,0,0:0:0:0:
36,192,107526,1,0,0:0:0:0:
475,192,107526,1,0,0:0:0:0:
402,192,107682,1,0,0:0:0:0:
109,192,107682,1,0,0:0:0:0:
182,192,107994,128,0,108697:0:0:0:0:
329,192,107994,128,0,108697:0:0:0:0:
256,192,107994,1,0,0:0:0:0:
