osu file format v14

[General]
AudioFilename: audio.mp3
AudioLeadIn: 0
PreviewTime: 526
Countdown: 0
SampleSet: Soft
StackLeniency: 0.7
Mode: 2
LetterboxInBreaks: 0
WidescreenStoryboard: 1

[Editor]
Bookmarks: 6052,11105,16157,21210,25947
DistanceSpacing: 1.2
BeatDivisor: 8
GridSize: 4
TimelineZoom: 2.899999

[Metadata]
Title:Picotto! Papitto!! GARUPA * PICO!!! (TV Size)
TitleUnicode:ピコっと!パピっと!!ガルパ☆ピコ!!! (TV Size)
Artist:Aimi, Sakura Ayane, Maeshima Ami, Aiba Aina, Itou Miku
ArtistUnicode:愛美、 佐倉綾音、 前島亜美、 相羽あいな、 伊藤美来
Creator:Stardust Prism
Version:Salad
Source:BanG Dream! ガルパ☆ピコ
Tags:Bandori! Girls Band Party! Garupa pop anime original song Bandori project Girl Party Garupa! Hikawa Sayo Rozeria Kudō Haruka Kudo Kudou Kudoharu Kasumi x Ran x Aya x Yukina x Kokoro Toyama Mitake Miitake Maruyama Minato Tsurumaki garupico Poppin’Party Poppin'Party Poppin Party Popipa Afterglow Roselia Pastel*Palettes Pastel*Palettes Pastel Palletes Hello, Happy World! Hello World Japanese バンドリ! ガールズバンドパーティ! ガルパ ロゼリア 工藤晴香 氷川紗夜 香澄×蘭×彩×友希那×こころ 戸山香澄 Toyama 美竹蘭 丸山彩 湊友希那 弦巻こころ ハロー、ハッピーワールド!-aqua laplus- la+-
BeatmapID:3505287
BeatmapSetID:1715490

[Difficulty]
HPDrainRate:3
CircleSize:3
OverallDifficulty:7
ApproachRate:7
SliderMultiplier:1.3
SliderTickRate:1

[Events]
//Background and Video events
0,0,"mocabread.jpg",0,0
//Break Periods
//Storyboard Layer 0 (Background)
//Storyboard Layer 1 (Fail)
//Storyboard Layer 2 (Pass)
//Storyboard Layer 3 (Foreground)
//Storyboard Layer 4 (Overlay)
//Storyboard Sound Samples

[TimingPoints]
1000,315.789473684211,4,2,1,80,1,0
5421,-100,4,2,2,80,0,0
5500,-100,4,2,2,80,0,0
5578,-100,4,2,1,80,0,0
5657,-100,4,2,1,80,0,0
5736,-100,4,2,2,80,0,0
5815,-100,4,2,2,80,0,0
5894,-100,4,2,1,80,0,0
5973,-100,4,2,1,80,0,0
10473,-100,4,2,2,80,0,0
10631,-100,4,2,1,80,0,0
10789,-100,4,2,2,80,0,0
10947,-100,4,2,1,80,0,0
15526,-100,4,2,2,80,0,0
15605,-100,4,2,2,80,0,0
15684,-100,4,2,1,80,0,0
15763,-100,4,2,1,80,0,0
15842,-100,4,2,2,80,0,0
15921,-100,4,2,2,80,0,0
16000,-100,4,2,1,80,0,0
16078,-100,4,2,1,80,0,0
21210,-100,4,2,1,80,0,0
24842,-100,4,2,1,80,0,0
25157,-100,4,2,1,80,0,0
29036,315.789473684211,4,2,1,80,1,0
30536,-100,4,2,1,5,0,0

[Colours]
Combo1 : 255,128,0
Combo2 : 255,128,128
Combo3 : 255,255,128
Combo4 : 255,128,255

[HitObjects]
347,328,526,6,0,L|372:267,2,65,0|0|0,0:0|0:0|0:0,0:0:0:0:
196,250,1000,1,6,1:2:0:0:
54,245,1315,1,2,0:0:0:0:
196,250,1631,2,0,L|272:250,2,65,2|8|2,1:2|0:0|1:2,0:0:0:0:
124,184,2105,6,0,P|87:160|151:110,1,130,8|8,0:0|0:0,0:0:0:0:
197,86,2578,2,0,L|285:86,1,65,2|8,1:2|0:0,0:0:0:0:
119,210,3052,2,0,L|119:136,1,65,8|2,0:0|1:2,0:0:0:0:
367,296,3526,6,0,P|398:259|346:186,1,130,2|2,1:2|1:2,0:0:0:0:
224,216,4157,2,0,L|147:216,2,65,2|8|2,1:2|0:0|1:2,0:0:0:0:
368,156,4631,6,0,L|232:156,1,130,14|10,1:2|1:2,0:0:0:0:
167,163,5105,1,0,1:2:0:0:
311,113,5421,1,2,1:2:0:0:
167,163,5736,1,2,1:2:0:0:
414,323,6052,6,0,L|255:323,1,130,6|2,1:2|1:2,0:0:0:0:
140,297,6684,2,0,L|58:298,1,65,2|8,1:2|0:2,0:0:0:0:
75,297,7000,1,2,1:2:0:0:
225,266,7157,6,0,L|356:266,1,130,8|8,0:0|0:0,0:0:0:0:
283,251,7631,2,0,L|201:251,1,65,2|8,1:2|0:0,0:0:0:0:
75,239,8105,2,0,L|76:157,1,65,8|2,0:0|1:2,0:0:0:0:
227,151,8421,1,14,0:0:0:0:
227,151,8736,6,0,L|227:227,1,65,8|2,0:0|1:2,0:0:0:0:
76,239,9052,1,14,0:0:0:0:
76,239,9368,2,0,L|76:329,1,65,8|2,0:0|1:2,0:0:0:0:
227,229,9684,6,0,P|259:183|210:120,1,130,14|10,1:2|1:2,0:0:0:0:
150,123,10157,1,0,1:2:0:0:
150,123,10315,1,8,1:2:0:0:
225,124,10473,2,0,L|75:124,1,130,2|2,1:2|1:2,0:0:0:0:
343,253,11105,6,0,P|379:205|317:167,1,130,6|2,1:2|0:0,0:0:0:0:
195,197,11736,2,0,L|107:197,2,65,2|8|2,1:2|0:0|1:2,0:0:0:0:
268,197,12210,6,0,P|306:167|249:114,1,130,8|8,0:0|0:0,0:0:0:0:
200,109,12684,2,0,L|123:109,1,65,2|8,1:2|0:0,0:0:0:0:
285,176,13157,2,0,L|304:263,1,65,8|2,0:0|1:2,0:0:0:0:
51,331,13631,6,0,P|20:275|74:227,1,130,2|2,1:2|1:2,0:0:0:0:
184,280,14263,2,0,L|258:280,2,65,2|8|2,1:2|0:0|1:2,0:0:0:0:
34,215,14736,6,0,L|168:216,1,130,14|10,1:2|1:2,0:0:0:0:
236,217,15210,1,0,1:2:0:0:
93,161,15526,1,2,1:2:0:0:
238,161,15842,1,2,1:2:0:0:
485,273,16157,6,0,L|351:273,1,130,6|2,1:2|1:2,0:0:0:0:
210,277,16789,2,0,L|138:276,1,65,2|8,1:2|0:2,0:0:0:0:
145,276,17105,1,2,1:2:0:0:
295,230,17263,6,0,L|436:230,1,130,8|8,0:0|0:0,0:0:0:0:
353,194,17736,2,0,L|280:194,1,65,2|8,1:2|0:0,0:0:0:0:
144,192,18210,2,0,L|144:111,1,65,8|2,0:0|1:2,0:0:0:0:
296,107,18526,1,14,0:0:0:0:
296,107,18842,6,0,L|296:187,1,65,8|2,0:0|1:2,0:0:0:0:
145,178,19157,1,14,0:0:0:0:
145,178,19473,2,0,L|145:263,1,65,8|2,0:0|1:2,0:0:0:0:
302,166,19789,6,0,L|444:166,1,130,14|10,0:0|0:0,0:0:0:0:
359,129,20263,2,0,L|279:129,1,65,0|8,1:2|0:0,0:0:0:0:
368,76,20578,1,10,1:2:0:0:
231,82,20894,1,10,1:2:0:0:
376,298,21210,6,0,P|410:243|370:187,1,130,6|2,1:2|0:0,0:0:0:0:
313,190,21684,1,8,0:0:0:0:
247,156,21842,2,0,L|395:157,1,130,2|2,1:2|0:0,0:0:0:0:
130,287,22473,6,0,L|130:190,1,65,2|8,1:2|0:0,0:0:0:0:
205,217,22789,2,0,L|204:115,1,65,2|8,0:0|0:0,0:0:0:0:
131,180,23105,2,0,P|96:130|144:91,1,130,2|2,0:0|0:0,0:0:0:0:
289,189,23578,6,0,L|425:189,1,130,12|8,1:2|0:0,0:0:0:0:
353,189,24052,2,0,L|276:189,1,65,10|2,0:0|1:2,0:0:0:0:
136,240,24368,2,0,P|107:174|161:142,1,130,10|8,0:0|0:0,0:0:0:0:
296,144,24842,5,14,1:2:0:0:
440,228,25157,2,0,L|476:164,2,65,10|2|8,1:2|1:2|1:2,0:0:0:0:
288,240,25631,1,10,1:2:0:0:
418,145,25947,5,8,0:0:0:0:
256,192,26263,12,2,29036,1:2:0:0:
151,254,29351,6,0,L|48:254,2,65,2|2|2,0:0|1:2|0:0,0:0:0:0:
305,257,29825,2,0,P|398:141|313:56,1,292.5,14|0,1:2|0:0,0:0:0:0:
