osu file format v14

[General]
AudioFilename: audio.mp3
AudioLeadIn: 0
PreviewTime: 6283
Countdown: 0
SampleSet: Normal
StackLeniency: 0.7
Mode: 1
LetterboxInBreaks: 0
WidescreenStoryboard: 0

[Editor]
Bookmarks: 1911,6329,12218,18108,21053,23997,26942,29887,35777
DistanceSpacing: 1
BeatDivisor: 4
GridSize: 32
TimelineZoom: 1.92

[Metadata]
Title:OHMORI ICCHO! GARUPA * PICO (Cut Ver.)
TitleUnicode:大盛り一丁!ガルパ☆ピコ (Cut Ver.)
Artist:Aimi, Sakura Ayane, Maeshima Ami, Aiba Aina, Itou Miku
ArtistUnicode:愛美、佐倉綾音、前島亜美、相羽あいな、伊藤美来
Creator:Tyistiana
Version:Roger's GARUPA*ONI
Source:BanG Dream! ガルパ☆ピコ ~大盛り~
Tags:戸山 香澄 Toyama Kasumi 美竹 蘭 Mitake Ran 丸山 彩 Maruyama Aya 湊 友希那 Minato Yukina 弦巻 こころ Tsurumaki Kokoro bang dream! girls band party! bandori gbp バンドリ! ガールズバンドパーティ! extra large anime japanese pop jpop j-pop opening op ending ed theme song edited edit version oomori icchou [zeth] roger ][ -GH- ][ blackener Finana Ryugu
BeatmapID:2655212
BeatmapSetID:1166246

[Difficulty]
HPDrainRate:8
CircleSize:2
OverallDifficulty:6
ApproachRate:0
SliderMultiplier:1.4
SliderTickRate:1

[Events]
//Background and Video events
0,0,"ag 5.jpg",0,-120
//Break Periods
//Storyboard Layer 0 (Background)
//Storyboard Layer 1 (Fail)
//Storyboard Layer 2 (Pass)
//Storyboard Layer 3 (Foreground)
//Storyboard Layer 4 (Overlay)
//Storyboard Sound Samples

[TimingPoints]
1912,368.098159509202,4,1,0,80,1,0
4856,-125,4,1,0,80,0,0
5040,-121.212121212121,4,1,0,80,0,0
5132,-119.402985074627,4,1,0,80,0,0
5224,-117.647058823529,4,1,0,80,0,0
5316,-115.942028985507,4,1,0,80,0,0
5408,-114.285714285714,4,1,0,80,0,0
5592,-111.111111111111,4,1,0,80,0,0
5685,-109.58904109589,4,1,0,80,0,0
5777,-108.108108108108,4,1,0,80,0,0
5869,-106.666666666667,4,1,0,80,0,0
5961,-105.263157894737,4,1,0,80,0,0
6053,-103.896103896104,4,1,0,80,0,0
6145,-102.564102564103,4,1,0,80,0,0
6237,-101.26582278481,4,1,0,80,0,0
6329,-100,4,1,0,90,0,0
30807,-71.4285714285714,4,1,0,90,0,0
31359,-100,4,1,0,90,0,0
32280,-71.4285714285714,4,1,0,90,0,0
32832,-100,4,1,0,90,0,0
34948,-100,4,1,0,80,0,0
35224,-102.564102564103,4,1,0,80,0,0
35316,-103.896103896104,4,1,0,80,0,0
35592,-108.108108108108,4,1,0,80,0,0
35685,-107.52688172043,4,1,0,90,0,0
35777,-111.111111111111,4,1,0,90,0,0

[HitObjects]
416,352,1912,5,12,0:0:0:0:
416,352,2464,1,0,0:0:0:0:
416,352,2648,1,12,0:0:0:0:
416,352,3016,1,0,0:0:0:0:
416,352,3200,1,0,0:0:0:0:
416,352,3384,1,12,0:0:0:0:
416,352,3660,1,0,0:0:0:0:
416,352,3936,1,8,0:0:0:0:
416,352,4028,1,8,0:0:0:0:
416,352,4120,1,4,0:0:0:0:
416,352,4856,1,8,0:0:0:0:
416,352,5040,1,0,0:0:0:0:
416,352,5132,1,0,0:0:0:0:
416,352,5224,1,0,0:0:0:0:
416,352,5316,1,0,0:0:0:0:
416,352,5408,1,8,0:0:0:0:
416,352,5592,1,0,0:0:0:0:
416,352,5685,1,0,0:0:0:0:
416,352,5777,1,0,0:0:0:0:
416,352,5869,1,0,0:0:0:0:
416,352,5961,1,8,0:0:0:0:
416,352,6053,1,8,0:0:0:0:
416,352,6145,1,8,0:0:0:0:
416,352,6237,1,8,0:0:0:0:
416,352,6329,1,0,0:0:0:0:
416,352,6513,1,8,0:0:0:0:
416,352,6697,1,0,0:0:0:0:
416,352,6789,1,0,0:0:0:0:
416,352,6881,1,8,0:0:0:0:
416,352,7065,1,0,0:0:0:0:
416,352,7157,1,0,0:0:0:0:
416,352,7249,1,8,0:0:0:0:
416,352,7341,1,0,0:0:0:0:
416,352,7525,1,0,0:0:0:0:
416,352,7617,1,8,0:0:0:0:
416,352,7709,1,8,0:0:0:0:
416,352,7801,1,0,0:0:0:0:
416,352,7985,1,8,0:0:0:0:
416,352,8077,1,8,0:0:0:0:
416,352,8169,1,0,0:0:0:0:
416,352,8353,1,8,0:0:0:0:
416,352,8445,1,8,0:0:0:0:
416,352,8537,1,0,0:0:0:0:
416,352,8721,1,8,0:0:0:0:
416,352,8813,1,8,0:0:0:0:
416,352,8905,1,0,0:0:0:0:
416,352,8997,1,0,0:0:0:0:
416,352,9089,1,8,0:0:0:0:
416,352,9273,1,0,0:0:0:0:
416,352,9458,1,8,0:0:0:0:
416,352,9550,1,8,0:0:0:0:
416,352,9642,1,0,0:0:0:0:
416,352,9826,1,8,0:0:0:0:
416,352,9918,1,8,0:0:0:0:
416,352,10010,1,0,0:0:0:0:
416,352,10102,1,8,0:0:0:0:
416,352,10194,1,0,0:0:0:0:
416,352,10286,1,0,0:0:0:0:
416,352,10378,1,8,0:0:0:0:
416,352,10562,1,8,0:0:0:0:
416,352,10746,1,4,0:0:0:0:
416,352,11022,1,12,0:0:0:0:
416,352,11298,1,12,0:0:0:0:
416,352,11482,1,4,0:0:0:0:
416,352,11666,1,0,0:0:0:0:
416,352,11850,1,8,0:0:0:0:
416,352,11942,1,8,0:0:0:0:
416,352,12034,1,8,0:0:0:0:
416,352,12126,1,8,0:0:0:0:
416,352,12218,1,0,0:0:0:0:
416,352,12402,1,8,0:0:0:0:
416,352,12586,1,0,0:0:0:0:
416,352,12678,1,0,0:0:0:0:
416,352,12770,1,8,0:0:0:0:
416,352,12954,1,0,0:0:0:0:
416,352,13046,1,0,0:0:0:0:
416,352,13138,1,8,0:0:0:0:
416,352,13231,1,0,0:0:0:0:
416,352,13415,1,8,0:0:0:0:
416,352,13507,1,0,0:0:0:0:
416,352,13599,1,0,0:0:0:0:
416,352,13691,1,8,0:0:0:0:
416,352,13875,1,0,0:0:0:0:
416,352,13967,1,0,0:0:0:0:
416,352,14059,1,8,0:0:0:0:
416,352,14243,1,0,0:0:0:0:
416,352,14335,1,0,0:0:0:0:
416,352,14427,1,8,0:0:0:0:
416,352,14611,1,0,0:0:0:0:
416,352,14703,1,0,0:0:0:0:
416,352,14795,1,8,0:0:0:0:
416,352,14887,1,0,0:0:0:0:
416,352,14979,1,8,0:0:0:0:
416,352,15163,1,0,0:0:0:0:
416,352,15347,1,8,0:0:0:0:
416,352,15439,1,8,0:0:0:0:
416,352,15531,1,0,0:0:0:0:
416,352,15715,1,0,0:0:0:0:
416,352,15807,1,0,0:0:0:0:
416,352,15899,1,8,0:0:0:0:
416,352,15991,1,0,0:0:0:0:
416,352,16083,1,8,0:0:0:0:
416,352,16175,1,8,0:0:0:0:
416,352,16267,1,0,0:0:0:0:
416,352,16451,1,8,0:0:0:0:
416,352,16635,1,4,0:0:0:0:
416,352,16911,1,12,0:0:0:0:
416,352,17188,1,4,0:0:0:0:
416,352,17372,1,12,0:0:0:0:
416,352,17556,1,0,0:0:0:0:
416,352,17648,1,0,0:0:0:0:
416,352,17740,1,8,0:0:0:0:
416,352,17832,1,8,0:0:0:0:
416,352,17924,1,8,0:0:0:0:
416,352,18016,1,8,0:0:0:0:
416,352,18108,1,0,0:0:0:0:
416,352,18292,1,8,0:0:0:0:
416,352,18384,1,8,0:0:0:0:
416,352,18476,1,0,0:0:0:0:
416,352,18660,1,8,0:0:0:0:
416,352,18752,1,8,0:0:0:0:
416,352,18844,1,0,0:0:0:0:
416,352,18936,1,8,0:0:0:0:
416,352,19120,1,8,0:0:0:0:
416,352,19212,1,0,0:0:0:0:
416,352,19396,1,8,0:0:0:0:
416,352,19580,1,0,0:0:0:0:
416,352,19672,1,8,0:0:0:0:
416,352,19764,1,0,0:0:0:0:
416,352,19856,1,0,0:0:0:0:
416,352,19948,1,8,0:0:0:0:
416,352,20132,1,0,0:0:0:0:
416,352,20316,1,8,0:0:0:0:
416,352,20408,1,0,0:0:0:0:
416,352,20500,1,8,0:0:0:0:
416,352,20592,1,0,0:0:0:0:
416,352,20685,1,8,0:0:0:0:
416,352,20777,1,8,0:0:0:0:
416,352,20869,1,0,0:0:0:0:
416,352,21053,1,8,0:0:0:0:
416,352,21237,1,0,0:0:0:0:
416,352,21329,1,0,0:0:0:0:
416,352,21421,1,8,0:0:0:0:
416,352,21605,1,0,0:0:0:0:
416,352,21697,1,0,0:0:0:0:
416,352,21789,1,8,0:0:0:0:
416,352,21881,1,0,0:0:0:0:
416,352,22065,1,0,0:0:0:0:
416,352,22157,1,8,0:0:0:0:
416,352,22341,1,8,0:0:0:0:
416,352,22433,1,8,0:0:0:0:
416,352,22525,1,0,0:0:0:0:
416,352,22709,1,8,0:0:0:0:
416,352,22801,1,0,0:0:0:0:
416,352,22893,1,8,0:0:0:0:
416,352,23077,1,0,0:0:0:0:
416,352,23261,1,8,0:0:0:0:
416,352,23353,1,8,0:0:0:0:
416,352,23445,1,0,0:0:0:0:
416,352,23537,1,0,0:0:0:0:
416,352,23629,1,8,0:0:0:0:
416,352,23721,1,8,0:0:0:0:
416,352,23813,1,8,0:0:0:0:
416,352,23905,1,8,0:0:0:0:
416,352,23997,1,0,0:0:0:0:
416,352,24181,1,8,0:0:0:0:
416,352,24273,1,8,0:0:0:0:
416,352,24365,1,0,0:0:0:0:
416,352,24550,1,8,0:0:0:0:
416,352,24642,1,8,0:0:0:0:
416,352,24734,1,0,0:0:0:0:
416,352,24826,1,8,0:0:0:0:
416,352,25010,1,8,0:0:0:0:
416,352,25102,1,0,0:0:0:0:
416,352,25286,1,8,0:0:0:0:
416,352,25470,1,0,0:0:0:0:
416,352,25562,1,0,0:0:0:0:
416,352,25654,1,8,0:0:0:0:
416,352,25746,1,8,0:0:0:0:
416,352,25838,1,0,0:0:0:0:
416,352,26022,1,8,0:0:0:0:
416,352,26114,1,0,0:0:0:0:
416,352,26206,1,8,0:0:0:0:
416,352,26298,1,8,0:0:0:0:
416,352,26390,1,0,0:0:0:0:
416,352,26482,1,0,0:0:0:0:
416,352,26574,1,8,0:0:0:0:
416,352,26758,1,8,0:0:0:0:
416,352,26850,1,8,0:0:0:0:
416,352,26942,1,0,0:0:0:0:
416,352,27126,1,8,0:0:0:0:
416,352,27310,1,0,0:0:0:0:
416,352,27494,1,8,0:0:0:0:
416,352,27678,1,0,0:0:0:0:
416,352,27770,1,8,0:0:0:0:
416,352,27954,1,0,0:0:0:0:
416,352,28046,1,8,0:0:0:0:
416,352,28138,1,8,0:0:0:0:
416,352,28231,1,0,0:0:0:0:
416,352,28415,1,12,0:0:0:0:
416,352,28599,1,0,0:0:0:0:
416,352,28783,1,12,0:0:0:0:
416,352,28967,1,0,0:0:0:0:
416,352,29151,1,8,0:0:0:0:
416,352,29243,1,8,0:0:0:0:
416,352,29335,1,0,0:0:0:0:
416,352,29427,1,0,0:0:0:0:
416,352,29519,1,8,0:0:0:0:
416,352,29611,1,8,0:0:0:0:
416,352,29703,1,8,0:0:0:0:
416,352,29887,1,4,0:0:0:0:
416,352,30071,1,8,0:0:0:0:
416,352,30255,1,0,0:0:0:0:
416,352,30347,1,0,0:0:0:0:
416,352,30439,1,8,0:0:0:0:
416,352,30531,1,8,0:0:0:0:
416,352,30623,1,0,0:0:0:0:
416,352,30807,1,12,0:0:0:0:
416,352,30991,1,12,0:0:0:0:
416,352,31359,1,0,0:0:0:0:
416,352,31543,1,8,0:0:0:0:
416,352,31635,1,0,0:0:0:0:
416,352,31819,1,8,0:0:0:0:
416,352,31911,1,0,0:0:0:0:
416,352,32004,1,0,0:0:0:0:
416,352,32096,1,8,0:0:0:0:
416,352,32280,1,4,0:0:0:0:
416,352,32464,1,4,0:0:0:0:
416,352,32832,1,0,0:0:0:0:
416,352,33016,1,8,0:0:0:0:
416,352,33108,1,8,0:0:0:0:
416,352,33200,1,0,0:0:0:0:
416,352,33292,1,0,0:0:0:0:
416,352,33384,1,8,0:0:0:0:
416,352,33568,1,0,0:0:0:0:
416,352,33660,1,0,0:0:0:0:
416,352,33752,1,8,0:0:0:0:
416,352,33844,1,0,0:0:0:0:
416,352,33936,1,8,0:0:0:0:
416,352,34028,1,0,0:0:0:0:
416,352,34120,1,8,0:0:0:0:
416,352,34212,1,8,0:0:0:0:
416,352,34304,1,0,0:0:0:0:
416,352,34396,1,0,0:0:0:0:
416,352,34488,1,0,0:0:0:0:
416,352,34580,1,0,0:0:0:0:
416,352,34672,1,8,0:0:0:0:
416,352,35040,1,8,0:0:0:0:
416,352,35224,1,0,0:0:0:0:
416,352,35316,1,8,0:0:0:0:
416,352,35592,1,8,0:0:0:0:
416,352,35777,1,4,0:0:0:0:
