osu file format v14

[General]
AudioFilename: audio.mp3
AudioLeadIn: 0
PreviewTime: 6283
Countdown: 0
SampleSet: Normal
StackLeniency: 0.7
Mode: 1
LetterboxInBreaks: 0
WidescreenStoryboard: 0

[Editor]
Bookmarks: 6330
DistanceSpacing: 1
BeatDivisor: 4
GridSize: 32
TimelineZoom: 1.52

[Metadata]
Title:OHMORI ICCHO! GARUPA * PICO (Cut Ver.)
TitleUnicode:大盛り一丁!ガルパ☆ピコ (Cut Ver.)
Artist:Aimi, Sakura Ayane, Maeshima Ami, Aiba Aina, Itou Miku
ArtistUnicode:愛美、佐倉綾音、前島亜美、相羽あいな、伊藤美来
Creator:Tyistiana
Version:INNER ONI
Source:BanG Dream! ガルパ☆ピコ ~大盛り~
Tags:戸山 香澄 Toyama Kasumi 美竹 蘭 Mitake Ran 丸山 彩 Maruyama Aya 湊 友希那 Minato Yukina 弦巻 こころ Tsurumaki Kokoro bang dream! girls band party! bandori gbp バンドリ! ガールズバンドパーティ! extra large anime japanese pop jpop j-pop opening op ending ed theme song edited edit version oomori icchou [zeth] roger ][ -GH- ][ blackener Finana Ryugu
BeatmapID:2432721
BeatmapSetID:1166246

[Difficulty]
HPDrainRate:7
CircleSize:5
OverallDifficulty:6
ApproachRate:5
SliderMultiplier:1.4
SliderTickRate:1

[Events]
//Background and Video events
0,0,"ag 5.jpg",0,-120
//Break Periods
//Storyboard Layer 0 (Background)
//Storyboard Layer 1 (Fail)
//Storyboard Layer 2 (Pass)
//Storyboard Layer 3 (Foreground)
//Storyboard Layer 4 (Overlay)
//Storyboard Sound Samples

[TimingPoints]
1912,368.098159509202,4,1,0,90,1,0
1912,-100,4,1,0,90,0,0
6053,-95.2380952380952,4,1,0,90,0,0
6145,-90.9090909090909,4,1,0,90,0,0
6237,-86.9565217391304,4,1,0,90,0,0
6329,-83.3333333333333,4,1,0,90,0,0

[HitObjects]
256,192,1912,5,4,0:0:0:0:
256,192,2648,1,4,0:0:0:0:
256,192,3384,1,4,0:0:0:0:
256,192,4120,1,4,0:0:0:0:
256,192,4856,1,8,0:0:0:0:
256,192,5040,1,0,0:0:0:0:
256,192,5224,1,8,0:0:0:0:
256,192,5316,1,0,0:0:0:0:
256,192,5408,1,0,0:0:0:0:
256,192,5500,1,0,0:0:0:0:
256,192,5592,1,8,0:0:0:0:
256,192,5777,1,0,0:0:0:0:
256,192,5961,1,8,0:0:0:0:
256,192,6053,1,8,0:0:0:0:
256,192,6145,1,8,0:0:0:0:
256,192,6237,1,8,0:0:0:0:
256,192,6329,5,4,0:0:0:0:
256,192,6513,1,8,0:0:0:0:
256,192,6605,1,8,0:0:0:0:
256,192,6697,1,0,0:0:0:0:
256,192,6881,1,8,0:0:0:0:
256,192,7065,1,0,0:0:0:0:
256,192,7157,1,0,0:0:0:0:
256,192,7249,1,8,0:0:0:0:
256,192,7341,1,0,0:0:0:0:
256,192,7433,1,0,0:0:0:0:
256,192,7617,1,8,0:0:0:0:
256,192,7801,1,8,0:0:0:0:
256,192,7893,1,0,0:0:0:0:
256,192,7985,1,8,0:0:0:0:
256,192,8169,1,0,0:0:0:0:
256,192,8261,1,0,0:0:0:0:
256,192,8353,1,8,0:0:0:0:
256,192,8537,1,0,0:0:0:0:
256,192,8629,1,0,0:0:0:0:
256,192,8721,1,8,0:0:0:0:
256,192,8905,1,0,0:0:0:0:
256,192,8997,1,0,0:0:0:0:
256,192,9089,1,8,0:0:0:0:
256,192,9273,1,0,0:0:0:0:
256,192,9458,1,8,0:0:0:0:
256,192,9550,1,8,0:0:0:0:
256,192,9642,1,0,0:0:0:0:
256,192,9826,1,8,0:0:0:0:
256,192,10010,1,0,0:0:0:0:
256,192,10102,1,0,0:0:0:0:
256,192,10194,1,8,0:0:0:0:
256,192,10286,1,0,0:0:0:0:
256,192,10378,1,8,0:0:0:0:
256,192,10562,1,8,0:0:0:0:
256,192,10746,1,0,0:0:0:0:
256,192,10838,1,0,0:0:0:0:
256,192,10930,1,8,0:0:0:0:
256,192,11022,1,0,0:0:0:0:
256,192,11114,1,0,0:0:0:0:
256,192,11298,1,8,0:0:0:0:
256,192,11482,1,0,0:0:0:0:
256,192,11666,1,8,0:0:0:0:
256,192,11850,1,8,0:0:0:0:
256,192,11942,1,8,0:0:0:0:
256,192,12034,1,8,0:0:0:0:
256,192,12126,1,8,0:0:0:0:
256,192,12218,1,4,0:0:0:0:
256,192,12402,1,8,0:0:0:0:
256,192,12494,1,8,0:0:0:0:
256,192,12586,1,0,0:0:0:0:
256,192,12770,1,8,0:0:0:0:
256,192,12954,1,0,0:0:0:0:
256,192,13046,1,0,0:0:0:0:
256,192,13138,1,8,0:0:0:0:
256,192,13231,1,0,0:0:0:0:
256,192,13323,1,0,0:0:0:0:
256,192,13507,1,8,0:0:0:0:
256,192,13691,1,0,0:0:0:0:
256,192,13783,1,0,0:0:0:0:
256,192,13875,1,8,0:0:0:0:
256,192,14059,1,8,0:0:0:0:
256,192,14151,1,0,0:0:0:0:
256,192,14243,1,8,0:0:0:0:
256,192,14427,1,0,0:0:0:0:
256,192,14519,1,0,0:0:0:0:
256,192,14611,1,8,0:0:0:0:
256,192,14795,1,8,0:0:0:0:
256,192,14887,1,0,0:0:0:0:
256,192,14979,1,8,0:0:0:0:
256,192,15163,1,0,0:0:0:0:
256,192,15347,1,8,0:0:0:0:
256,192,15439,1,8,0:0:0:0:
256,192,15531,1,0,0:0:0:0:
256,192,15715,1,8,0:0:0:0:
256,192,15899,1,0,0:0:0:0:
256,192,15991,1,0,0:0:0:0:
256,192,16083,1,8,0:0:0:0:
256,192,16175,1,0,0:0:0:0:
256,192,16267,1,8,0:0:0:0:
256,192,16451,1,8,0:0:0:0:
256,192,16635,1,4,0:0:0:0:
256,192,16819,1,8,0:0:0:0:
256,192,16911,1,0,0:0:0:0:
256,192,17096,1,0,0:0:0:0:
256,192,17188,1,8,0:0:0:0:
256,192,17372,1,4,0:0:0:0:
256,192,17556,1,8,0:0:0:0:
256,192,17740,1,8,0:0:0:0:
256,192,17832,1,8,0:0:0:0:
256,192,17924,1,8,0:0:0:0:
256,192,18016,1,8,0:0:0:0:
256,192,18108,1,4,0:0:0:0:
256,192,18292,1,8,0:0:0:0:
256,192,18476,1,0,0:0:0:0:
256,192,18660,1,8,0:0:0:0:
256,192,18844,1,0,0:0:0:0:
256,192,18936,1,8,0:0:0:0:
256,192,19028,1,8,0:0:0:0:
256,192,19120,1,8,0:0:0:0:
256,192,19212,1,0,0:0:0:0:
256,192,19396,1,8,0:0:0:0:
256,192,19580,1,0,0:0:0:0:
256,192,19764,1,8,0:0:0:0:
256,192,19856,1,0,0:0:0:0:
256,192,19948,1,0,0:0:0:0:
256,192,20132,1,8,0:0:0:0:
256,192,20316,1,0,0:0:0:0:
256,192,20408,1,0,0:0:0:0:
256,192,20500,1,8,0:0:0:0:
256,192,20592,1,0,0:0:0:0:
256,192,20685,1,8,0:0:0:0:
256,192,20869,1,8,0:0:0:0:
256,192,21053,1,0,0:0:0:0:
256,192,21237,1,8,0:0:0:0:
256,192,21421,1,0,0:0:0:0:
256,192,21605,1,8,0:0:0:0:
256,192,21789,1,0,0:0:0:0:
256,192,21881,1,8,0:0:0:0:
256,192,21973,1,8,0:0:0:0:
256,192,22065,1,8,0:0:0:0:
256,192,22157,1,0,0:0:0:0:
256,192,22341,1,8,0:0:0:0:
256,192,22525,1,0,0:0:0:0:
256,192,22709,1,8,0:0:0:0:
256,192,22801,1,0,0:0:0:0:
256,192,22893,1,8,0:0:0:0:
256,192,23077,1,8,0:0:0:0:
256,192,23261,1,0,0:0:0:0:
256,192,23353,1,0,0:0:0:0:
256,192,23445,1,8,0:0:0:0:
256,192,23537,1,0,0:0:0:0:
256,192,23629,1,8,0:0:0:0:
256,192,23721,1,0,0:0:0:0:
256,192,23813,1,8,0:0:0:0:
256,192,23905,1,8,0:0:0:0:
256,192,23997,1,4,0:0:0:0:
256,192,24181,1,8,0:0:0:0:
256,192,24365,1,0,0:0:0:0:
256,192,24550,1,8,0:0:0:0:
256,192,24734,1,0,0:0:0:0:
256,192,24826,1,0,0:0:0:0:
256,192,24918,1,8,0:0:0:0:
256,192,25010,1,8,0:0:0:0:
256,192,25102,1,0,0:0:0:0:
256,192,25286,1,8,0:0:0:0:
256,192,25470,1,0,0:0:0:0:
256,192,25654,1,8,0:0:0:0:
256,192,25746,1,0,0:0:0:0:
256,192,25838,1,0,0:0:0:0:
256,192,26022,1,8,0:0:0:0:
256,192,26206,1,0,0:0:0:0:
256,192,26298,1,0,0:0:0:0:
256,192,26390,1,8,0:0:0:0:
256,192,26482,1,0,0:0:0:0:
256,192,26574,1,0,0:0:0:0:
256,192,26758,1,8,0:0:0:0:
256,192,26942,1,4,0:0:0:0:
256,192,27126,1,8,0:0:0:0:
256,192,27218,1,8,0:0:0:0:
256,192,27310,1,0,0:0:0:0:
256,192,27494,1,8,0:0:0:0:
256,192,27678,1,0,0:0:0:0:
256,192,27770,1,8,0:0:0:0:
256,192,27954,1,8,0:0:0:0:
256,192,28046,1,0,0:0:0:0:
256,192,28231,1,8,0:0:0:0:
256,192,28415,1,4,0:0:0:0:
256,192,28599,1,8,0:0:0:0:
256,192,28783,1,4,0:0:0:0:
256,192,28967,1,8,0:0:0:0:
256,192,29151,1,4,0:0:0:0:
256,192,29335,1,8,0:0:0:0:
256,192,29427,1,8,0:0:0:0:
256,192,29519,1,0,0:0:0:0:
256,192,29611,1,8,0:0:0:0:
256,192,29703,1,8,0:0:0:0:
256,192,29887,1,4,0:0:0:0:
256,192,30071,1,8,0:0:0:0:
256,192,30163,1,8,0:0:0:0:
256,192,30255,1,0,0:0:0:0:
256,192,30439,1,8,0:0:0:0:
256,192,30623,1,0,0:0:0:0:
256,192,30807,1,12,0:0:0:0:
256,192,30991,1,12,0:0:0:0:
256,192,31359,1,4,0:0:0:0:
256,192,31543,1,8,0:0:0:0:
256,192,31635,1,0,0:0:0:0:
256,192,31819,1,0,0:0:0:0:
256,192,31911,1,8,0:0:0:0:
256,192,32096,1,0,0:0:0:0:
256,192,32280,1,12,0:0:0:0:
256,192,32464,1,12,0:0:0:0:
256,192,32648,1,8,0:0:0:0:
256,192,32832,1,0,0:0:0:0:
256,192,32924,1,0,0:0:0:0:
256,192,33016,1,8,0:0:0:0:
256,192,33108,1,8,0:0:0:0:
256,192,33200,1,0,0:0:0:0:
256,192,33384,1,8,0:0:0:0:
256,192,33568,1,0,0:0:0:0:
256,192,33660,1,0,0:0:0:0:
256,192,33752,1,8,0:0:0:0:
256,192,33844,1,0,0:0:0:0:
256,192,33936,1,0,0:0:0:0:
256,192,34028,1,0,0:0:0:0:
256,192,34120,1,8,0:0:0:0:
256,192,34212,1,8,0:0:0:0:
256,192,34304,1,0,0:0:0:0:
256,192,34396,1,8,0:0:0:0:
256,192,34488,1,8,0:0:0:0:
256,192,34672,1,12,0:0:0:0:
256,192,35040,1,0,0:0:0:0:
256,192,35316,1,8,0:0:0:0:
256,192,35408,1,0,0:0:0:0:
256,192,35592,1,8,0:0:0:0:
256,192,35777,1,4,0:0:0:0:
