osu file format v14

[General]
AudioFilename: audio.mp3
AudioLeadIn: 0
PreviewTime: 6283
Countdown: 0
SampleSet: Normal
StackLeniency: 0.7
Mode: 1
LetterboxInBreaks: 0
WidescreenStoryboard: 1

[Editor]
Bookmarks: 6330
DistanceSpacing: 1
BeatDivisor: 16
GridSize: 32
TimelineZoom: 1.72

[Metadata]
Title:OHMORI ICCHO! GARUPA * PICO (Cut Ver.)
TitleUnicode:大盛り一丁!ガルパ☆ピコ (Cut Ver.)
Artist:Aimi, Sakura Ayane, Maeshima Ami, Aiba Aina, Itou Miku
ArtistUnicode:愛美、佐倉綾音、前島亜美、相羽あいな、伊藤美来
Creator:Tyistiana
Version:Blacken's URA ONI
Source:BanG Dream! ガルパ☆ピコ ~大盛り~
Tags:戸山 香澄 Toyama Kasumi 美竹 蘭 Mitake Ran 丸山 彩 Maruyama Aya 湊 友希那 Minato Yukina 弦巻 こころ Tsurumaki Kokoro bang dream! girls band party! bandori gbp バンドリ! ガールズバンドパーティ! extra large anime japanese pop jpop j-pop opening op ending ed theme song edited edit version oomori icchou [zeth] roger ][ -GH- ][ blackener Finana Ryugu
BeatmapID:2655211
BeatmapSetID:1166246

[Difficulty]
HPDrainRate:7
CircleSize:5
OverallDifficulty:6
ApproachRate:5
SliderMultiplier:1.4
SliderTickRate:1

[Events]
//Background and Video events
0,0,"ag 5.jpg",0,-120
//Break Periods
//Storyboard Layer 0 (Background)
//Storyboard Layer 1 (Fail)
//Storyboard Layer 2 (Pass)
//Storyboard Layer 3 (Foreground)
//Storyboard Layer 4 (Overlay)
//Storyboard Sound Samples

[TimingPoints]
1912,368.098159509202,4,1,0,80,1,0
5754,-97.2222222222222,4,1,0,80,0,0
5846,-94.5945945945946,4,1,0,80,0,0
5938,-92.1052631578947,4,1,0,80,0,0
6030,-89.7435897435897,4,1,0,80,0,0
6122,-87.5,4,1,0,80,0,0
6214,-85.3658536585366,4,1,0,80,0,0
6306,-83.3333333333333,4,1,0,90,0,0
17510,-83.1353919239905,4,1,0,90,0,0
17602,-84.3373493975904,4,1,0,90,0,0
17694,-85.5745721271394,4,1,0,90,0,0
17786,-86.848635235732,4,1,0,90,0,0
17878,-88.1612090680101,4,1,0,90,0,0
17970,-89.5140664961637,4,1,0,90,0,0
18062,-90.9090909090909,4,1,0,85,0,0
30761,-71.4285714285714,4,1,0,85,0,0
31313,-90.9090909090909,4,1,0,85,0,0
32234,-71.4285714285714,4,1,0,85,0,0
32786,-90.9090909090909,4,1,0,85,0,0
33913,-89.1089108910891,4,1,0,85,0,0
34005,-87.378640776699,4,1,0,85,0,0
34097,-85.7142857142857,4,1,0,85,0,0
34189,-84.1121495327103,4,1,0,85,0,0
34281,-82.5688073394495,4,1,0,85,0,0
34373,-81.0810810810811,4,1,0,85,0,0
34465,-79.646017699115,4,1,0,85,0,0
34557,-78.2608695652174,4,1,0,85,0,0
34649,-74.0740740740741,4,1,0,85,0,0
34994,-84.9056603773585,4,1,0,75,0,0
35270,-79.295154185022,4,1,0,75,0,0
35362,-77.5862068965517,4,1,0,75,0,0
35546,-74.3801652892562,4,1,0,75,0,0
35730,-62.5,4,1,0,85,0,0

[HitObjects]
256,192,1912,5,4,0:0:0:0:
256,192,2464,1,0,0:0:0:0:
256,192,2648,1,12,0:0:0:0:
256,192,3016,1,8,0:0:0:0:
256,192,3200,1,8,0:0:0:0:
256,192,3384,1,4,0:0:0:0:
256,192,3660,1,0,0:0:0:0:
256,192,3936,1,0,0:0:0:0:
256,192,4028,1,0,0:0:0:0:
256,192,4120,1,12,0:0:0:0:
256,192,4856,1,8,0:0:0:0:
256,192,5040,1,0,0:0:0:0:
256,192,5224,1,8,0:0:0:0:
256,192,5316,1,0,0:0:0:0:
256,192,5408,1,8,0:0:0:0:
256,192,5500,1,8,0:0:0:0:
256,192,5592,1,0,0:0:0:0:
256,192,5777,1,0,0:0:0:0:
256,192,5869,1,0,0:0:0:0:
256,192,5961,1,8,0:0:0:0:
256,192,6053,1,8,0:0:0:0:
256,192,6145,1,8,0:0:0:0:
256,192,6237,1,8,0:0:0:0:
256,192,6329,1,4,0:0:0:0:
256,192,6513,1,8,0:0:0:0:
256,192,6605,1,8,0:0:0:0:
256,192,6697,1,0,0:0:0:0:
256,192,6881,1,8,0:0:0:0:
256,192,7065,1,0,0:0:0:0:
256,192,7249,1,8,0:0:0:0:
256,192,7341,1,0,0:0:0:0:
288,192,7525,1,0,0:0:0:0:
256,192,7617,1,8,0:0:0:0:
256,192,7709,1,8,0:0:0:0:
256,192,7801,1,0,0:0:0:0:
256,192,7985,1,8,0:0:0:0:
256,192,8077,1,8,0:0:0:0:
256,192,8169,1,0,0:0:0:0:
256,192,8353,1,8,0:0:0:0:
256,192,8445,1,0,0:0:0:0:
256,192,8537,1,0,0:0:0:0:
256,192,8721,1,8,0:0:0:0:
256,224,8813,1,8,0:0:0:0:
256,192,8905,1,0,0:0:0:0:
256,192,9089,1,8,0:0:0:0:
256,192,9273,1,0,0:0:0:0:
256,192,9458,1,8,0:0:0:0:
256,192,9550,1,0,0:0:0:0:
256,192,9642,1,8,0:0:0:0:
256,192,9826,1,8,0:0:0:0:
256,192,10010,1,0,0:0:0:0:
256,192,10102,1,8,0:0:0:0:
256,192,10194,1,0,0:0:0:0:
256,192,10286,1,0,0:0:0:0:
256,192,10378,1,8,0:0:0:0:
256,192,10562,1,0,0:0:0:0:
256,192,10654,1,0,0:0:0:0:
256,192,10746,1,8,0:0:0:0:
256,192,10838,1,8,0:0:0:0:
256,192,11022,1,8,0:0:0:0:
256,192,11114,1,0,0:0:0:0:
256,192,11298,1,0,0:0:0:0:
256,192,11482,1,8,0:0:0:0:
256,192,11666,1,0,0:0:0:0:
256,192,11758,1,0,0:0:0:0:
256,192,11850,1,8,0:0:0:0:
256,192,11942,1,0,0:0:0:0:
256,192,12034,1,8,0:0:0:0:
256,192,12126,1,8,0:0:0:0:
256,192,12218,1,4,0:0:0:0:
256,192,12402,1,8,0:0:0:0:
256,192,12494,1,8,0:0:0:0:
256,192,12586,1,0,0:0:0:0:
256,192,12770,1,8,0:0:0:0:
256,192,12954,1,0,0:0:0:0:
256,192,13138,1,8,0:0:0:0:
256,192,13231,1,0,0:0:0:0:
256,192,13415,1,0,0:0:0:0:
256,192,13507,1,8,0:0:0:0:
256,192,13599,1,8,0:0:0:0:
256,192,13691,1,0,0:0:0:0:
256,192,13875,1,8,0:0:0:0:
256,192,13967,1,0,0:0:0:0:
256,192,14059,1,8,0:0:0:0:
256,192,14243,1,8,0:0:0:0:
256,192,14335,1,8,0:0:0:0:
256,192,14427,1,0,0:0:0:0:
256,192,14611,1,8,0:0:0:0:
256,192,14703,1,0,0:0:0:0:
256,192,14795,1,8,0:0:0:0:
256,192,14979,1,8,0:0:0:0:
256,192,15163,1,0,0:0:0:0:
256,192,15347,1,8,0:0:0:0:
256,192,15439,1,8,0:0:0:0:
256,192,15531,1,0,0:0:0:0:
256,192,15715,1,8,0:0:0:0:
256,192,15899,1,0,0:0:0:0:
256,192,15991,1,8,0:0:0:0:
256,192,16083,1,8,0:0:0:0:
256,192,16175,1,0,0:0:0:0:
256,192,16267,1,8,0:0:0:0:
256,192,16451,1,0,0:0:0:0:
256,192,16635,1,12,0:0:0:0:
256,192,16911,1,8,0:0:0:0:
256,192,17004,1,0,0:0:0:0:
256,192,17188,1,0,0:0:0:0:
256,192,17372,1,8,0:0:0:0:
256,192,17556,1,0,0:0:0:0:
256,192,17648,1,0,0:0:0:0:
256,192,17740,1,8,0:0:0:0:
256,192,17832,1,8,0:0:0:0:
256,192,17924,1,8,0:0:0:0:
256,192,18016,1,8,0:0:0:0:
256,192,18108,1,4,0:0:0:0:
224,192,18292,1,8,0:0:0:0:
224,192,18384,1,8,0:0:0:0:
256,192,18476,1,0,0:0:0:0:
256,192,18660,1,8,0:0:0:0:
256,192,18844,1,0,0:0:0:0:
256,192,18936,1,8,0:0:0:0:
256,192,19120,1,8,0:0:0:0:
256,192,19212,1,0,0:0:0:0:
256,192,19396,1,8,0:0:0:0:
256,192,19580,1,0,0:0:0:0:
256,192,19672,1,8,0:0:0:0:
256,192,19764,1,0,0:0:0:0:
256,192,19856,1,0,0:0:0:0:
256,192,19948,1,8,0:0:0:0:
256,192,20132,1,0,0:0:0:0:
256,192,20316,1,8,0:0:0:0:
256,192,20408,1,0,0:0:0:0:
256,192,20500,1,8,0:0:0:0:
256,192,20592,1,8,0:0:0:0:
256,192,20685,1,0,0:0:0:0:
256,192,20869,1,8,0:0:0:0:
256,192,21053,1,0,0:0:0:0:
224,192,21237,1,8,0:0:0:0:
224,192,21329,1,8,0:0:0:0:
256,192,21421,1,0,0:0:0:0:
256,192,21605,1,8,0:0:0:0:
256,192,21789,1,0,0:0:0:0:
256,192,21881,1,0,0:0:0:0:
256,192,22065,1,8,0:0:0:0:
256,192,22157,1,0,0:0:0:0:
256,192,22341,1,8,0:0:0:0:
256,192,22525,1,0,0:0:0:0:
256,192,22617,1,0,0:0:0:0:
256,192,22709,1,8,0:0:0:0:
256,192,22801,1,0,0:0:0:0:
256,192,22893,1,0,0:0:0:0:
256,192,23077,1,8,0:0:0:0:
256,192,23261,1,0,0:0:0:0:
256,224,23353,1,0,0:0:0:0:
256,192,23445,1,8,0:0:0:0:
256,192,23537,1,0,0:0:0:0:
256,192,23629,1,8,0:0:0:0:
256,192,23721,1,8,0:0:0:0:
256,192,23813,1,8,0:0:0:0:
256,192,23905,1,8,0:0:0:0:
256,192,23997,1,4,0:0:0:0:
224,192,24181,1,8,0:0:0:0:
224,192,24273,1,8,0:0:0:0:
256,192,24365,1,0,0:0:0:0:
256,192,24550,1,8,0:0:0:0:
256,192,24734,1,0,0:0:0:0:
256,192,24826,1,8,0:0:0:0:
256,192,25010,1,8,0:0:0:0:
256,192,25102,1,0,0:0:0:0:
256,192,25286,1,8,0:0:0:0:
256,192,25470,1,0,0:0:0:0:
256,192,25562,1,0,0:0:0:0:
256,192,25654,1,8,0:0:0:0:
256,192,25746,1,8,0:0:0:0:
256,192,25838,1,0,0:0:0:0:
256,192,26022,1,8,0:0:0:0:
256,192,26206,1,0,0:0:0:0:
256,192,26298,1,0,0:0:0:0:
256,192,26390,1,0,0:0:0:0:
256,192,26482,1,0,0:0:0:0:
256,192,26574,1,8,0:0:0:0:
256,192,26758,1,8,0:0:0:0:
256,192,26942,1,4,0:0:0:0:
256,192,27126,1,8,0:0:0:0:
256,192,27218,1,8,0:0:0:0:
256,192,27310,1,0,0:0:0:0:
256,192,27494,1,8,0:0:0:0:
256,192,27678,1,0,0:0:0:0:
256,192,27770,1,8,0:0:0:0:
256,192,27954,1,8,0:0:0:0:
256,192,28046,1,0,0:0:0:0:
256,192,28231,1,8,0:0:0:0:
256,192,28415,1,4,0:0:0:0:
256,192,28599,1,8,0:0:0:0:
256,192,28783,1,4,0:0:0:0:
256,192,28967,1,8,0:0:0:0:
256,192,29151,1,4,0:0:0:0:
256,192,29335,1,0,0:0:0:0:
256,192,29427,1,0,0:0:0:0:
256,192,29519,1,8,0:0:0:0:
256,192,29611,1,8,0:0:0:0:
256,192,29703,1,8,0:0:0:0:
256,192,29887,1,4,0:0:0:0:
256,192,30071,1,8,0:0:0:0:
256,192,30163,1,8,0:0:0:0:
256,192,30255,1,0,0:0:0:0:
256,192,30439,1,8,0:0:0:0:
256,192,30623,1,0,0:0:0:0:
256,192,30807,1,12,0:0:0:0:
256,192,30991,1,12,0:0:0:0:
256,192,31359,1,4,0:0:0:0:
256,192,31543,1,8,0:0:0:0:
256,192,31635,1,0,0:0:0:0:
256,192,31819,1,0,0:0:0:0:
256,192,31911,1,8,0:0:0:0:
256,192,32096,1,0,0:0:0:0:
256,192,32280,1,12,0:0:0:0:
256,192,32464,1,12,0:0:0:0:
256,192,32832,1,4,0:0:0:0:
224,192,33016,1,8,0:0:0:0:
256,192,33108,1,0,0:0:0:0:
256,192,33200,1,8,0:0:0:0:
256,192,33384,1,8,0:0:0:0:
224,192,33476,1,8,0:0:0:0:
256,192,33568,1,0,0:0:0:0:
256,192,33752,1,8,0:0:0:0:
256,192,33936,1,0,0:0:0:0:
256,224,34028,1,0,0:0:0:0:
256,192,34120,1,8,0:0:0:0:
256,192,34212,1,8,0:0:0:0:
256,192,34304,1,0,0:0:0:0:
256,192,34396,1,8,0:0:0:0:
256,192,34488,1,0,0:0:0:0:
256,192,34580,1,0,0:0:0:0:
256,192,34672,1,12,0:0:0:0:
256,192,35040,1,0,0:0:0:0:
256,192,35316,1,8,0:0:0:0:
256,192,35408,1,0,0:0:0:0:
256,192,35592,1,8,0:0:0:0:
256,192,35777,1,4,0:0:0:0:
