osu file format v14

[General]
AudioFilename: audio.mp3
AudioLeadIn: 0
PreviewTime: 66377
Countdown: 0
SampleSet: Soft
StackLeniency: 0.4
Mode: 0
LetterboxInBreaks: 0
WidescreenStoryboard: 1

[Editor]
Bookmarks: 27707,52678,66551,94296
DistanceSpacing: 0.2
BeatDivisor: 4
GridSize: 16
TimelineZoom: 1

[Metadata]
Title:Quintuple*Smile
TitleUnicode:クインティプル☆すまいる
Artist:Aimi x Sakura Ayane x Maeshima Ami x Aiba Aina x Itou Miku
ArtistUnicode:愛美×佐倉綾音×前島亜美×相羽あいな×伊藤美来
Creator:iljaaz
Version:Insane
Source:バンドリ!ガールズバンドパーティ!
Tags:Kowari CrazyrabbitKGe garupa BanG Dream! Girls Band Party! bandori Pastel*Palettes PasuPare パスパレ Paspale パステルパレット ぱすてるぱれっとRoselia ロゼリア Hello, Happy World! harohapi ハロハピ Afterglow アターグロ Poppin'Party popipa ポピパ ポッピン パーティー Toyama Kasumi 戸山香澄 Minato Yukina 湊友希那 Aiai Maruyama Aya 丸山彩 Tsurumaki Kokoro 弦巻こころ Mitake Ran アフターグロウ video game japanese
BeatmapID:1944611
BeatmapSetID:931275

[Difficulty]
HPDrainRate:5
CircleSize:4.2
OverallDifficulty:8
ApproachRate:9
SliderMultiplier:1.4
SliderTickRate:1

[Events]
//Background and Video events
0,0,"kowaricute.jpg",0,0
//Break Periods
//Storyboard Layer 0 (Background)
//Storyboard Layer 1 (Fail)
//Storyboard Layer 2 (Pass)
//Storyboard Layer 3 (Foreground)
//Storyboard Sound Samples

[TimingPoints]
2750,346.820809248555,4,2,2,40,1,0
2750,-121.951219512195,4,2,2,40,0,0
12460,-89.2857142857142,4,2,2,50,0,0
13838,-89.2857142857142,4,2,2,65,0,0
13848,-75.7575757575758,4,2,2,65,0,0
27711,-75.7575757575758,4,2,2,50,0,0
28067,-89.2857142857143,4,2,2,50,0,0
38819,-81.9672131147541,4,2,2,50,0,0
52692,-75.7575757575758,4,2,2,60,0,0
66565,-75.7575757575758,4,2,2,70,0,1
77663,-75.7575757575758,4,2,2,60,0,0
83212,-70.4225352112676,4,2,2,60,0,0
85986,-70.4225352112676,4,2,2,72,0,0
91536,-70.4225352112676,4,2,2,65,0,0
94310,-89.2857142857143,4,2,2,65,0,0

[Colours]
Combo1 : 148,136,249
Combo2 : 249,136,240
Combo3 : 139,245,235
Combo4 : 242,255,130

[HitObjects]
0,102,2750,5,2,0:0:0:0:
17,104,3270,2,0,B|56:117|90:93|90:93|149:83|174:122,1,172.200002627564,2|2,0:0|0:0,0:0:0:0:
210,206,4137,6,0,P|222:148|245:82,1,114.800001751709,2|2,0:0|0:0,0:0:0:0:
320,38,4657,2,0,B|349:28|349:28|392:34,4,57.4000008758545,2|0|0|0|0,0:0|0:0|0:0|0:0|0:0,0:0:0:0:
362,160,5524,2,0,P|357:125|355:94,1,57.4000008758545,2|0,0:0|0:0,0:0:0:0:
403,38,5871,1,2,0:0:0:0:
512,70,6044,1,2,0:0:0:0:
495,92,6565,6,0,B|474:118|468:144|468:144|479:175|499:189,1,114.800001751709,2|2,0:0|0:0,0:0:0:0:
499,188,7085,1,0,0:0:0:0:
419,250,7258,1,2,0:0:0:0:
493,372,7432,1,2,0:0:0:0:
427,275,7778,5,0,0:0:0:0:
360,336,7952,2,0,P|326:344|294:349,1,57.4000008758545,0|0,0:0|0:0,0:0:0:0:
183,283,8299,2,0,B|214:286|214:286|240:298,2,57.4000008758545,2|0|0,0:0|0:0|0:0,0:0:0:0:
121,338,8819,2,0,B|157:289|146:234|146:234|120:259|84:269,1,172.200002627564,2|2,0:0|0:0,0:0:0:0:
62,266,9686,6,0,B|39:212|39:212|57:158,1,114.800001751709,2|0,0:0|0:0,0:0:0:0:
101,86,10206,2,0,P|133:94|178:94,1,57.4000008758545,2|0,0:0|0:0,0:0:0:0:
261,112,10553,1,2,0:0:0:0:
365,70,10726,1,2,0:0:0:0:
485,148,10900,1,2,0:0:0:0:
493,322,11073,5,2,0:0:0:0:
491,335,11420,1,2,0:0:0:0:
478,333,11767,1,2,0:0:0:0:
480,320,12114,1,2,0:0:0:0:
480,320,12460,6,0,B|447:326|419:319|419:319|396:342|369:345,1,117.600001435547,6|0,1:2|0:0,0:0:0:0:
338,335,12807,1,2,0:0:0:0:
358,227,12981,5,10,0:0:0:0:
243,197,13154,1,8,0:0:0:0:
207,308,13328,5,8,0:0:0:0:
92,338,13501,1,10,0:0:0:0:
79,311,13587,1,8,0:0:0:0:
76,282,13674,1,8,0:0:0:0:
81,253,13761,1,8,0:0:0:0:
96,219,13848,6,0,B|128:179|115:120|115:120|71:121|36:152,2,184.799999436035,6|8|0,1:2|0:0|1:2,0:0:0:0:
26,158,14715,1,0,1:2:0:0:
87,47,14888,2,0,B|167:32|146:77|237:58,1,138.599999577026,10|0,0:0|0:0,0:0:0:0:
256,39,15235,6,0,B|302:25|302:25|363:40,2,92.3999997180176,2|0|8,1:2|0:0|0:0,0:0:0:0:
423,100,15755,2,0,P|426:51|438:-5,1,92.3999997180176,2|0,0:0|1:2,0:0:0:0:
391,195,16102,1,0,1:2:0:0:
267,130,16276,2,0,P|264:81|252:25,1,92.3999997180176,8|0,0:0|0:0,0:0:0:0:
292,248,16622,6,0,B|340:236|362:202|362:202|310:157|264:168,2,184.799999436035,6|8|0,1:2|0:0|1:2,0:0:0:0:
242,172,17489,1,0,1:2:0:0:
391,195,17663,2,0,P|379:250|373:309,1,92.3999997180176,10|0,0:0|0:0,0:0:0:0:
410,363,18010,6,0,B|369:325|369:325|287:337,1,138.599999577026,2|0,1:2|0:0,0:0:0:0:
250,363,18356,2,0,L|306:355,1,46.1999998590088,8|0,0:0|0:0,0:0:0:0:
134,288,18530,2,0,P|119:341|111:382,2,92.3999997180176,2|0|2,0:0|1:2|1:2,0:0:0:0:
227,279,19050,1,10,0:0:0:0:
112,312,19223,1,10,3:0:0:0:
86,299,19310,1,8,3:0:0:0:
76,269,19397,6,0,B|75:202|119:156|119:156|141:182|142:224,2,184.799999436035,6|8|0,1:2|0:0|1:2,0:0:0:0:
176,224,20264,1,0,1:2:0:0:
127,76,20437,2,0,B|49:88|80:119|2:129,1,138.599999577026,10|0,0:0|0:0,0:0:0:0:
3,91,20784,6,0,B|49:116|49:116|67:167,2,92.3999997180176,2|0|8,1:2|0:0|0:0,0:0:0:0:
127,76,21304,2,0,P|179:56|221:30,1,92.3999997180176,2|0,0:0|1:2,0:0:0:0:
60,23,21651,1,0,1:2:0:0:
204,94,21825,2,0,P|256:114|298:140,1,92.3999997180176,8|0,0:0|0:0,0:0:0:0:
407,212,22171,6,0,B|377:210|345:223|345:223|353:202|369:188|369:188|409:189|468:171,2,184.799999436035,6|10|2,1:2|0:0|1:2,0:0:0:0:
481,169,23039,1,0,1:2:0:0:
322,234,23212,2,0,P|332:281|336:336,1,92.3999997180176,10|0,0:0|0:0,0:0:0:0:
207,253,23559,2,0,B|208:205|208:205|232:167,2,92.3999997180176,2|0|10,1:2|1:2|0:0,0:0:0:0:
308,328,24079,1,2,1:2:0:0:
130,366,24252,5,8,3:0:0:0:
111,352,24338,1,8,3:0:0:0:
95,335,24425,1,8,3:0:0:0:
82,316,24512,1,8,3:0:0:0:
72,292,24599,2,0,L|79:242,1,46.1999998590088,8|0,0:0|0:0,0:0:0:0:
228,331,24773,1,0,1:2:0:0:
232,167,24946,6,0,B|252:178|264:200|264:200|267:225|257:252,2,92.3999997180176,10|0|0,0:0|1:2|1:2,0:0:0:0:
106,167,25466,2,0,B|86:178|74:200|74:200|71:225|80:252,2,92.3999997180176,10|0|0,0:0|1:2|1:2,0:0:0:0:
170,108,25986,2,0,B|172:67|172:67|163:54|163:54|167:5,2,92.3999997180176,10|0|0,0:0|1:2|1:2,0:0:0:0:
168,224,26507,2,0,B|166:265|166:265|175:278|175:278|171:327,2,92.3999997180176,10|0|0,0:0|1:2|1:2,0:0:0:0:
232,167,27027,1,8,3:0:0:0:
251,154,27113,1,8,3:0:0:0:
273,150,27200,1,8,3:0:0:0:
295,155,27287,1,8,3:0:0:0:
312,167,27374,6,0,B|290:144|282:113|282:113|303:75|341:70,1,138.599999577026,4|0,0:0|0:0,0:0:0:0:
394,142,27721,2,0,B|404:174|393:200|393:200|362:233|363:278,1,138.599999577026,6|0,1:2|0:0,0:0:0:0:
403,339,28067,2,0,P|368:319|253:289,1,156.800001914063,10|2,0:0|1:2,0:0:0:0:
184,350,28588,1,2,1:2:0:0:
81,334,28761,1,8,0:0:0:0:
29,222,28934,6,0,P|33:160|33:124,1,78.4000009570313,2|0,1:2|0:0,0:0:0:0:
130,260,29281,1,2,1:2:0:0:
106,159,29455,2,0,B|71:140|71:140|27:144,2,78.4000009570313,10|2|2,0:0|0:0|1:2,0:0:0:0:
127,237,29975,1,0,1:2:0:0:
179,89,30148,2,0,P|219:72|227:133,1,117.600001435547,8|0,0:0|0:0,0:0:0:0:
179,89,30495,6,0,B|238:63|238:63|344:102,1,156.800001914063,2|10,1:2|0:0,0:0:0:0:
398,52,31015,2,0,P|437:40|486:39,1,78.4000009570313,2|0,0:0|1:2,0:0:0:0:
324,94,31362,2,0,P|309:136|311:181,1,78.4000009570313,2|8,1:2|0:0,0:0:0:0:
469,169,31709,6,0,B|468:145|454:124|454:124|417:173|425:226,1,156.800001914063,2|2,1:2|1:2,0:0:0:0:
350,373,32229,2,0,P|352:310|358:271,1,78.4000009570313,8|2,0:0|0:0,0:0:0:0:
370,275,32489,1,2,0:0:0:0:
381,294,32576,1,0,1:2:0:0:
312,361,32750,1,2,1:2:0:0:
168,308,32923,1,10,0:0:0:0:
244,277,33096,1,2,0:0:0:0:
81,369,33270,6,0,B|55:350|50:319|50:319|87:282|88:231,1,156.800001914063,2|10,1:2|0:0,0:0:0:0:
6,166,33790,2,0,P|0:213|8:265,1,78.4000009570313,2|0,0:0|1:2,0:0:0:0:
94,195,34137,1,2,1:2:0:0:
135,85,34310,1,10,0:0:0:0:
102,98,34484,1,2,1:2:0:0:
174,169,34657,6,0,B|221:168|249:138|249:138|290:130|326:143,1,156.800001914063,2|10,1:2|0:0,0:0:0:0:
293,289,35177,2,0,P|287:244|284:196,1,78.4000009570313,2|0,0:0|1:2,0:0:0:0:
403,294,35524,1,2,1:2:0:0:
252,347,35697,2,0,P|240:297|304:303,1,117.600001435547,10|0,0:0|0:0,0:0:0:0:
252,347,36044,6,0,B|204:363|204:363|145:332,1,117.600001435547,2|0,1:2|0:0,0:0:0:0:
117,317,36391,1,8,0:0:0:0:
117,317,36738,5,2,1:2:0:0:
194,257,36911,1,0,1:2:0:0:
78,168,37085,1,8,0:0:0:0:
238,80,37258,6,0,B|235:54|216:41|216:41|191:104|238:162,1,156.800001914063,6|0,0:0|1:2,0:0:0:0:
316,144,37778,1,8,0:0:0:0:
329,139,37865,1,8,0:0:0:0:
288,225,38039,1,8,0:0:0:0:
275,220,38126,5,0,1:2:0:0:
342,134,38299,1,0,1:2:0:0:
426,221,38472,1,8,0:0:0:0:
420,249,38558,1,8,0:0:0:0:
418,279,38645,1,8,3:0:0:0:
422,308,38732,1,8,0:0:0:0:
429,336,38819,6,0,B|353:323|379:372|309:358,1,128.099994722443,6|0,1:2|0:0,0:0:0:0:
276,339,39166,2,0,B|247:324|234:306|234:306|172:298|116:335,1,170.799992963257,10|2,0:0|1:2,0:0:0:0:
188,384,39686,1,2,1:2:0:0:
258,286,39859,1,10,0:0:0:0:
245,264,40033,1,2,0:0:0:0:
101,224,40206,6,0,B|127:165|127:165|105:82,1,128.099994722443,6|0,1:2|0:0,0:0:0:0:
98,74,40553,1,10,0:0:0:0:
228,0,40726,6,0,B|202:59|202:59|224:142,1,128.099994722443,2|0,1:2|0:0,0:0:0:0:
231,150,41073,1,2,1:2:0:0:
325,62,41247,1,10,0:0:0:0:
291,71,41420,1,2,0:0:0:0:
443,144,41593,6,0,B|437:117|420:106|420:106|385:171|402:245,1,170.799992963257,4|10,1:2|0:0,0:0:0:0:
477,270,42114,1,2,0:0:0:0:
398,227,42287,1,2,1:2:0:0:
331,321,42460,1,0,1:2:0:0:
199,351,42634,1,8,0:0:0:0:
216,176,42807,6,0,P|237:218|251:263,1,85.3999964816286,4|0,1:2|0:0,0:0:0:0:
145,107,43154,1,0,1:2:0:0:
59,195,43328,2,0,P|38:237|24:282,2,85.3999964816286,8|0|0,0:0|0:0|1:2,0:0:0:0:
151,247,43848,1,2,1:2:0:0:
46,171,44021,1,10,0:0:0:0:
49,37,44195,6,0,B|90:20|90:20|178:41,1,128.099994722443,6|0,1:2|0:0,0:0:0:0:
200,49,44541,1,2,1:2:0:0:
270,114,44715,1,10,0:0:0:0:
417,58,44888,2,0,B|394:37|394:37|375:152,1,128.099994722443,6|0,1:2|0:0,0:0:0:0:
371,158,45235,1,2,1:2:0:0:
369,248,45408,1,10,0:0:0:0:
481,327,45582,6,0,B|437:309|437:309|361:346,1,128.099994722443,6|0,1:2|0:0,0:0:0:0:
340,360,45929,1,2,1:2:0:0:
211,269,46102,2,0,B|253:264|253:264|293:287,1,85.3999964816286,10|2,0:0|1:2,0:0:0:0:
231,373,46449,2,0,B|189:378|189:378|149:355,1,85.3999964816286,10|2,0:0|1:2,0:0:0:0:
126,234,46796,1,10,0:0:0:0:
169,254,46969,1,0,1:2:0:0:
23,221,47143,6,0,B|12:176|12:176|30:123,1,85.3999964816286,4|0,1:2|1:2,0:0:0:0:
155,82,47489,2,0,P|108:91|35:20,1,128.099994722443,10|0,0:0|0:0,0:0:0:0:
29,25,47836,1,2,1:2:0:0:
94,120,48010,1,10,3:0:0:0:
228,23,48183,1,8,0:0:0:0:
317,181,48356,6,0,B|300:166|276:162|276:162|315:142|369:162|394:199,1,170.799992963257,4|0,1:2|1:2,0:0:0:0:
270,319,48877,2,0,P|267:278|267:231,1,85.3999964816286,8|2,0:0|0:0,0:0:0:0:
369,270,49223,1,2,1:2:0:0:
278,370,49397,1,10,3:0:0:0:
188,367,49570,1,6,3:0:0:0:
116,210,49744,6,0,P|158:237|83:245,1,170.799992963257,6|0,1:2|1:2,0:0:0:0:
208,165,50264,2,0,P|229:203|244:249,1,85.3999964816286,2|0,1:2|0:0,0:0:0:0:
247,266,50524,1,8,3:0:0:0:
247,284,50611,1,10,3:0:0:0:
116,210,50784,2,0,B|129:167|129:167|127:117,2,85.3999964816286,10|8|8,3:0|3:0|3:0,0:0:0:0:
8,77,51304,6,0,P|47:56|92:50,1,85.3999964816286,6|8,1:2|3:0,0:0:0:0:
113,26,51565,2,0,P|134:31|164:33,2,42.6999982408143,8|8|8,3:0|3:0|3:0,0:0:0:0:
151,105,51825,1,10,3:0:0:0:
127,126,52171,5,6,1:2:0:0:
151,105,52345,1,2,0:0:0:0:
189,99,52518,1,2,0:0:0:0:
193,273,52692,6,0,P|190:226|186:180,1,92.3999997180176,14|0,0:0|0:0,0:0:0:0:
352,248,53039,2,0,P|347:294|345:340,1,92.3999997180176,10|2,0:0|0:0,0:0:0:0:
267,138,53385,2,0,P|264:91|260:45,1,92.3999997180176,10|0,0:0|1:2,0:0:0:0:
368,143,53732,1,10,0:0:0:0:
269,224,53906,1,2,1:2:0:0:
440,201,54079,6,0,B|428:285|473:250|457:334,1,138.599999577026,10|0,0:0|0:0,0:0:0:0:
444,359,54426,1,8,0:0:0:0:
269,318,54599,1,0,1:2:0:0:
354,266,54773,2,0,P|349:312|347:358,1,92.3999997180176,8|2,0:0|1:2,0:0:0:0:
186,268,55119,2,0,P|183:221|179:175,1,92.3999997180176,10|2,0:0|1:2,0:0:0:0:
0,362,55466,6,0,B|59:359|59:359|79:345|79:345|133:340,1,138.599999577026,10|0,0:0|0:0,0:0:0:0:
165,348,55813,1,8,0:0:0:0:
93,257,55986,1,2,1:2:0:0:
192,175,56160,2,0,P|189:221|185:267,1,92.3999997180176,10|0,0:0|1:2,0:0:0:0:
83,150,56507,2,0,P|78:103|76:57,1,92.3999997180176,10|0,0:0|1:2,0:0:0:0:
276,106,56854,5,10,0:0:0:0:
160,73,57027,1,2,1:2:0:0:
276,106,57200,1,8,0:0:0:0:
392,139,57373,1,2,1:2:0:0:
276,106,57547,2,0,B|266:85|266:60|266:60|279:38|298:29,1,92.3999997180176,8|2,0:0|1:2,0:0:0:0:
364,203,57894,5,8,0:0:0:0:
380,231,57980,1,8,0:0:0:0:
360,257,58067,1,8,3:0:0:0:
329,249,58154,1,8,0:0:0:0:
324,216,58240,5,2,1:2:0:0:
392,139,58414,1,2,0:0:0:0:
471,199,58588,1,2,0:0:0:0:
471,199,58761,1,2,1:2:0:0:
366,137,58934,1,10,0:0:0:0:
319,3,59108,1,2,0:0:0:0:
338,13,59455,5,2,0:0:0:0:
339,13,59541,1,2,0:0:0:0:
340,14,59628,5,0,1:2:0:0:
279,73,59802,1,10,0:0:0:0:
173,94,59975,1,2,1:2:0:0:
88,35,60148,1,2,1:2:0:0:
198,97,60322,1,10,0:0:0:0:
182,245,60495,1,2,1:2:0:0:
173,219,60842,5,2,1:2:0:0:
335,264,61015,2,0,P|282:296|175:225,1,184.799999436035,6|2,1:2|0:0,0:0:0:0:
266,172,61536,1,2,1:2:0:0:
429,202,61709,1,8,0:0:0:0:
447,224,62056,5,0,0:0:0:0:
348,144,62229,1,0,1:2:0:0:
438,29,62403,6,0,B|442:78|442:78|422:131,1,92.3999997180176,2|8,0:0|0:0,0:0:0:0:
261,59,62750,2,0,P|304:26|282:81,1,138.599999577026,2|0,0:0|0:0,0:0:0:0:
261,59,63096,2,0,B|208:43|208:43|120:74,1,138.599999577026,10|8,3:0|0:0,0:0:0:0:
105,50,63443,2,0,L|48:73,3,46.1999998590088,2|0|8|8,0:0|0:0|0:0|0:0,0:0:0:0:
129,70,63790,5,6,1:2:0:0:
211,145,63963,1,2,1:2:0:0:
92,246,64137,2,0,B|99:218|123:207|123:207|166:228|194:286,1,138.599999577026,8|0,0:0|0:0,0:0:0:0:
182,306,64484,1,2,1:2:0:0:
258,236,64657,1,2,1:2:0:0:
381,218,64830,1,10,0:0:0:0:
485,375,65004,5,6,1:2:0:0:
457,369,65351,1,6,1:2:0:0:
463,341,65697,1,6,1:2:0:0:
491,347,66044,1,6,1:2:0:0:
463,341,66565,6,0,B|411:339|375:299|375:299|353:339|310:350,1,184.799999436035,4|8,1:0|0:0,0:0:0:0:
193,353,67085,1,2,0:0:0:0:
205,250,67258,2,0,B|255:242|255:242|299:271,2,92.3999997180176,2|0|8,1:2|1:2|0:0,0:0:0:0:
193,353,67778,1,2,0:0:0:0:
104,289,67952,5,2,1:2:0:0:
157,181,68125,1,2,0:0:0:0:
21,83,68299,1,8,0:0:0:0:
79,196,68472,1,2,0:0:0:0:
199,99,68645,2,0,B|175:102|154:91|154:91|135:102|110:104,2,92.3999997180176,2|0|8,1:2|1:2|0:0,0:0:0:0:
277,30,69166,1,2,0:0:0:0:
365,133,69339,6,0,B|394:170|394:170|377:21,1,184.799999436035,2|10,1:2|0:0,0:0:0:0:
290,114,69859,2,0,B|274:157|274:157|306:202,1,92.3999997180176,2|0,0:0|1:2,0:0:0:0:
469,236,70206,2,0,P|423:244|387:271,1,92.3999997180176,2|8,1:2|0:0,0:0:0:0:
275,306,70553,6,0,B|358:305|316:346|405:344,1,138.599999577026,2|0,1:2|0:0,0:0:0:0:
478,350,70900,2,0,P|408:361|337:378,1,138.599999577026,2|0,1:2|0:0,0:0:0:0:
275,306,71247,2,0,P|271:251|194:203,1,138.599999577026,2|0,1:2|0:0,0:0:0:0:
180,201,71593,2,0,P|189:227|205:255,1,46.1999998590088,0|0,1:2|0:0,0:0:0:0:
245,107,71767,1,8,0:0:0:0:
164,121,71940,1,8,3:0:0:0:
329,161,72114,6,0,B|451:160|394:207|502:211,1,184.799999436035,6|8,1:2|0:0,0:0:0:0:
447,95,72634,1,2,0:0:0:0:
366,239,72807,2,0,P|374:288|379:340,2,92.3999997180176,2|0|8,1:2|1:2|0:0,0:0:0:0:
262,212,73328,1,2,0:0:0:0:
197,292,73501,6,0,P|242:296|288:303,1,92.3999997180176,2|2,1:2|0:0,0:0:0:0:
151,196,73848,2,0,P|105:202|59:207,1,92.3999997180176,10|2,0:0|0:0,0:0:0:0:
222,111,74195,1,2,1:2:0:0:
262,212,74368,1,0,1:2:0:0:
132,102,74541,1,10,0:0:0:0:
214,27,74715,1,2,0:0:0:0:
309,134,74888,6,0,P|354:138|400:142,1,92.3999997180176,6|8,1:2|0:0,0:0:0:0:
434,125,75148,1,8,0:0:0:0:
434,125,75235,1,10,0:0:0:0:
292,212,75408,1,8,0:0:0:0:
415,323,75582,1,10,3:0:0:0:
401,292,75668,1,8,3:0:0:0:
369,290,75755,1,4,3:0:0:0:
352,318,75842,1,4,3:0:0:0:
366,345,75929,6,0,B|228:288|274:377|144:313,1,230.999999295044,6|0,1:2|0:0,0:0:0:0:
124,284,76449,1,8,3:0:0:0:
221,266,76622,2,0,P|221:312|227:357,1,92.3999997180176,8|0,0:0|0:0,0:0:0:0:
253,355,76882,1,8,0:0:0:0:
253,355,76969,1,8,0:0:0:0:
146,261,77143,1,8,0:0:0:0:
40,340,77316,1,8,0:0:0:0:
124,284,77489,1,8,0:0:0:0:
20,197,77663,6,0,P|17:150|16:104,1,92.3999997180176,2|0,1:2|1:2,0:0:0:0:
93,21,78010,2,0,B|220:30|148:69|263:78,1,184.799999436035,10|2,0:0|1:2,0:0:0:0:
426,23,78530,1,0,1:2:0:0:
345,9,78703,6,0,B|345:59|377:92|377:92|389:140|360:181,1,184.799999436035,10|2,0:0|1:2,0:0:0:0:
250,178,79223,1,0,1:2:0:0:
356,115,79397,1,10,0:0:0:0:
401,264,79570,2,0,P|355:258|309:255,1,92.3999997180176,2|0,0:0|1:2,0:0:0:0:
462,193,79917,1,2,1:2:0:0:
441,350,80091,1,10,0:0:0:0:
325,384,80264,6,0,L|204:377,1,92.3999997180176,6|0,1:2|0:0,0:0:0:0:
139,279,80611,1,2,1:2:0:0:
283,254,80784,1,10,0:0:0:0:
204,372,80958,1,2,0:0:0:0:
103,270,81131,1,2,1:2:0:0:
204,166,81304,1,2,1:2:0:0:
139,279,81478,1,10,0:0:0:0:
13,217,81651,2,0,L|9:156,1,46.1999998590088,2|2,0:0|0:0,0:0:0:0:
101,64,81825,5,2,1:2:0:0:
22,297,81998,1,2,1:2:0:0:
49,282,82345,5,2,1:2:0:0:
57,313,82692,1,6,1:2:0:0:
121,353,82865,1,2,0:0:0:0:
184,285,83039,2,0,L|127:277,1,46.1999998590088,10|8,0:0|0:0,0:0:0:0:
263,338,83212,5,2,1:2:0:0:
263,338,83559,2,0,P|269:263|278:189,1,149.099992492218,14|0,0:0|0:0,0:0:0:0:
310,169,83906,2,0,P|301:224|296:284,1,99.3999949948123,10|8,3:0|3:0,0:0:0:0:
296,267,84166,1,8,0:0:0:0:
296,267,84252,1,8,0:0:0:0:
408,195,84426,6,0,P|395:144|387:82,1,99.3999949948123,6|0,1:2|0:0,0:0:0:0:
489,17,84773,1,2,1:2:0:0:
359,93,84946,1,10,0:0:0:0:
173,16,85119,2,0,P|222:7|271:2,1,99.3999949948123,6|0,1:2|0:0,0:0:0:0:
235,131,85466,1,0,1:2:0:0:
94,71,85640,1,10,0:0:0:0:
194,106,85813,1,2,1:2:0:0:
235,131,85900,1,0,1:2:0:0:
240,180,85986,6,0,P|232:254|227:348,1,149.099992492218,10|0,0:0|0:0,0:0:0:0:
240,354,86333,1,10,0:0:0:0:
392,310,86507,2,0,B|370:264|370:264|375:215,2,99.3999949948123,2|8|0,1:2|0:0|1:2,0:0:0:0:
476,170,87027,1,10,0:0:0:0:
338,121,87200,1,2,1:2:0:0:
430,9,87374,6,0,L|459:176,1,149.099992492218,8|0,0:0|0:0,0:0:0:0:
476,170,87721,2,0,P|446:112|350:112,1,149.099992492218,10|0,0:0|0:0,0:0:0:0:
338,121,88067,2,0,L|219:133,1,99.3999949948123,8|2,0:0|1:2,0:0:0:0:
132,36,88414,1,10,0:0:0:0:
273,50,88588,1,2,1:2:0:0:
132,165,88761,6,0,P|141:116|146:56,1,99.3999949948123,10|0,0:0|1:2,0:0:0:0:
299,203,89108,2,0,P|303:252|312:301,1,99.3999949948123,10|0,0:0|1:2,0:0:0:0:
40,331,89455,2,0,P|49:282|54:222,1,99.3999949948123,10|0,0:0|1:2,0:0:0:0:
310,326,89802,2,0,P|229:331|136:343,1,149.099992492218,10|0,0:0|0:0,0:0:0:0:
143,362,90148,5,2,1:2:0:0:
203,258,90495,2,0,P|250:272|299:280,1,99.3999949948123,4|2,1:2|0:0,0:0:0:0:
411,236,90842,2,0,L|475:229,1,49.6999974974061,10|8,3:0|3:0,0:0:0:0:
428,360,91015,1,10,3:0:0:0:
428,360,91102,1,8,0:0:0:0:
428,360,91189,2,0,L|363:352,1,49.6999974974061,6|0,3:0|0:0,0:0:0:0:
507,298,91362,2,0,L|514:361,1,49.6999974974061,10|0,3:0|1:2,0:0:0:0:
382,240,91536,5,6,1:2:0:0:
449,130,91709,1,2,1:2:0:0:
355,33,91882,1,2,1:2:0:0:
282,146,92056,2,0,B|237:149|237:149|227:144|227:144|184:148,1,99.3999949948123,10|0,0:0|1:2,0:0:0:0:
80,234,92403,2,0,B|124:230|124:230|135:236|135:236|177:231,1,99.3999949948123,2|8,1:2|0:0,0:0:0:0:
101,37,92750,6,0,P|92:92|80:148,1,99.3999949948123,2|0,1:2|1:2,0:0:0:0:
282,339,93096,2,0,P|272:290|264:241,1,99.3999949948123,10|0,0:0|0:0,0:0:0:0:
58,352,93443,2,0,P|132:356|237:368,1,149.099992492218,6|0,1:2|0:0,0:0:0:0:
246,357,93790,1,0,1:2:0:0:
368,381,93963,1,8,0:0:0:0:
398,359,94049,1,8,0:0:0:0:
420,330,94136,1,8,0:0:0:0:
432,295,94223,1,8,0:0:0:0:
432,257,94310,6,0,P|428:208|425:80,2,156.800001914063,6|8|0,1:2|0:0|1:2,0:0:0:0:
511,138,95177,1,0,1:2:0:0:
400,71,95351,2,0,B|331:76|365:114|296:118,1,117.600001435547,10|0,0:0|0:0,0:0:0:0:
266,97,95697,6,0,P|227:91|169:86,2,78.4000009570313,2|0|8,1:2|0:0|0:0,0:0:0:0:
206,186,96218,2,0,P|126:198|25:218,1,156.800001914063,2|0,0:0|1:2,0:0:0:0:
164,282,96738,2,0,P|204:291|271:307,1,78.4000009570313,8|0,0:0|0:0,0:0:0:0:
335,251,97085,6,0,P|285:316|250:401,2,156.800001914063,6|8|0,1:2|0:0|0:0,0:0:0:0:
394,349,97952,1,0,1:2:0:0:
240,299,98125,2,0,L|226:155,1,117.600001435547,10|0,0:0|0:0,0:0:0:0:
248,148,98472,5,2,1:2:0:0:
134,196,98645,1,0,0:0:0:0:
76,88,98819,2,0,L|164:113,1,78.4000009570313,8|2,0:0|0:0,0:0:0:0:
236,41,99166,1,0,1:2:0:0:
248,148,99339,2,0,L|324:135,1,39.2000004785156,2|0,1:2|0:0,0:0:0:0:
337,62,99513,2,0,L|413:49,1,39.2000004785156,10|0,0:0|0:0,0:0:0:0:
474,166,99686,2,0,L|550:153,1,39.2000004785156,10|8,3:0|3:0,0:0:0:0:
512,86,99859,6,0,B|448:99|448:99|409:124|409:124|347:138,2,156.800001914063,6|8|0,1:2|0:0|1:2,0:0:0:0:
484,207,100726,1,0,1:2:0:0:
353,211,100900,2,0,L|365:129,1,78.4000009570313,10|0,0:0|0:0,0:0:0:0:
430,299,101247,6,0,B|330:284|381:328|267:327,1,156.800001914063,2|8,1:2|0:0,0:0:0:0:
202,256,101767,2,0,P|161:250|109:248,1,78.4000009570313,2|0,0:0|0:0,0:0:0:0:
37,304,102114,1,0,1:2:0:0:
0,181,102287,2,0,P|41:175|93:173,1,78.4000009570313,8|0,0:0|0:0,0:0:0:0:
213,140,102634,6,0,P|202:102|193:63,1,78.4000009570313,6|0,1:2|0:0,0:0:0:0:
202,256,102981,2,0,P|193:294|182:332,1,78.4000009570313,10|0,0:0|0:0,0:0:0:0:
302,141,103328,2,0,P|291:103|282:64,1,78.4000009570313,0|0,0:0|0:0,0:0:0:0:
291,257,103675,2,0,P|282:295|271:333,1,78.4000009570313,10|0,0:0|0:0,0:0:0:0:
370,203,104021,6,0,L|505:201,1,117.600001435547,2|0,1:2|0:0,0:0:0:0:
504,228,104368,1,10,0:0:0:0:
389,121,104541,1,2,1:2:0:0:
291,257,104715,1,8,3:0:0:0:
271,259,104801,1,8,3:0:0:0:
252,261,104888,1,8,3:0:0:0:
232,263,104975,1,8,3:0:0:0:
215,246,105062,5,8,0:0:0:0:
195,243,105148,1,4,3:0:0:0:
176,241,105235,1,0,3:2:0:0:
156,239,105322,1,4,3:0:0:0:
135,235,105408,5,10,0:0:0:0:
70,298,105582,1,0,1:2:0:0:
160,321,105755,1,0,1:2:0:0:
227,208,105929,5,10,0:0:0:0:
162,145,106103,1,0,1:0:0:0:
252,122,106276,1,0,1:2:0:0:
319,235,106449,5,10,0:0:0:0:
254,298,106623,1,0,1:0:0:0:
344,321,106796,1,0,1:2:0:0:
411,208,106969,5,10,0:0:0:0:
346,145,107143,1,0,1:2:0:0:
436,122,107316,1,0,1:2:0:0:
346,145,107489,5,8,3:0:0:0:
297,138,107575,1,8,3:0:0:0:
248,131,107662,1,8,3:0:0:0:
200,124,107749,1,8,3:0:0:0:
151,118,107836,2,0,L|274:165,1,117.600001435547,4|0,0:0|0:0,0:0:0:0:
290,171,108183,5,2,1:2:0:0:
186,337,108356,1,2,1:2:0:0:
