osu file format v14

[General]
AudioFilename: ninelie.mp3
AudioLeadIn: 0
PreviewTime: 157760
Countdown: 0
SampleSet: Soft
StackLeniency: 0.5
Mode: 0
LetterboxInBreaks: 0
WidescreenStoryboard: 1

[Editor]
Bookmarks: 89812,92603,181905,184696
DistanceSpacing: 1.4
BeatDivisor: 8
GridSize: 4
TimelineZoom: 1

[Metadata]
Title:ninelie
TitleUnicode:ninelie
Artist:Aimer with chelly (EGOIST)
ArtistUnicode:Aimer with chelly (EGOIST)
Creator:jonathanlfj
Version:captin's Insane
Source:甲鉄城のカバネリ
Tags:CSLM captin1 Trust LunarSakuya 澤野弘之 Sawano Hiroyuki Kabaneri of the Iron Fortress koutetsujou no ed ending
BeatmapID:1156558
BeatmapSetID:443879

[Difficulty]
HPDrainRate:6
CircleSize:4.2
OverallDifficulty:8
ApproachRate:9
SliderMultiplier:3.59999990463257
SliderTickRate:1

[Events]
//Background and Video events
0,0,"a.jpg",0,0
//Break Periods
2,89849,92015
2,181943,184101
2,232168,234333
//Storyboard Layer 0 (Background)
//Storyboard Layer 1 (Fail)
//Storyboard Layer 2 (Pass)
//Storyboard Layer 3 (Foreground)
//Storyboard Sound Samples

[TimingPoints]
11685,697.674418604651,4,2,1,40,1,0
11685,-142.857142857143,4,2,1,40,0,0
22847,-117.647058823529,4,2,1,50,0,0
45173,-166.666666666667,4,2,1,40,0,0
56336,-200,4,2,1,40,0,0
66103,-142.857142857143,4,2,1,50,0,0
66626,-125,4,2,1,60,0,0
67498,-111.111111111111,4,2,1,70,0,0
92615,-100,4,2,1,70,0,1
92702,-100,4,2,1,70,0,0
114940,-111.111111111111,4,2,1,70,0,0
137266,-142.857142857143,4,2,1,50,0,0
148429,-200,4,2,1,40,0,0
158196,-125,4,2,1,50,0,0
158719,-111.111111111111,4,2,1,60,0,0
159243,-100,4,2,1,70,0,0
159591,-90.9090909090909,4,2,1,80,0,1
181917,-100,4,2,1,70,0,0
184701,697.674418604651,4,2,1,70,1,0
208072,-133.333333333333,4,2,1,50,0,0
208421,-117.647058823529,4,2,1,50,0,0
208944,-105.263157894737,4,2,1,60,0,0
209467,-95.2380952380952,4,2,1,70,0,0
209817,-86.9565217391304,4,2,1,80,0,1
232142,-100,4,2,1,70,0,0
234933,-90.9090909090909,4,2,1,80,0,1
246096,-111.111111111111,4,2,1,70,0,0
251676,-125,4,2,1,60,0,0

[Colours]
Combo1 : 249,47,47
Combo2 : 254,151,37
Combo3 : 138,83,253
Combo4 : 254,120,231

[HitObjects]
162,199,11685,6,0,P|97:182|29:130,1,125.999992816925,2|0,0:0|0:0,0:0:0:0:
244,155,12208,1,0,0:0:0:0:
308,223,12382,2,0,L|314:289,2,62.9999964084626,2|0|2,0:0|0:0|0:0,0:0:0:0:
392,22,13080,2,0,L|376:153,1,125.999992816925,2|0,0:0|0:0,0:0:0:0:
430,223,13603,1,0,0:0:0:0:
377,297,13778,2,0,L|393:370,1,62.9999964084626,2|0,0:0|0:0,0:0:0:0:
298,331,14126,2,0,L|284:269,1,62.9999964084626,0|2,0:0|0:0,0:0:0:0:
283,171,14475,6,0,P|224:198|143:202,1,125.999992816925,2|0,0:0|0:0,0:0:0:0:
89,151,14998,1,0,0:0:0:0:
25,219,15173,2,0,L|41:283,2,62.9999964084626,2|0|2,0:0|0:0|0:0,0:0:0:0:
81,68,15871,2,0,B|120:51|120:51|202:62,1,125.999992816925,2|0,0:0|0:0,0:0:0:0:
248,155,16394,1,0,0:0:0:0:
188,236,16568,2,0,L|111:245,1,62.9999964084626,2|0,0:0|0:0,0:0:0:0:
254,303,16917,2,0,L|331:312,1,62.9999964084626,0|2,0:0|0:0,0:0:0:0:
494,278,17266,6,0,P|427:238|365:263,1,125.999992816925,2|0,0:0|0:0,0:0:0:0:
316,310,17789,1,0,0:0:0:0:
259,234,17964,2,0,L|254:167,2,62.9999964084627,2|0|2,0:0|0:0|0:0,0:0:0:0:
46,191,18661,2,0,L|190:201,1,125.999992816925,2|0,0:0|0:0,0:0:0:0:
257,139,19185,1,0,0:0:0:0:
190,51,19359,2,0,L|121:60,1,62.9999964084627,2|0,0:0|0:0,0:0:0:0:
184,221,19708,2,0,L|253:230,1,62.9999964084627,0|2,0:0|0:0,0:0:0:0:
343,360,20057,6,0,P|379:295|357:238,1,125.999992816925,2|0,0:0|0:0,0:0:0:0:
312,165,20580,1,0,0:0:0:0:
357,79,20754,2,0,L|441:90,2,62.9999964084627,2|0|2,0:0|0:0|0:0,0:0:0:0:
215,178,21452,2,0,P|140:171|79:158,1,125.999992816925,2|0,0:0|0:0,0:0:0:0:
19,96,21975,1,0,0:0:0:0:
0,189,22150,2,0,L|11:257,1,62.9999964084627,2|0,0:0|0:0,0:0:0:0:
107,360,22498,1,0,0:0:0:0:
183,300,22673,1,2,0:0:0:0:
260,355,22847,6,0,L|418:335,1,152.999998865128,2|0,0:3|0:0,0:0:0:0:
476,197,23371,1,2,0:0:0:0:
337,246,23545,2,0,L|429:251,1,76.4999994325638,0|0,0:0|0:0,0:0:0:0:
480,86,23894,2,0,P|441:108|412:129,1,76.4999994325638,0|2,0:0|0:0,0:0:0:0:
422,290,24243,2,0,P|356:338|274:317,1,152.999998865128,0|0,0:0|0:0,0:0:0:0:
140,348,24766,1,2,0:0:0:0:
140,348,24940,2,0,P|149:306|154:246,1,76.4999994325638,0|0,0:0|0:0,0:0:0:0:
183,60,25289,2,0,P|187:97|195:135,1,76.4999994325638,0|2,0:0|0:0,0:0:0:0:
305,280,25638,6,0,L|120:271,1,152.999998865128,2|0,0:0|0:0,0:0:0:0:
53,308,26161,1,2,0:0:0:0:
177,171,26336,2,0,P|206:187|246:204,1,76.4999994325638,0|0,0:0|0:0,0:0:0:0:
440,173,26685,2,0,P|402:180|365:190,1,76.4999994325638,0|2,0:0|0:0,0:0:0:0:
166,325,27033,2,0,P|195:309|235:292,1,76.4999994325638,0|0,0:0|0:0,0:0:0:0:
466,321,27382,2,0,P|389:341|330:299,1,152.999998865128,2|0,0:0|0:0,0:0:0:0:
317,129,27905,1,0,0:0:0:0:
402,182,28080,2,0,L|405:268,1,76.4999994325638,0|2,0:0|0:0,0:0:0:0:
227,341,28429,6,0,L|232:177,1,152.999998865128,2|0,0:0|0:0,0:0:0:0:
199,80,28952,1,2,0:0:0:0:
143,186,29126,2,0,P|93:196|59:197,1,76.4999994325638,0|0,0:0|0:0,0:0:0:0:
296,119,29475,2,0,P|334:121|371:130,1,76.4999994325638,0|2,0:0|0:0,0:0:0:0:
384,343,29824,2,0,B|347:321|347:321|329:202,1,152.999998865128,0|0,0:0|0:0,0:0:0:0:
387,110,30347,1,2,0:0:0:0:
468,170,30522,2,0,P|460:212|449:246,1,76.4999994325638,0|0,0:0|0:0,0:0:0:0:
330,362,30871,2,0,P|318:325|312:288,1,76.4999994325638,0|2,0:0|0:0,0:0:0:0:
412,220,31219,6,0,L|257:203,1,152.999998865128,2|0,0:0|0:0,0:0:0:0:
162,134,31743,2,0,P|148:83|145:49,1,76.4999994325638,2|0,0:0|0:0,0:0:0:0:
241,23,32091,1,0,0:0:0:0:
224,231,32266,2,0,L|145:237,1,76.4999994325638,0|2,0:0|0:0,0:0:0:0:
40,362,32615,2,0,P|17:323|6:290,1,76.4999994325638,0|0,0:0|0:0,0:0:0:0:
97,90,32964,2,0,L|87:176,1,76.4999994325638,0|2,0:0|0:0,0:0:0:0:
228,335,33312,1,2,0:0:0:0:
100,262,33487,1,0,0:0:0:0:
264,186,33661,2,0,P|306:192|344:202,1,76.4999994325638,0|2,0:0|0:0,0:0:0:0:
494,108,34010,6,0,L|338:114,1,152.999998865128,2|0,0:0|0:0,0:0:0:0:
283,28,34533,1,2,0:0:0:0:
264,186,34708,2,0,P|274:232|283:263,1,76.4999994325638,0|0,0:0|0:0,0:0:0:0:
153,347,35057,2,0,P|163:310|171:272,1,76.4999994325638,0|2,0:0|0:0,0:0:0:0:
145,151,35405,2,0,B|105:175|105:175|0:163,1,152.999998865128,0|0,0:0|0:0,0:0:0:0:
133,54,35929,1,2,0:0:0:0:
165,174,36103,2,0,L|154:256,1,76.4999994325638,0|0,0:0|0:0,0:0:0:0:
259,294,36452,2,0,L|270:376,1,76.4999994325638,0|2,0:0|0:0,0:0:0:0:
499,255,36801,6,0,P|466:277|352:243,1,152.999998865128,2|0,0:0|0:0,0:0:0:0:
318,153,37324,1,2,0:0:0:0:
400,80,37498,2,0,P|443:95|472:111,1,76.4999994325638,0|0,0:0|0:0,0:0:0:0:
223,43,37847,2,0,P|189:60|152:72,1,76.4999994325638,0|2,0:0|0:0,0:0:0:0:
349,179,38196,2,0,P|358:227|363:268,1,76.4999994325638,0|0,0:0|0:0,0:0:0:0:
186,347,38545,2,0,P|194:271|217:198,1,152.999998865128,2|0,0:0|0:0,0:0:0:0:
348,145,39068,1,0,0:0:0:0:
405,273,39243,2,0,L|312:262,1,76.4999994325638,0|2,0:0|0:0,0:0:0:0:
162,277,39591,6,0,L|2:257,1,152.999998865128,2|0,0:0|0:0,0:0:0:0:
150,308,40115,1,2,0:0:0:0:
239,229,40289,2,0,P|247:188|251:148,1,76.4999994325638,0|0,0:0|0:0,0:0:0:0:
127,51,40638,2,0,P|131:89|138:126,1,76.4999994325638,0|2,0:0|0:0,0:0:0:0:
231,251,40987,2,0,L|389:246,1,152.999998865128,2|2,0:0|0:0,0:0:0:0:
464,191,41510,1,0,0:0:0:0:
509,275,41685,2,0,P|504:321|497:356,1,76.4999994325638,0|0,0:0|0:0,0:0:0:0:
324,288,42033,2,0,P|329:334|336:369,1,76.4999994325638,0|2,0:0|0:0,0:0:0:0:
384,222,42382,6,0,B|396:179|396:179|384:60,1,152.999998865128,2|0,0:0|0:0,0:0:0:0:
295,34,42905,2,0,P|249:35|215:41,1,76.4999994325638,2|0,0:0|0:0,0:0:0:0:
97,176,43254,1,0,0:0:0:0:
167,231,43429,2,0,L|253:241,1,76.4999994325638,0|2,0:0|0:0,0:0:0:0:
323,170,43778,6,0,P|337:218|332:327,1,152.999998865128,0|0,0:0|0:0,0:0:0:0:
128,325,44301,1,2,0:0:0:0:
128,325,44475,2,0,L|49:335,1,76.4999994325638,2|0,0:0|0:0,0:0:0:0:
0,170,44824,2,0,L|79:180,1,76.4999994325638,0|2,0:0|0:0,0:0:0:0:
147,106,45173,6,0,P|192:117|184:257,1,215.999987686158,2|0,0:3|0:0,0:0:0:0:
34,342,46219,2,0,L|99:353,1,53.9999969215394,0|0,0:0|0:0,0:0:0:0:
174,288,46568,2,0,P|200:308|286:312,1,107.999993843079,2|0,0:0|0:0,0:0:0:0:
347,249,47266,2,0,L|335:121,1,107.999993843079,2|0,0:0|0:0,0:0:0:0:
148,35,47964,6,0,L|159:138,1,80.9999953823091,2|0,0:3|0:0,0:0:0:0:
222,189,48487,2,0,P|183:233|80:229,1,161.999990764618,0|0,0:0|0:0,0:0:0:0:
292,115,49359,2,0,L|402:131,2,107.999993843079,2|0|2,0:0|0:0|0:0,0:0:0:0:
218,35,50405,1,0,0:0:0:0:
246,215,50754,6,0,L|232:304,1,80.9999953823091,2|0,0:3|0:0,0:0:0:0:
126,319,51278,2,0,B|187:348|214:309|300:351,1,161.999990764618,0|0,0:0|0:0,0:0:0:0:
376,289,52150,2,0,P|392:250|401:184,1,107.999993843079,2|0,0:0|0:0,0:0:0:0:
324,114,52847,2,0,L|210:121,1,107.999993843079,2|0,0:0|0:0,0:0:0:0:
30,91,53545,6,0,P|62:92|113:113,1,80.9999953823091,2|0,0:3|0:0,0:0:0:0:
159,276,54068,2,0,B|119:246|119:246|100:131,1,161.999990764618,0|0,0:0|0:0,0:0:0:0:
191,64,54940,2,0,P|245:62|300:75,1,107.999993843079,2|0,0:0|0:0,0:0:0:0:
256,195,55638,2,0,B|292:214|292:214|314:199|314:199|360:215|414:199,1,161.999990764618,2|0,0:0|0:0,0:0:0:0:
437,177,56336,6,0,B|457:244|457:244|428:270|428:270|451:300|462:343,1,179.999995231629,2|0,0:3|0:0,0:0:0:0:
259,287,57731,2,0,B|216:265|216:265|149:266|83:312,1,179.999995231629,2|0,0:0|0:0,0:0:0:0:
173,179,59126,6,0,B|187:155|187:155|184:100,1,67.4999982118607,2|0,0:3|0:0,0:0:0:0:
115,74,59650,2,0,P|155:39|268:129,1,224.999994039536
242,289,61219,1,0,0:0:0:0:
497,199,61917,6,0,P|468:193|425:200,1,67.4999982118607,2|0,0:3|0:0,0:0:0:0:
396,220,62440,2,0,P|419:193|323:68,1,224.999994039536
185,162,64010,2,0,L|88:151,1,89.9999976158143,2|0,0:0|0:0,0:0:0:0:
13,219,64708,1,2,0:3:0:0:
219,144,65754,6,0,P|235:173|244:199,1,44.9999988079071,0|0,0:0|0:0,0:0:0:0:
216,274,66103,2,0,P|251:289|337:244,1,125.999992816925,2|0,0:0|0:0,0:0:0:0:
396,157,66626,2,0,B|367:189|367:189|351:293,1,143.999996185303,2|0,0:0|0:0,0:0:0:0:
372,317,67150,2,0,L|454:311,1,71.9999980926514,2|0,0:0|0:0,0:0:0:0:
486,120,67498,6,0,P|440:131|309:94,1,161.999990764618,2|0,0:3|0:0,0:0:0:0:
256,45,68022,1,2,0:0:0:0:
244,227,68196,2,0,L|328:213,1,80.9999953823091,0|0,0:0|0:0,0:0:0:0:
132,171,68545,2,0,L|48:157,1,80.9999953823091,0|2,0:0|0:0,0:0:0:0:
205,52,68894,2,0,P|233:103|210:225,1,161.999990764618,2|0,0:0|0:0,0:0:0:0:
106,246,69417,1,0,0:0:0:0:
270,141,69591,2,0,P|315:130|359:128,1,80.9999953823091,2|0,0:0|0:0,0:0:0:0:
448,312,69940,2,0,P|413:285|382:249,1,80.9999953823091,0|2,0:0|0:0,0:0:0:0:
433,18,70289,6,0,L|415:191,1,161.999990764618,2|0,0:0|0:0,0:0:0:0:
299,261,70812,1,2,0:0:0:0:
188,211,70987,2,0,P|131:210|94:217,1,80.9999953823091,2|0,0:0|0:0,0:0:0:0:
276,149,71336,1,0,0:0:0:0:
216,326,71510,2,0,B|164:336|164:336|110:323|110:323|49:336,1,161.999990764618,2|0,0:0|0:0,0:0:0:0:
72,141,72033,2,0,P|93:178|110:223,1,80.9999953823091,0|0,0:0|0:0,0:0:0:0:
212,363,72382,2,0,P|231:309|251:267,1,80.9999953823091,2|0,0:0|0:0,0:0:0:0:
447,190,72731,2,0,P|411:209|372:221,1,80.9999953823091,0|2,0:0|0:0,0:0:0:0:
276,149,73080,5,2,0:3:0:0:
277,34,73254,1,0,0:0:0:0:
361,241,73429,2,0,P|348:287|333:329,1,80.9999953823091,0|2,0:0|0:0,0:0:0:0:
146,187,73778,2,0,P|159:233|174:275,1,80.9999953823091,0|0,0:0|0:0,0:0:0:0:
300,71,74126,2,0,P|287:117|272:159,1,80.9999953823091,0|2,0:0|0:0,0:0:0:0:
118,336,74475,2,0,L|28:325,1,80.9999953823091,0|0,0:0|0:0,0:0:0:0:
220,247,74824,2,0,P|240:284|255:333,1,80.9999953823091,2|0,0:0|0:0,0:0:0:0:
43,186,75173,2,0,P|55:147|75:112,1,80.9999953823091,2|0,0:0|0:0,0:0:0:0:
311,117,75522,2,0,L|216:129,1,80.9999953823091,0|0,0:0|0:0,0:0:0:0:
29,42,75871,6,0,P|93:35|159:120,1,161.999990764618,2|0,0:0|0:0,0:0:0:0:
119,304,76394,1,0,0:0:0:0:
43,239,76568,2,0,L|51:153,1,80.9999953823091,2|0,0:0|0:0,0:0:0:0:
16,360,76917,1,0,0:0:0:0:
192,212,77091,2,0,B|243:203|243:203|299:219|299:219|363:207,1,161.999990764618,2|0,0:0|0:0,0:0:0:0:
489,97,77615,2,0,P|445:79|402:73,1,80.9999953823091,2|0,0:0|0:0,0:0:0:0:
277,310,77964,1,0,0:0:0:0:
426,198,78138,1,0,0:0:0:0:
309,49,78312,2,0,L|212:57,1,80.9999953823091,0|2,0:0|0:0,0:0:0:0:
98,249,78661,6,0,P|44:216|41:118,1,161.999990764618,2|0,0:3|0:0,0:0:0:0:
188,196,79184,1,2,0:0:0:0:
164,352,79359,1,0,0:0:0:0:
155,170,79533,1,0,0:0:0:0:
281,277,79708,2,0,L|267:363,1,80.9999953823091,0|2,0:0|0:0,0:0:0:0:
395,210,80057,2,0,P|436:227|472:238,1,80.9999953823091,2|0,0:0|0:0,0:0:0:0:
191,258,80405,2,0,P|152:270|115:285,1,80.9999953823091,0|0,0:0|0:0,0:0:0:0:
327,130,80754,2,0,P|345:78|352:50,1,80.9999953823091,2|0,0:0|0:0,0:0:0:0:
186,281,81103,2,0,P|196:320|210:358,1,80.9999953823091,0|2,0:0|0:0,0:0:0:0:
446,330,81452,6,0,B|408:303|408:303|281:301,1,161.999990764618,2|0,0:0|0:0,0:0:0:0:
119,234,81976,1,2,0:0:0:0:
229,350,82150,2,0,P|175:333|146:319,1,80.9999953823091,0|0,0:0|0:0,0:0:0:0:
8,181,82498,2,0,P|45:164|84:153,1,80.9999953823091,0|2,0:0|0:0,0:0:0:0:
218,99,82847,2,0,B|215:214|215:214|189:272,1,161.999990764618,0|2,0:0|0:0,0:0:0:0:
115,306,83371,1,0,0:0:0:0:
239,135,83545,2,0,L|319:124,1,80.9999953823091,2|0,0:0|0:0,0:0:0:0:
280,278,83894,2,0,L|360:288,1,80.9999953823091,2|0,0:0|0:0,0:0:0:0:
160,216,84243,6,0,P|138:176|126:138,1,80.9999953823091,2|0,0:3|0:0,0:0:0:0:
268,22,84591,2,0,L|256:191,1,161.999990764618,2|0,0:0|0:0,0:0:0:0:
145,245,85115,1,0,0:0:0:0:
328,225,85289,2,0,P|390:244|418:256,1,80.9999953823091,2|0,0:0|0:0,0:0:0:0:
219,93,85638,2,0,P|182:111|131:128,1,80.9999953823091,2|0,0:0|0:0,0:0:0:0:
71,288,85987,2,0,P|30:249|35:134,1,161.999990764618,2|0,0:0|0:0,0:0:0:0:
102,96,86510,1,0,0:0:0:0:
163,265,86684,2,0,L|149:351,1,80.9999953823091,0|2,0:0|0:0,0:0:0:0:
292,217,87033,6,0,P|312:172|322:139,1,80.9999953823091,2|0,0:3|0:0,0:0:0:0:
293,58,87382,1,0,0:0:0:0:
240,272,87557,2,0,L|415:258,1,161.999990764618,2|0,0:0|0:0,0:0:0:0:
494,137,88080,2,0,P|443:113|418:97,1,80.9999953823091,0|2,0:0|0:0,0:0:0:0:
336,304,88429,2,0,P|345:353|354:384,1,80.9999953823091,2|0,0:0|0:0,0:0:0:0:
414,231,88778,1,0,0:0:0:0:
249,158,88952,1,2,0:0:0:0:
249,158,89126,2,0,L|148:177,1,80.9999953823091,2|0,0:0|0:0,0:0:0:0:
7,233,89475,2,0,P|43:250|81:264,1,80.9999953823091,2|2,0:0|0:0,0:0:0:0:
388,244,92615,6,0,P|332:227|291:222,1,89.9999976158143,12|0,0:0|0:0,0:0:0:0:
139,266,92964,1,8,0:0:0:0:
279,354,93138,1,8,0:0:0:0:
374,159,93312,2,0,P|393:111|402:67,1,89.9999976158143,8|0,1:0|0:0,0:0:0:0:
151,185,93661,6,0,B|157:252|157:252|193:285|193:285|198:348,1,179.999995231629,0|2,0:0|0:0,0:0:0:0:
244,205,94184,1,8,0:0:0:0:
90,301,94359,2,0,P|47:290|2:274,1,89.9999976158143,8|2,0:0|0:0,0:0:0:0:
198,120,94708,2,0,L|294:108,1,89.9999976158143,8|0,1:0|0:0,0:0:0:0:
389,262,95057,1,2,0:0:0:0:
244,205,95231,1,0,0:0:0:0:
368,62,95405,6,0,B|441:57|500:95|500:95|470:125,1,179.999995231629,10|0,0:0|0:0,0:0:0:0:
287,108,95929,1,8,0:0:0:0:
116,68,96103,2,0,P|159:55|204:47,1,89.9999976158143,8|0,1:0|0:0,0:0:0:0:
269,266,96452,1,8,0:0:0:0:
102,190,96626,6,0,P|64:152|79:33,1,179.999995231629,8|0,0:0|0:0,0:0:0:0:
186,175,97150,2,0,L|166:323,1,134.999996423721,8|0,0:0|0:0,0:0:0:0:
147,334,97498,1,8,1:0:0:0:
356,255,97673,2,0,P|298:229|264:226,1,89.9999976158143,8|2,0:0|0:0,0:0:0:0:
109,327,98022,1,2,0:0:0:0:
236,140,98196,6,0,L|244:248,1,89.9999976158143,10|0,0:0|0:0,0:0:0:0:
313,319,98545,1,8,0:0:0:0:
148,166,98719,1,8,0:0:0:0:
342,224,98894,2,0,P|409:210|433:203,1,89.9999976158143,8|0,1:0|0:0,0:0:0:0:
422,18,99243,6,0,B|396:56|396:56|409:189,1,179.999995231629,0|2,0:0|0:0,0:0:0:0:
316,342,99766,1,8,0:0:0:0:
239,267,99940,1,8,0:0:0:0:
303,180,100115,1,2,0:0:0:0:
292,356,100289,2,0,P|250:370|202:382,1,89.9999976158143,8|0,1:0|0:0,0:0:0:0:
33,227,100638,2,0,P|76:238|119:252,1,89.9999976158143,2|2,0:0|0:0,0:0:0:0:
350,135,100987,6,0,P|311:171|183:181,1,179.999995231629,10|0,0:0|0:0,0:0:0:0:
315,42,101510,1,8,0:0:0:0:
429,148,101684,2,0,L|418:246,1,89.9999976158143,8|0,1:0|0:0,0:0:0:0:
485,86,102033,1,8,0:0:0:0:
253,267,102208,6,0,P|206:223|242:116,1,179.999995231629,8|0,0:0|0:0,0:0:0:0:
376,167,102731,2,0,P|331:179|271:190,1,89.9999976158143,8|2,0:0|0:0,0:0:0:0:
89,201,103080,1,8,1:0:0:0:
143,75,103254,1,8,0:0:0:0:
190,283,103429,1,2,0:0:0:0:
35,266,103603,1,2,0:0:0:0:
240,105,103778,6,0,L|353:117,1,89.9999976158143,12|0,0:0|0:0,0:0:0:0:
176,41,104126,1,8,0:0:0:0:
217,222,104301,1,10,0:0:0:0:
396,139,104475,2,0,L|283:151,1,89.9999976158143,8|0,1:0|0:0,0:0:0:0:
201,248,104824,6,0,P|135:220|18:216,1,179.999995231629,8|2,0:0|0:0,0:0:0:0:
187,52,105347,1,8,0:0:0:0:
155,202,105522,2,0,P|208:187|248:172,1,89.9999976158143,8|2,0:0|0:0,0:0:0:0:
364,28,105871,2,0,P|357:72|353:124,1,89.9999976158143,8|0,1:0|0:0,0:0:0:0:
454,288,106219,1,0,0:0:0:0:
440,137,106394,1,2,0:0:0:0:
268,216,106568,6,0,B|200:207|200:207|154:219|154:219|82:211,1,179.999995231629,10|0,0:0|0:0,0:0:0:0:
291,310,107091,1,10,0:0:0:0:
284,107,107266,2,0,P|239:111|196:123,1,89.9999976158143,8|0,1:0|0:0,0:0:0:0:
317,286,107615,1,10,0:0:0:0:
160,201,107789,6,0,P|119:155|172:41,1,179.999995231629,8|0,0:0|0:0,0:0:0:0:
298,214,108312,2,0,L|319:348,1,134.999996423721,8|0,0:0|0:0,0:0:0:0:
301,372,108661,1,8,1:0:0:0:
476,266,108836,2,0,P|433:250|373:245,1,89.9999976158143,8|2,0:0|0:0,0:0:0:0:
201,312,109184,1,2,0:0:0:0:
346,147,109359,6,0,L|361:54,1,89.9999976158143,10|0,0:0|0:0,0:0:0:0:
243,113,109708,1,8,0:0:0:0:
401,229,109882,1,10,0:0:0:0:
216,303,110057,2,0,P|261:295|311:282,1,89.9999976158143,8|0,1:0|0:0,0:0:0:0:
486,170,110405,6,0,P|445:126|327:139,1,179.999995231629,2|2,0:0|0:0,0:0:0:0:
452,357,110929,1,8,0:0:0:0:
401,198,111103,2,0,P|394:243|395:302,1,89.9999976158143,8|2,0:0|0:0,0:0:0:0:
165,333,111452,2,0,P|215:321|255:307,1,89.9999976158143,8|0,1:0|0:0,0:0:0:0:
320,186,111801,1,2,0:0:0:0:
191,117,111975,1,2,0:0:0:0:
298,20,112150,6,0,P|294:123|276:221,1,179.999995231629,10|0,0:0|0:0,0:0:0:0:
41,295,112673,1,10,0:0:0:0:
147,170,112847,2,0,P|182:204|214:246,1,89.9999976158143,8|0,1:0|0:0,0:0:0:0:
178,337,113196,1,10,0:0:0:0:
56,162,113371,6,0,B|52:90|69:24|69:24|106:72,1,179.999995231629,8|0,0:0|0:0,0:0:0:0:
218,221,113894,2,0,L|203:323,1,89.9999976158143,8|2,0:0|0:0,0:0:0:0:
342,216,114243,1,8,1:0:0:0:
240,54,114417,1,8,0:0:0:0:
236,272,114591,1,8,1:0:0:0:
369,203,114766,1,8,1:0:0:0:
165,207,114940,6,0,P|112:229|16:186,1,161.999990764618,12|8,0:0|0:0,0:0:0:0:
210,132,115464,1,8,0:0:0:0:
181,292,115638,2,0,L|90:283,1,80.9999953823091,8|0,1:0|0:0,0:0:0:0:
262,332,115987,2,0,P|348:312|431:306,1,161.999990764618,8|2,0:0|0:0,0:0:0:0:
493,172,116510,1,8,0:0:0:0:
493,172,116684,2,0,P|448:154|418:142,1,80.9999953823091,8|0,0:0|0:0,0:0:0:0:
330,52,117033,2,0,P|287:101|310:195,1,161.999990764618,8|2,1:0|0:0,0:0:0:0:
397,167,117557,1,2,0:0:0:0:
246,69,117731,6,0,P|207:80|167:96,1,80.9999953823091,8|0,0:0|0:0,0:0:0:0:
9,200,118080,2,0,P|46:214|85:225,1,80.9999953823091,0|8,0:0|0:0,0:0:0:0:
275,149,118429,2,0,L|249:322,1,161.999990764618,8|8,1:0|0:0,0:0:0:0:
177,245,118952,1,8,0:0:0:0:
315,227,119126,2,0,P|329:276|335:311,1,80.9999953823091,2|0,0:0|0:0,0:0:0:0:
145,328,119475,2,0,P|104:294|122:178,1,161.999990764618,10|8,0:0|1:0,0:0:0:0:
223,163,119998,2,0,L|387:181,1,161.999990764618,8|0,0:0|0:0,0:0:0:0:
434,71,120522,6,0,P|473:101|456:216,1,161.999990764618,10|8,0:0|0:0,0:0:0:0:
361,267,121045,1,8,0:0:0:0:
281,172,121219,2,0,P|240:178|196:193,1,80.9999953823091,8|0,1:0|0:0,0:0:0:0:
26,229,121568,2,0,P|85:242|190:290,1,161.999990764618,8|2,0:0|0:0,0:0:0:0:
230,365,122091,1,8,0:0:0:0:
323,330,122266,2,0,L|331:245,1,80.9999953823091,8|0,0:0|0:0,0:0:0:0:
383,158,122615,2,0,P|301:144|241:207,1,161.999990764618,8|2,1:0|0:0,0:0:0:0:
423,300,123138,1,0,0:0:0:0:
483,125,123312,6,0,B|449:89|449:89|327:63,1,161.999990764618,10|0,0:0|0:0,0:0:0:0:
163,172,123836,1,8,0:0:0:0:
163,172,124010,2,0,P|114:161|66:147,1,80.9999953823091,8|0,1:0|0:0,0:0:0:0:
226,90,124359,1,8,0:0:0:0:
208,269,124533,2,0,B|159:298|92:301|92:301|122:247,1,161.999990764618,8|0,0:0|0:0,0:0:0:0:
300,222,125057,2,0,P|333:254|354:285,1,80.9999953823091,8|2,0:0|0:0,0:0:0:0:
189,157,125405,1,8,1:0:0:0:
327,93,125580,2,0,L|497:110,1,161.999990764618,8|2,0:0|0:0,0:0:0:0:
205,25,126103,6,0,P|126:43|33:37,1,161.999990764618,12|8,0:0|0:0,0:0:0:0:
51,208,126626,1,8,0:0:0:0:
191,157,126801,2,0,P|150:147|105:142,1,80.9999953823091,8|0,1:0|0:0,0:0:0:0:
125,329,127150,2,0,B|183:317|183:317|214:323|214:323|299:304,1,161.999990764618,8|2,0:0|0:0,0:0:0:0:
399,209,127673,1,8,0:0:0:0:
453,359,127847,2,0,L|369:345,1,80.9999953823091,8|0,0:0|0:0,0:0:0:0:
319,176,128196,2,0,P|383:123|462:152,1,161.999990764618,8|2,1:0|0:0,0:0:0:0:
399,209,128719,1,0,0:0:0:0:
247,229,128894,6,0,P|197:217|136:208,1,80.9999953823091,10|0,0:0|0:0,0:0:0:0:
1,137,129243,2,0,P|40:129|80:119,1,80.9999953823091,0|8,0:0|0:0,0:0:0:0:
172,18,129591,2,0,P|205:61|167:166,1,161.999990764618,8|10,1:0|0:0,0:0:0:0:
64,99,130115,1,8,0:0:0:0:
156,186,130289,2,0,L|245:173,1,80.9999953823091,2|0,0:0|0:0,0:0:0:0:
439,166,130638,2,0,P|401:116|298:125,1,161.999990764618,2|8,0:0|1:0,0:0:0:0:
274,328,131161,2,0,P|305:285|361:183,1,161.999990764618,8|0,0:0|0:0,0:0:0:0:
241,80,131685,6,0,L|74:73,1,161.999990764618,10|8,0:0|0:0,0:0:0:0:
9,161,132208,1,8,0:0:0:0:
90,234,132382,2,0,P|79:283|66:323,1,80.9999953823091,8|0,1:0|0:0,0:0:0:0:
239,218,132731,2,0,P|227:179|218:139,1,80.9999953823091,8|2,0:0|0:0,0:0:0:0:
331,205,133080,1,2,0:0:0:0:
172,290,133254,1,8,0:0:0:0:
301,364,133429,1,10,0:0:0:0:
271,47,133778,2,0,P|282:90|288:136,1,80.9999953823091,8|0,1:0|0:0,0:0:0:0:
199,272,134126,1,2,0:0:0:0:
131,187,134301,1,0,0:0:0:0:
308,239,134475,6,0,B|376:228|376:228|396:235|396:235|484:220,1,161.999990764618,10|0,0:0|0:0,0:0:0:0:
294,326,134998,1,2,0:0:0:0:
274,156,135173,2,0,P|323:165|362:176,1,80.9999953823091,8|0,1:0|0:0,0:0:0:0:
463,116,135522,1,10,0:0:0:0:
232,82,135696,2,0,P|191:136|229:227,1,161.999990764618,8|0,0:0|0:0,0:0:0:0:
475,159,136219,2,0,L|303:177,1,161.999990764618,2|8,0:0|1:0,0:0:0:0:
202,318,136743,1,8,0:0:0:0:
202,318,136917,2,0,P|154:302|121:285,1,80.9999953823091,2|2,0:0|0:0,0:0:0:0:
67,184,137266,6,0,B|189:220|200:133|324:179,1,251.999985633851,2|2,0:3|0:0,0:0:0:0:
391,279,138312,2,0,L|378:349,1,62.9999964084627,0|2,0:0|0:0,0:0:0:0:
295,359,138661,2,0,P|267:329|184:322,1,125.999992816925,2|0,0:0|0:0,0:0:0:0:
30,249,139359,2,0,P|91:250|138:211,1,125.999992816925,2|0,0:0|0:0,0:0:0:0:
99,113,140057,6,0,L|86:16,1,94.499994612694,2|0,0:3|0:0,0:0:0:0:
20,155,140580,2,0,B|89:141|89:141|205:170,1,188.999989225388,0|0,0:0|0:0,0:0:0:0:
271,261,141452,2,0,L|413:245,2,125.999992816925,2|0|2,0:0|0:0|0:0,0:0:0:0:
182,340,142498,1,0,0:0:0:0:
239,153,142847,6,0,B|278:148|278:148|336:161,1,94.499994612694,2|0,0:3|0:0,0:0:0:0:
342,235,143371,2,0,P|401:198|372:95,1,188.999989225388,0|0,0:0|0:0,0:0:0:0:
167,145,144243,2,0,P|148:208|148:268,1,125.999992816925,2|0,0:0|0:0,0:0:0:0:
234,354,144940,2,0,L|369:344,1,125.999992816925,2|0,0:0|0:0,0:0:0:0:
133,284,145638,6,0,P|97:296|41:326,1,94.499994612694,2|0,0:3|0:0,0:0:0:0:
198,350,146161,2,0,B|231:319|231:319|243:165,1,188.999989225388,0|0,0:0|0:0,0:0:0:0:
171,79,147033,2,0,P|216:50|298:73,1,125.999992816925,2|0,0:0|0:0,0:0:0:0:
426,143,147731,2,0,B|409:178|409:178|423:206|423:206|399:267|421:322,1,188.999989225388,2|0,0:0|0:0,0:0:0:0:
450,351,148429,6,0,P|398:309|274:311,1,179.999995231629,2|0,0:3|0:0,0:0:0:0:
97,280,149824,2,0,P|114:247|128:187,1,89.9999976158143,2|0,0:0|0:0,0:0:0:0:
36,124,150522,2,0,P|58:106|123:101,1,89.9999976158143,0|0,0:0|0:0,0:0:0:0:
245,152,151219,6,0,L|252:242,1,89.9999976158143,2|0,0:3|0:0,0:0:0:0:
221,343,151917,2,0,P|288:353|349:259,1,179.999995231629
155,41,153312,2,0,P|159:88|173:141,1,89.9999976158143,2|0,0:0|0:0,0:0:0:0:
263,269,154010,6,0,P|280:247|284:175,1,89.9999976158143,2|0,0:3|0:0,0:0:0:0:
189,201,154708,2,0,B|67:211|67:211|116:253,1,179.999995231629
237,360,156103,2,0,P|271:317|394:341,1,179.999995231629,2|2,0:0|0:3,0:0:0:0:
256,132,157847,6,0,L|264:192,1,44.9999988079071,0|0,0:0|0:0,0:0:0:0:
341,210,158196,2,0,P|392:175|481:167,1,143.999996185303,2|0,0:0|0:0,0:0:0:0:
269,262,158719,2,0,B|218:280|218:280|99:256,1,161.999990764618,2|0,0:0|0:0,0:0:0:0:
244,45,159243,2,0,P|261:91|261:180,1,134.999996423721,2|0,0:0|0:0,0:0:0:0:
226,183,159591,6,0,L|115:160,1,99.0000003986359,12|0,0:0|0:0,0:0:0:0:
302,75,159940,1,8,0:0:0:0:
342,252,160115,1,8,0:0:0:0:
165,184,160289,2,0,P|151:140|148:88,1,99.0000003986359,8|0,1:0|0:0,0:0:0:0:
351,161,160638,2,0,B|335:236|335:236|354:279|354:279|337:363,1,198.000000797272,8|2,0:0|0:0,0:0:0:0:
425,220,161161,1,8,0:0:0:0:
240,253,161336,2,0,L|134:266,1,99.0000003986359,10|0,0:0|0:0,0:0:0:0:
23,160,161684,2,0,P|59:105|196:133,1,198.000000797272,8|2,1:0|0:0,0:0:0:0:
114,286,162208,1,0,0:0:0:0:
43,79,162382,6,0,B|91:69|91:69|147:87,1,99.0000003986359,10|0,0:0|0:0,0:0:0:0:
192,284,162731,1,0,0:0:0:0:
256,82,162905,1,8,0:0:0:0:
124,128,163080,2,0,L|340:107,1,198.000000797272,8|10,1:0|0:0,0:0:0:0:
454,244,163603,2,0,L|441:346,1,99.0000003986359,10|0,0:0|0:0,0:0:0:0:
367,199,163952,1,0,0:0:0:0:
240,317,164126,2,0,P|297:306|347:286,1,99.0000003986359,10|0,0:0|0:0,0:0:0:0:
416,103,164475,1,8,1:0:0:0:
239,117,164650,1,8,0:0:0:0:
391,68,164824,2,0,L|373:178,1,99.0000003986359,2|0,0:0|0:0,0:0:0:0:
223,344,165173,6,0,P|204:299|191:241,1,99.0000003986359,10|0,0:0|0:0,0:0:0:0:
254,82,165522,1,8,0:0:0:0:
386,198,165696,1,8,0:0:0:0:
169,141,165871,2,0,L|69:159,1,99.0000003986359,8|0,1:0|0:0,0:0:0:0:
269,264,166219,2,0,B|322:257|322:257|366:279|366:279|474:283,1,198.000000797272,10|2,0:0|0:0,0:0:0:0:
234,353,166743,1,8,0:0:0:0:
248,149,166917,2,0,P|302:163|346:179,1,99.0000003986359,10|0,0:0|0:0,0:0:0:0:
512,53,167266,2,0,P|458:67|414:83,1,99.0000003986359,8|0,1:0|0:0,0:0:0:0:
366,360,167615,2,0,P|397:317|418:271,1,99.0000003986359,2|0,0:0|0:0,0:0:0:0:
314,65,167964,6,0,P|265:37|146:119,1,198.000000797272,10|0,0:0|0:0,0:0:0:0:
333,174,168487,1,8,0:0:0:0:
417,255,168661,2,0,L|442:367,1,99.0000003986359,8|0,1:0|0:0,0:0:0:0:
230,153,169010,1,10,0:0:0:0:
60,199,169184,2,0,L|178:214,1,99.0000003986359,10|0,0:0|0:0,0:0:0:0:
242,129,169533,1,0,0:0:0:0:
153,342,169708,2,0,P|144:294|137:189,1,148.500000597954,8|0,0:0|0:0,0:0:0:0:
169,127,170057,1,8,1:0:0:0:
288,281,170231,1,8,0:0:0:0:
40,178,170405,2,0,L|151:166,1,99.0000003986359,2|2,0:0|0:0,0:0:0:0:
354,35,170754,6,0,P|408:65|401:201,1,198.000000797272,12|8,0:0|0:0,0:0:0:0:
188,251,171278,1,8,0:0:0:0:
388,217,171452,2,0,L|256:194,1,99.0000003986359,8|0,1:0|0:0,0:0:0:0:
91,274,171801,2,0,P|139:337|269:305,1,198.000000797272,8|2,0:0|0:0,0:0:0:0:
324,174,172324,1,8,0:0:0:0:
169,154,172498,2,0,P|175:203|188:251,1,99.0000003986359,10|0,0:0|0:0,0:0:0:0:
425,361,172847,2,0,P|437:313|443:264,1,99.0000003986359,8|0,1:0|0:0,0:0:0:0:
290,39,173196,1,2,0:0:0:0:
335,214,173371,1,0,0:0:0:0:
56,128,173545,6,0,B|108:101|108:101|264:122,1,198.000000797272,10|0,0:0|0:0,0:0:0:0:
418,71,174068,1,8,0:0:0:0:
222,204,174243,2,0,L|332:189,1,99.0000003986359,8|0,1:0|0:0,0:0:0:0:
425,98,174591,1,10,0:0:0:0:
227,291,174766,2,0,P|173:274|164:142,1,198.000000797272,10|0,0:0|0:0,0:0:0:0:
289,61,175289,2,0,L|272:214,1,148.500000597954,10|0,0:0|0:0,0:0:0:0:
261,281,175638,1,8,1:0:0:0:
407,203,175812,1,8,0:0:0:0:
259,124,175987,2,0,P|195:133|152:149,1,99.0000003986359,2|0,0:0|0:0,0:0:0:0:
58,360,176336,6,0,B|39:342|39:342|27:256,1,99.0000003986359,10|0,0:0|0:0,0:0:0:0:
106,71,176684,1,10,0:0:0:0:
158,286,176859,1,8,0:0:0:0:
32,105,177033,2,0,L|148:115,1,99.0000003986359,8|0,1:0|0:0,0:0:0:0:
401,145,177382,2,0,P|302:155|208:186,1,198.000000797272,8|2,0:0|0:0,0:0:0:0:
167,327,177905,1,8,0:0:0:0:
376,252,178080,2,0,B|330:235|330:235|275:236,1,99.0000003986359,10|0,0:0|0:0,0:0:0:0:
64,330,178429,2,0,P|129:330|193:212,1,198.000000797272,8|0,1:0|0:0,0:0:0:0:
131,58,178952,1,2,0:0:0:0:
32,222,179126,6,0,L|243:195,1,198.000000797272,10|0,0:0|0:0,0:0:0:0:
440,91,179650,1,8,0:0:0:0:
331,236,179824,2,0,P|320:286|310:350,1,99.0000003986359,8|0,1:0|0:0,0:0:0:0:
451,223,180173,1,8,0:0:0:0:
242,142,180347,1,10,0:0:0:0:
269,267,180522,2,0,L|380:263,1,99.0000003986359,2|0,0:0|0:0,0:0:0:0:
498,77,180871,2,0,P|448:95|400:108,1,99.0000003986359,8|2,0:0|0:0,0:0:0:0:
146,137,181219,1,8,1:0:0:0:
248,37,181394,1,8,0:0:0:0:
307,242,181568,1,8,1:0:0:0:
243,162,181743,1,8,1:0:0:0:
212,238,184701,6,0,B|154:247|154:247|116:229|116:229|93:261|50:271,1,179.999995231629,12|8,0:0|0:0,0:0:0:0:
262,149,185224,1,8,0:0:0:0:
317,237,185398,2,0,L|299:345,1,89.9999976158143,8|0,1:0|0:0,0:0:0:0:
481,189,185747,2,0,P|466:132|460:95,1,89.9999976158143,8|0,0:0|0:0,0:0:0:0:
332,67,186096,1,2,0:0:0:0:
408,248,186271,1,8,0:0:0:0:
207,158,186445,2,0,L|319:148,1,89.9999976158143,10|0,0:0|0:0,0:0:0:0:
374,337,186794,2,0,B|312:352|312:352|186:323,1,179.999995231629,8|0,1:0|0:0,0:0:0:0:
78,365,187317,1,2,0:0:0:0:
262,217,187491,6,0,L|277:327,1,89.9999976158143,10|0,0:0|0:0,0:0:0:0:
67,247,187840,2,0,L|82:137,1,89.9999976158143,2|8,0:0|0:0,0:0:0:0:
241,47,188189,2,0,P|277:102|224:208,1,179.999995231629,8|10,1:0|0:0,0:0:0:0:
99,134,188712,1,8,0:0:0:0:
304,145,188887,2,0,P|348:142|397:131,1,89.9999976158143,2|0,0:0|0:0,0:0:0:0:
257,333,189236,2,0,L|163:320,1,89.9999976158143,10|0,0:0|0:0,0:0:0:0:
406,231,189584,1,8,1:0:0:0:
354,335,189759,2,0,B|299:342|299:342|241:330|190:264,1,179.999995231629,8|2,0:0|0:0,0:0:0:0:
57,234,190282,6,0,L|77:50,1,179.999995231629,10|8,0:0|0:0,0:0:0:0:
167,208,190805,1,10,0:0:0:0:
320,125,190980,2,0,L|201:136,1,89.9999976158143,8|0,1:0|0:0,0:0:0:0:
103,292,191329,2,0,B|168:311|168:311|219:292|289:290,1,179.999995231629,10|0,0:0|0:0,0:0:0:0:
383,344,191852,1,8,0:0:0:0:
331,107,192026,2,0,L|343:219,1,89.9999976158143,10|2,0:0|0:0,0:0:0:0:
408,360,192375,2,0,P|458:325|435:201,1,179.999995231629,8|2,1:0|0:0,0:0:0:0:
317,328,192898,1,2,0:0:0:0:
231,292,193073,6,0,B|146:329|139:277|53:316,1,179.999995231629,10|0,0:0|0:0,0:0:0:0:
280,173,193596,1,10,0:0:0:0:
380,251,193771,2,0,P|428:270|472:280,1,89.9999976158143,8|0,1:0|0:0,0:0:0:0:
302,141,194119,1,10,0:0:0:0:
329,334,194294,1,8,0:0:0:0:
116,258,194468,2,0,P|156:212|289:239,1,179.999995231629,2|8,0:0|0:0,0:0:0:0:
338,361,194991,1,2,0:0:0:0:
456,250,195166,2,0,L|471:146,1,89.9999976158143,8|8,1:0|0:0,0:0:0:0:
343,23,195515,2,0,L|358:127,1,89.9999976158143,2|2,0:0|0:0,0:0:0:0:
275,340,195864,6,0,P|232:277|258:167,1,179.999995231629,12|8,0:0|0:0,0:0:0:0:
385,94,196387,1,8,0:0:0:0:
173,145,196561,2,0,P|120:141|83:135,1,89.9999976158143,8|0,1:0|0:0,0:0:0:0:
247,263,196910,2,0,B|325:276|325:276|345:297|345:297|438:310,1,179.999995231629,8|2,0:0|0:0,0:0:0:0:
490,168,197433,1,8,0:0:0:0:
320,148,197608,2,0,L|336:262,1,89.9999976158143,10|0,0:0|0:0,0:0:0:0:
136,370,197957,2,0,P|145:326|159:283,1,89.9999976158143,8|0,1:0|0:0,0:0:0:0:
296,135,198305,1,0,0:0:0:0:
287,309,198480,1,2,0:0:0:0:
121,256,198654,6,0,P|105:209|97:166,1,89.9999976158143,10|0,0:0|0:0,0:0:0:0:
292,38,199003,2,0,P|283:82|268:124,1,89.9999976158143,2|8,0:0|0:0,0:0:0:0:
316,307,199352,2,0,P|385:320|473:243,1,179.999995231629,8|10,1:0|0:0,0:0:0:0:
431,154,199875,1,8,0:0:0:0:
217,335,200050,2,0,L|123:316,1,89.9999976158143,2|0,0:0|0:0,0:0:0:0:
22,200,200398,2,0,B|58:175|58:175|115:180,1,89.9999976158143,10|0,0:0|0:0,0:0:0:0:
289,356,200747,1,8,1:0:0:0:
219,284,200922,2,0,L|252:95,1,179.999995231629,8|0,0:0|0:0,0:0:0:0:
434,42,201445,6,0,B|492:54|492:54|505:120|456:163,1,179.999995231629,10|8,0:0|0:0,0:0:0:0:
248,185,201968,1,10,0:0:0:0:
436,192,202143,2,0,L|451:282,1,89.9999976158143,8|0,1:0|0:0,0:0:0:0:
299,350,202491,2,0,B|217:310|217:310|115:323,1,179.999995231629,10|2,0:0|0:0,0:0:0:0:
31,96,203015,1,8,0:0:0:0:
121,85,203189,2,0,P|116:140|102:181,1,89.9999976158143,8|2,0:0|0:0,0:0:0:0:
224,355,203538,2,0,L|197:169,1,179.999995231629,8|2,1:0|0:0,0:0:0:0:
406,75,204061,1,2,0:0:0:0:
236,197,204236,6,0,B|294:228|294:228|439:216,1,179.999995231629,10|0,0:0|0:0,0:0:0:0:
417,41,204759,1,10,0:0:0:0:
160,150,204933,2,0,P|146:197|160:250,1,89.9999976158143,8|0,1:0|0:0,0:0:0:0:
282,358,205282,1,10,0:0:0:0:
310,115,205457,2,0,L|96:125,1,179.999995231629,8|0,0:0|0:0,0:0:0:0:
42,353,205980,2,0,P|94:329|125:310,1,89.9999976158143,10|0,0:0|0:0,0:0:0:0:
204,77,206329,5,8,1:0:0:0:
81,220,206503,1,8,0:0:0:0:
253,293,206677,1,8,1:0:0:0:
123,113,206852,1,8,1:0:0:0:
226,334,208073,6,0,B|245:315|245:315|243:250,1,67.5000007867814,2|0,0:0|0:0,0:0:0:0:
217,207,208422,6,0,P|251:169|367:185,1,152.999998865128,2|0,0:0|0:0,0:0:0:0:
206,314,208945,6,0,B|173:332|173:332|151:321|151:321|125:335|33:332,1,170.999990903855,2|0,0:0|0:0,0:0:0:0:
307,256,209468,6,0,P|361:257|461:298,1,141.749991919041,2|0,0:0|0:0,0:0:0:0:
482,324,209817,6,0,B|439:310|439:310|406:239|424:129,1,206.999998464584,12|8,0:0|0:0,0:0:0:0:
475,39,210340,1,8,0:0:0:0:
240,152,210515,2,0,L|376:171,1,103.499999232292,8|0,1:0|0:0,0:0:0:0:
193,61,210864,2,0,B|141:101|141:101|2:124,1,206.999998464584,8|2,0:0|0:0,0:0:0:0:
293,25,211387,1,8,0:0:0:0:
278,241,211561,2,0,P|271:291|257:347,1,103.499999232292,8|0,0:0|0:0,0:0:0:0:
509,227,211910,2,0,P|477:176|332:173,1,206.999998464584,8|2,1:0|0:0,0:0:0:0:
239,354,212433,1,0,0:0:0:0:
413,237,212608,6,0,B|424:165|424:165|406:120|406:120|421:33,1,206.999998464584,10|0,0:0|0:0,0:0:0:0:
281,240,213131,1,8,0:0:0:0:
177,305,213305,2,0,P|126:324|75:332,1,103.499999232292,8|0,1:0|0:0,0:0:0:0:
391,263,213654,1,10,0:0:0:0:
237,126,213829,2,0,B|99:138|99:138|48:192,1,206.999998464584,10|0,0:0|0:0,0:0:0:0:
347,197,214352,2,0,P|378:151|398:103,1,103.499999232292,10|0,0:0|0:0,0:0:0:0:
257,42,214701,1,8,1:0:0:0:
266,243,214875,1,8,0:0:0:0:
468,195,215050,2,0,L|357:186,1,103.499999232292,2|0,0:0|0:0,0:0:0:0:
53,251,215398,6,0,P|107:233|161:211,1,103.499999232292,10|0,0:0|0:0,0:0:0:0:
231,103,215747,1,8,0:0:0:0:
209,304,215922,1,8,0:0:0:0:
53,171,216096,2,0,L|39:55,1,103.499999232292,8|0,1:0|0:0,0:0:0:0:
258,125,216445,2,0,B|271:222|271:222|252:268|252:350,1,206.999998464584,10|2,0:0|0:0,0:0:0:0:
372,306,216968,1,8,0:0:0:0:
498,153,217143,2,0,B|445:155|445:155|394:186,1,103.499999232292,10|0,0:0|0:0,0:0:0:0:
250,353,217491,2,0,B|303:351|303:351|346:324,1,103.499999232292,8|0,1:0|0:0,0:0:0:0:
296,76,217840,2,0,L|312:206,1,103.499999232292,2|0,0:0|0:0,0:0:0:0:
385,255,218189,6,0,B|315:257|315:257|281:273|281:273|228:261|228:261|163:264,1,206.999998464584,10|0,0:0|0:0,0:0:0:0:
20,343,218712,1,8,0:0:0:0:
144,149,218887,2,0,P|167:199|179:251,1,103.499999232292,8|0,1:0|0:0,0:0:0:0:
103,364,219236,1,8,0:0:0:0:
9,140,219410,2,0,B|43:125|43:125|119:143,1,103.499999232292,10|0,0:0|0:0,0:0:0:0:
251,321,219759,1,0,0:0:0:0:
401,228,219933,2,0,L|379:68,1,155.249998848438,10|0,0:0|0:0,0:0:0:0:
447,24,220282,1,8,1:0:0:0:
311,171,220457,1,8,0:0:0:0:
511,173,220631,2,0,L|388:141,1,103.499999232292,2|0,0:0|0:0,0:0:0:0:
152,101,220980,6,0,P|118:158|192:272,1,206.999998464584,12|8,0:0|0:0,0:0:0:0:
352,348,221503,1,8,0:0:0:0:
310,144,221677,2,0,P|238:164|191:188,1,103.499999232292,8|0,1:0|0:0,0:0:0:0:
78,339,222026,2,0,B|132:368|132:368|207:368|275:314,1,206.999998464584,8|2,0:0|0:0,0:0:0:0:
306,115,222550,1,8,0:0:0:0:
166,226,222724,2,0,P|112:211|52:201,1,103.499999232292,10|0,0:0|0:0,0:0:0:0:
379,264,223073,2,0,P|433:249|493:239,1,103.499999232292,8|0,1:0|0:0,0:0:0:0:
256,46,223422,1,2,0:0:0:0:
280,208,223596,1,0,0:0:0:0:
302,33,223771,6,0,L|91:23,1,206.999998464584,10|0,0:0|0:0,0:0:0:0:
306,203,224294,1,10,0:0:0:0:
462,116,224468,2,0,P|489:56|498:18,1,103.499999232292,8|0,1:0|0:0,0:0:0:0:
284,24,224817,1,10,0:0:0:0:
325,172,224991,2,0,B|322:248|322:248|344:292|344:292|341:377,1,206.999998464584,8|0,0:0|0:0,0:0:0:0:
58,237,225515,2,0,B|119:209|171:214|171:214|207:246,1,155.249998848438,10|0,0:0|0:0,0:0:0:0:
197,275,225864,1,8,1:0:0:0:
29,223,226038,1,8,0:0:0:0:
166,109,226212,2,0,L|274:113,1,103.499999232292,2|0,0:0|0:0,0:0:0:0:
466,319,226561,6,0,P|483:269|482:216,1,103.499999232292,10|0,0:0|0:0,0:0:0:0:
337,71,226910,1,10,0:0:0:0:
386,273,227084,1,8,0:0:0:0:
500,149,227259,2,0,L|380:129,1,103.499999232292,8|0,1:0|0:0,0:0:0:0:
106,235,227608,2,0,B|167:236|167:236|201:206|201:206|319:187,1,206.999998464584,8|0,0:0|0:0,0:0:0:0:
457,337,228131,1,8,0:0:0:0:
238,333,228305,2,0,P|209:288|223:227,1,103.499999232292,10|0,0:0|0:0,0:0:0:0:
339,59,228654,2,0,L|312:267,1,206.999998464584,8|2,1:0|0:0,0:0:0:0:
135,349,229177,1,0,0:0:0:0:
26,165,229352,6,0,P|137:156|183:236,1,206.999998464584,10|0,0:0|0:0,0:0:0:0:
106,360,229875,1,10,0:0:0:0:
110,127,230050,2,0,B|155:103|155:103|232:107,1,103.499999232292,8|0,1:0|0:0,0:0:0:0:
383,233,230398,1,10,0:0:0:0:
283,46,230573,1,8,0:0:0:0:
265,251,230747,2,0,L|375:259,1,103.499999232292,2|0,0:0|0:0,0:0:0:0:
192,111,231096,2,0,P|151:74|114:27,1,103.499999232292,8|2,0:0|0:0,0:0:0:0:
324,92,231445,5,8,1:0:0:0:
154,294,231619,1,8,0:0:0:0:
120,36,231794,1,8,1:0:0:0:
187,168,231968,1,8,1:0:0:0:
203,129,234933,6,0,L|212:232,1,99.0000003986359,12|0,0:0|0:0,0:0:0:0:
294,80,235282,1,8,0:0:0:0:
141,43,235457,1,8,0:0:0:0:
197,247,235631,2,0,B|259:225|259:225|324:222|403:259,1,198.000000797272,8|8,1:0|0:0,0:0:0:0:
117,308,236154,1,2,0:0:0:0:
28,349,236329,2,0,L|15:244,1,99.0000003986359,2|8,0:0|0:0,0:0:0:0:
76,44,236677,1,8,0:0:0:0:
324,185,237026,2,0,L|118:164,1,198.000000797272,8|0,1:0|0:0,0:0:0:0:
311,93,237550,1,2,0:0:0:0:
419,222,237724,6,0,B|457:273|457:273|439:356|357:366,1,198.000000797272,10|0,0:0|0:0,0:0:0:0:
159,286,238247,1,8,0:0:0:0:
263,177,238422,2,0,L|284:291,1,99.0000003986359,8|0,1:0|0:0,0:0:0:0:
94,155,238771,1,8,0:0:0:0:
281,159,238945,1,8,0:0:0:0:
95,242,239119,2,0,P|15:193|29:101,1,198.000000797272,2|8,0:0|0:0,0:0:0:0:
29,100,239817,1,8,1:0:0:0:
234,191,239991,2,0,L|248:296,1,99.0000003986359,8|2,0:0|0:0,0:0:0:0:
316,359,240340,1,2,0:0:0:0:
304,122,240515,6,0,P|255:93|205:94,1,99.0000003986359,10|0,0:0|0:0,0:0:0:0:
154,277,240864,1,8,0:0:0:0:
342,195,241038,1,8,0:0:0:0:
183,101,241212,2,0,L|195:211,1,99.0000003986359,8|0,1:0|0:0,0:0:0:0:
345,331,241561,2,0,B|353:254|353:254|339:220|339:220|350:128,1,198.000000797272,8|2,0:0|0:0,0:0:0:0:
442,61,242084,1,8,0:0:0:0:
473,268,242259,2,0,P|419:263|370:237,1,99.0000003986359,8|0,0:0|0:0,0:0:0:0:
203,80,242608,2,0,B|149:92|149:92|133:167|199:230,1,198.000000797272,8|0,1:0|0:0,0:0:0:0:
205,239,243305,6,0,L|7:258,1,198.000000797272,10|0,0:0|0:0,0:0:0:0:
257,153,243829,1,8,0:0:0:0:
220,339,244003,2,0,P|175:359|127:374,1,99.0000003986359,8|0,1:0|0:0,0:0:0:0:
300,257,244352,1,8,0:0:0:0:
399,323,244526,1,10,0:0:0:0:
399,323,244701,2,0,P|455:287|437:157,1,198.000000797272,2|8,0:0|0:0,0:0:0:0:
448,167,245398,1,8,1:0:0:0:
304,54,245573,2,0,L|318:159,1,99.0000003986359,8|2,0:0|0:0,0:0:0:0:
273,245,245922,1,2,0:0:0:0:
33,169,246096,6,0,L|209:184,1,161.999990764618,4|0,0:0|0:0,0:0:0:0:
273,245,246619,1,2,0:0:0:0:
368,208,246794,2,0,P|399:170|369:52,1,161.999990764618,8|0,0:1|0:0,0:0:0:0:
194,182,247491,2,0,B|169:224|169:224|195:352,1,161.999990764618,2|0,0:0|0:0,0:0:0:0:
434,261,248189,2,0,L|266:244,1,161.999990764618,8|0,0:1|0:0,0:0:0:0:
45,113,248887,6,0,P|87:67|196:85,1,161.999990764618,2|0,0:0|0:0,0:0:0:0:
235,155,249410,1,2,0:0:0:0:
160,223,249584,2,0,L|144:385,1,161.999990764618,8|0,0:1|0:0,0:0:0:0:
318,210,250282,2,0,B|384:200|384:200|408:208|408:208|502:195,1,161.999990764618,2|0,0:0|0:0,0:0:0:0:
235,155,250980,2,0,L|64:182,1,161.999990764618,8|0,0:1|0:0,0:0:0:0:
269,285,251677,6,0,L|260:357,2,71.9999980926514,2|0|0,0:0|0:0|0:0,0:0:0:0:
333,232,252201,2,0,P|373:258|477:264,1,143.999996185303,2|0,0:0|0:0,0:0:0:0:
432,189,252724,2,0,L|424:109,1,71.9999980926514,0|0,0:0|0:0,0:0:0:0:
327,42,253073,1,2,0:0:0:0:
262,97,253247,2,0,L|269:170,1,71.9999980926514,0|0,0:0|0:0,0:0:0:0:
230,240,253596,2,0,P|194:222|89:206,1,143.999996185303,2|0,0:0|0:0,0:0:0:0:
296,293,254119,2,0,P|340:278|365:267,1,71.9999980926514,0|0,0:0|0:0,0:0:0:0:
434,214,254468,6,0,L|516:229,2,71.9999980926514,2|0|0,0:0|0:0|0:0,0:0:0:0:
372,148,254991,2,0,L|230:170,1,143.999996185303,2|0,0:0|0:0,0:0:0:0:
151,139,255515,2,0,P|136:101|129:68,1,71.9999980926514,0|0,0:0|0:0,0:0:0:0:
282,97,255864,1,2,0:0:0:0:
229,170,256038,2,0,L|220:265,1,71.9999980926514,0|0,0:0|0:0,0:0:0:0:
176,310,256387,2,0,P|135:341|34:311,1,143.999996185303,2|0,0:0|0:0,0:0:0:0:
72,236,256910,1,2,0:0:0:0:
31,153,257084,1,2,0:0:0:0:
