osu file format v14

[General]
AudioFilename: ninelie.mp3
AudioLeadIn: 0
PreviewTime: 157760
Countdown: 0
SampleSet: Soft
StackLeniency: 0.5
Mode: 0
LetterboxInBreaks: 0
WidescreenStoryboard: 0

[Editor]
Bookmarks: 89771,92562,181864,184655
DistanceSpacing: 1.4
BeatDivisor: 8
GridSize: 4
TimelineZoom: 1

[Metadata]
Title:ninelie
TitleUnicode:ninelie
Artist:Aimer with chelly (EGOIST)
ArtistUnicode:Aimer with chelly (EGOIST)
Creator:jonathanlfj
Version:Uso
Source:甲鉄城のカバネリ
Tags:CSLM captin1 Trust LunarSakuya 澤野弘之 Sawano Hiroyuki Kabaneri of the Iron Fortress koutetsujou no ed ending
BeatmapID:953762
BeatmapSetID:443879

[Difficulty]
HPDrainRate:6
CircleSize:4
OverallDifficulty:8
ApproachRate:9
SliderMultiplier:3.5
SliderTickRate:2

[Events]
//Background and Video events
0,0,"a.jpg",0,0
//Break Periods
2,90024,92015
2,182117,184101
2,232342,234333
//Storyboard Layer 0 (Background)
//Storyboard Layer 1 (Fail)
//Storyboard Layer 2 (Pass)
//Storyboard Layer 3 (Foreground)
//Storyboard Sound Samples

[TimingPoints]
11685,697.674418604651,4,2,1,40,1,0
11685,-142.857142857143,4,2,1,40,0,0
22847,-117.647058823529,4,2,1,50,0,0
45173,-166.666666666667,4,2,1,40,0,0
56336,-200,4,2,1,40,0,0
63661,-200,4,2,1,20,0,0
64010,-200,4,2,1,40,0,0
66103,-142.857142857143,4,2,1,50,0,0
66626,-125,4,2,1,60,0,0
67498,-111.111111111111,4,2,1,70,0,0
92615,-111.111111111111,4,2,1,70,0,1
92702,-100,4,2,1,70,0,0
137266,-142.857142857143,4,2,1,50,0,0
148429,-200,4,2,1,40,0,0
158196,-125,4,2,1,50,0,0
158719,-111.111111111111,4,2,1,60,0,0
159243,-100,4,2,1,70,0,0
159591,-90.9090909090909,4,2,1,80,0,1
181917,-100,4,2,1,70,0,0
184701,697.674418604651,4,2,1,70,1,0
208073,-133.333333333333,4,2,1,50,0,0
208421,-117.647058823529,4,2,1,50,0,0
208944,-105.263157894737,4,2,1,60,0,0
209467,-95.2380952380952,4,2,1,70,0,0
209817,-86.9565217391304,4,2,1,80,0,1
232142,-100,4,2,1,70,0,0
234933,-90.9090909090909,4,2,1,70,0,1
246096,-111.111111111111,4,2,1,60,0,0
251676,-125,4,2,1,60,0,0

[Colours]
Combo1 : 249,47,47
Combo2 : 254,151,37
Combo3 : 138,83,253
Combo4 : 254,120,231

[HitObjects]
92,276,11685,6,0,P|124:268|160:268,1,61.2499981307984,2|0,0:0|0:0,0:0:0:0:
228,320,12033,2,0,P|272:328|300:328,1,61.2499981307984
364,276,12382,1,2,0:0:0:0:
448,316,12557,1,0,0:0:0:0:
364,276,12731,2,0,P|352:240|352:200,1,61.2499981307984,2|0,0:0|0:0,0:0:0:0:
408,144,13080,2,0,P|416:104|416:80,2,61.2499981307984,2|0|0,0:0|0:0|0:0,0:0:0:0:
350,216,13603,1,0,0:0:0:0:
268,172,13778,2,0,L|256:104,1,61.2499981307984,2|0,0:0|0:0,0:0:0:0:
208,244,14126,2,0,L|188:312,1,61.2499981307984,0|2,0:0|0:0,0:0:0:0:
144,172,14475,5,2,0:0:0:0:
144,172,14650,1,0,0:0:0:0:
216,116,14824,2,0,P|252:112|288:116,1,61.2499981307984
344,176,15173,2,0,P|340:220|332:248,1,61.2499981307984,2|0,0:0|0:0,0:0:0:0:
424,128,15522,2,0,P|412:96|408:60,1,61.2499981307984,2|0,0:0|0:0,0:0:0:0:
505,171,15871,1,2,0:0:0:0:
426,217,16045,1,0,0:0:0:0:
344,176,16219,2,0,L|267:166,1,61.2499981307984
200,208,16568,2,0,L|124:216,2,61.2499981307984,2|0|0,0:0|0:0|0:0,0:0:0:0:
276,260,17091,1,2,0:0:0:0:
204,116,17266,6,0,L|124:96,1,61.2499981307984,2|0,0:0|0:0,0:0:0:0:
288,72,17615,2,0,L|352:60,1,61.2499981307984
208,24,17964,1,2,0:0:0:0:
204,116,18138,1,0,0:0:0:0:
280,168,18312,2,0,P|310:178|344:180,1,61.2499981307984,2|0,0:0|0:0,0:0:0:0:
196,208,18661,2,0,P|169:217|128:224,1,61.2499981307984,2|0,0:0|0:0,0:0:0:0:
263,324,19010,2,0,P|264:293|270:264,1,61.2499981307984
339,180,19359,2,0,L|420:192,2,61.2499981307984,2|0|0,0:0|0:0|0:0,0:0:0:0:
256,144,19882,1,2,0:0:0:0:
172,108,20057,6,0,L|100:116,2,61.2499981307984,2|0|0,0:0|0:0|0:0,0:0:0:0:
256,144,20580,1,0,0:0:0:0:
328,88,20754,2,0,L|400:100,2,61.2499981307984,2|0|2,0:0|0:0|0:0,0:0:0:0:
256,144,21278,1,0,0:0:0:0:
300,224,21452,2,0,P|325:234|360:240,1,61.2499981307984,2|0,0:0|0:0,0:0:0:0:
216,276,21801,2,0,P|208:240|192:208,1,61.2499981307984
250,83,22150,2,0,P|255:116|254:155,1,61.2499981307984,2|0,0:0|0:0,0:0:0:0:
104,224,22498,2,0,P|108:196|124:156,1,61.2499981307984,0|2,0:0|0:0,0:0:0:0:
240,60,22847,6,0,P|320:72|400:56,1,148.750002837181,2|0,0:3|0:0,0:0:0:0:
448,136,23371,1,2,0:0:0:0:
368,188,23545,2,0,P|360:220|360:264,1,74.3750014185906
464,364,23894,2,0,P|460:324|448:280,1,74.3750014185906,0|2,0:0|0:0,0:0:0:0:
272,220,24243,2,0,L|116:240,1,148.750002837181
220,140,24766,1,2,0:0:0:0:
272,220,24940,2,0,P|276:256|268:304,1,74.3750014185906
220,140,25289,1,0,0:0:0:0:
352,168,25464,1,2,0:0:0:0:
232,44,25638,6,0,P|160:64|124:132,1,148.750002837181,2|0,0:0|0:0,0:0:0:0:
308,104,26161,1,2,0:0:0:0:
396,64,26336,2,0,L|476:56,1,74.3750014185906
232,44,26684,2,0,L|140:32,1,74.3750014185906,0|2,0:0|0:0,0:0:0:0:
308,104,27033,1,0,0:0:0:0:
308,104,27382,2,0,P|316:172|292:260,1,148.750002837181,2|0,0:0|0:0,0:0:0:0:
212,292,27905,1,0,0:0:0:0:
132,240,28080,2,0,P|121:204|124:160,1,74.3750014185906,0|2,0:0|0:0,0:0:0:0:
67,313,28429,6,0,P|139:291|223:293,1,148.750002837181,2|0,0:0|0:0,0:0:0:0:
300,332,28952,1,2,0:0:0:0:
300,332,29126,2,0,P|372:336|452:316,1,148.750002837181
504,240,29650,1,2,0:0:0:0:
432,176,29824,2,0,P|393:166|352:168,2,74.3750014185906
384,260,30347,1,2,0:0:0:0:
272,212,30522,2,0,P|264:164|268:124,1,74.3750014185906
408,84,30871,1,0,0:0:0:0:
360,168,31045,1,2,0:0:0:0:
332,20,31219,6,0,L|492:40,1,148.750002837181,2|0,0:0|0:0,0:0:0:0:
320,116,31743,2,0,P|252:72|237:1,1,148.750002837181,2|0,0:0|0:0,0:0:0:0:
332,20,32266,1,0,0:0:0:0:
200,148,32440,1,2,0:0:0:0:
144,68,32615,2,0,L|232:52,1,74.3750014185906
368,128,32964,2,0,L|293:116,1,74.3750014185906,0|2,0:0|0:0,0:0:0:0:
156,207,33312,2,0,P|184:175|200:147,1,74.3750014185906,2|0,0:0|0:0,0:0:0:0:
304,276,33661,2,0,P|284:244|272:196,1,74.3750014185906,0|2,0:0|0:0,0:0:0:0:
394,314,34010,6,0,P|342:365|269:368,1,148.750002837181,2|0,0:0|0:0,0:0:0:0:
304,276,34533,1,2,0:0:0:0:
380,216,34708,2,0,P|420:220|468:244,1,74.3750014185906
304,276,35057,2,0,P|291:242|284:192,1,74.3750014185906,0|2,0:0|0:0,0:0:0:0:
384,92,35405,2,0,B|364:116|364:116|300:128|248:100,1,148.750002837181
320,16,35929,1,2,0:0:0:0:
472,48,36103,2,0,L|480:136,1,74.3750014185906
360,188,36452,1,0,0:0:0:0:
384,92,36626,1,2,0:0:0:0:
260,172,36801,6,0,L|280:328,1,148.750002837181,2|0,0:0|0:0,0:0:0:0:
278,319,37324,1,2,0:0:0:0:
372,360,37498,2,0,B|380:324|380:324|376:268,1,74.3750014185906
444,176,37847,2,0,B|452:212|452:212|476:252,1,74.3750014185906,0|2,0:0|0:0,0:0:0:0:
296,228,38196,1,0,0:0:0:0:
296,228,38545,2,0,P|324:160|316:72,1,148.750002837181,2|0,0:0|0:0,0:0:0:0:
240,32,39068,1,0,0:0:0:0:
160,88,39243,2,0,P|126:97|72:100,1,74.3750014185906,0|2,0:0|0:0,0:0:0:0:
240,32,39591,6,0,P|312:56|400:40,1,148.750002837181,2|0,0:0|0:0,0:0:0:0:
248,128,40115,1,2,0:0:0:0:
160,88,40289,2,0,P|124:80|68:80,1,74.3750014185906
116,172,40638,1,0,0:0:0:0:
248,128,40812,1,2,0:0:0:0:
167,13,40987,2,0,L|160:88,1,74.3750014185906,2|0,0:0|0:0,0:0:0:0:
284,220,41336,2,0,P|336:172|340:92,1,148.750002837181,2|0,0:0|0:0,0:0:0:0:
341,97,42033,1,0,0:0:0:0:
192,180,42208,1,2,0:0:0:0:
248,60,42382,6,0,L|416:72,1,148.750002837181,2|0,0:0|0:0,0:0:0:0:
268,160,42905,2,0,B|252:196|252:196|252:320,1,148.750002837181,2|0,0:0|0:0,0:0:0:0:
348,220,43429,2,0,B|364:188|364:188|368:144,1,74.3750014185906,0|2,0:0|0:0,0:0:0:0:
308,72,43778,2,0,L|208:64,1,74.3750014185906
100,152,44126,2,0,L|184:140,1,74.3750014185906,0|2,0:0|0:0,0:0:0:0:
324,192,44475,1,2,0:0:0:0:
232,216,44650,1,0,0:0:0:0:
233,66,44824,1,0,0:0:0:0:
324,96,44998,1,2,0:0:0:0:
173,141,45173,6,0,B|140:108|136:64|136:64|64:56|32:116,1,209.999993591309,2|0,0:3|0:0,0:0:0:0:
144,220,46219,2,0,P|180:224|212:220,1,52.4999983978272
252,160,46568,2,0,P|320:164|360:248,1,157.499995193482,2|0,0:0|0:0,0:0:0:0:
280,236,47266,2,0,B|268:200|268:200|292:68,1,157.499995193482,2|0,0:0|0:0,0:0:0:0:
356,36,47964,6,0,P|396:32|451:45,1,78.7499975967408,2|0,0:3|0:0,0:0:0:0:
336,156,48487,2,0,P|252:164|200:96,1,157.499995193482
60,252,49359,2,0,P|112:236|172:236,1,104.999996795654,2|0,0:0|0:0,0:0:0:0:
337,317,50057,2,0,P|381:317|441:297,1,104.999996795654,2|0,0:0|0:0,0:0:0:0:
264,168,50754,6,0,B|254:187|254:187|261:258,1,78.7499975967408,2|0,0:3|0:0,0:0:0:0:
344,112,51278,2,0,P|286:74|196:96,1,157.499995193482
264,320,52150,2,0,L|392:336,1,104.999996795654,2|0,0:0|0:0,0:0:0:0:
168,228,52847,2,0,P|92:256|28:216,1,157.499995193482,2|0,0:0|0:0,0:0:0:0:
104,172,53545,6,0,P|118:137|128:88,1,78.7499975967408,2|0,0:3|0:0,0:0:0:0:
256,24,54068,2,0,B|284:88|348:104|348:104|328:60,1,157.499995193482
184,212,54940,2,0,P|164:256|156:328,1,104.999996795654,2|0,0:0|0:0,0:0:0:0:
440,324,55638,2,0,B|448:268|428:224|428:224|440:196|432:164,1,157.499995193482,2|0,0:0|0:0,0:0:0:0:
352,188,56336,6,0,B|312:196|268:184|268:184|224:172|180:188,1,175,2|0,0:3|0:0,0:0:0:0:
320,92,57731,2,0,P|284:32|188:52,1,175,2|0,0:0|0:0,0:0:0:0:
352,188,59126,6,0,P|384:168|408:136,1,65.625,2|0,0:3|0:0,0:0:0:0:
256,168,59650,2,0,B|248:224|280:272|340:284|340:284|304:324|252:304|252:304|224:316|216:344,1,306.25
44,352,61219,2,0,P|88:300|148:312,1,131.25,2|0,0:0|0:0,0:0:0:0:
172,232,61917,6,0,P|152:192|148:160,1,65.625,2|0,0:3|0:0,0:0:0:0:
256,288,62440,2,0,B|272:260|272:224|272:224|352:244|416:204|416:204|400:160|356:140,1,306.25
172,232,64010,2,0,B|176:160|236:128|236:128|206:134|176:128,1,175,2|2,0:0|0:3,0:0:0:0:
189,130,65754,5,0,0:0:0:0:
304,56,66103,2,0,P|352:48|432:56,1,122.499996261597,2|0,0:0|0:0,0:0:0:0:
320,156,66626,2,0,P|384:172|448:220,1,140,2|0,0:0|0:0,0:0:0:0:
260,240,67150,1,2,0:0:0:0:
260,240,67498,6,0,P|216:168|236:92,1,157.499995193482,2|0,0:3|0:0,0:0:0:0:
324,52,68022,1,2,0:0:0:0:
230,100,68196,2,0,L|130:92,1,78.7499975967408
320,156,68545,2,0,L|416:148,1,78.7499975967408,0|2,0:0|0:0,0:0:0:0:
236,220,68894,2,0,P|232:276|276:368,1,157.499995193482,2|0,0:0|0:0,0:0:0:0:
484,232,69591,2,0,P|504:160|488:72,1,157.499995193482,2|0,0:0|0:0,0:0:0:0:
400,28,70115,1,2,0:0:0:0:
316,88,70289,6,0,P|276:92|232:84,1,78.7499975967408,2|0,0:0|0:0,0:0:0:0:
324,252,70638,2,0,P|346:225|368:176,1,78.7499975967408,0|2,0:0|0:0,0:0:0:0:
192,216,70987,2,0,P|164:280|200:364,1,157.499995193482,2|0,0:0|0:0,0:0:0:0:
96,172,71510,2,0,P|152:120|244:124,1,157.499995193482,2|0,0:0|0:0,0:0:0:0:
372,208,72033,2,0,P|336:208|284:196,1,78.7499975967408
136,276,72382,2,0,P|181:275|220:264,1,78.7499975967408,2|0,0:0|0:0,0:0:0:0:
295,200,72731,1,0,0:0:0:0:
229,117,72905,1,2,0:0:0:0:
213,266,73080,6,0,L|204:352,1,78.7499975967408,2|0,0:3|0:0,0:0:0:0:
400,312,73429,2,0,L|392:220,1,78.7499975967408,0|2,0:0|0:0,0:0:0:0:
324,92,73778,2,0,P|392:136|468:124,1,157.499995193482
412,36,74301,1,2,0:0:0:0:
324,92,74475,2,0,P|314:127|312:192,1,78.7499975967408
236,296,74824,2,0,P|232:256|212:208,1,78.7499975967408,2|0,0:0|0:0,0:0:0:0:
120,192,75173,2,0,P|204:180|212:108,1,157.499995193482,2|0,0:0|0:0,0:0:0:0:
8,304,75871,6,0,P|56:284|152:320,1,157.499995193482,2|0,0:0|0:0,0:0:0:0:
240,268,76394,1,0,0:0:0:0:
312,344,76568,2,0,P|352:348|408:332,1,78.7499975967408,2|0,0:0|0:0,0:0:0:0:
240,268,76917,1,0,0:0:0:0:
316,200,77091,2,0,P|332:112|300:32,1,157.499995193482,2|0,0:0|0:0,0:0:0:0:
144,132,77615,2,0,P|128:220|160:300,2,157.499995193482,2|0|0,0:0|0:0|0:0,0:0:0:0:
236,84,78487,1,2,0:0:0:0:
324,136,78661,6,0,B|364:144|364:144|408:140,2,78.7499975967408,2|0|0,0:3|0:0|0:0,0:0:0:0:
236,84,79184,1,2,0:0:0:0:
164,160,79359,2,0,B|144:200|144:200|152:316,1,157.499995193482
244,224,79882,1,2,0:0:0:0:
164,160,80057,2,0,P|108:139|4:152,1,157.499995193482,2|0,0:0|0:0,0:0:0:0:
312,96,80754,2,0,P|396:68|472:80,1,157.499995193482,2|0,0:0|0:0,0:0:0:0:
288,196,81278,1,2,0:0:0:0:
212,124,81452,6,0,L|204:36,1,78.7499975967408,2|0,0:0|0:0,0:0:0:0:
288,196,81801,2,0,L|276:292,1,78.7499975967408,0|2,0:0|0:0,0:0:0:0:
140,193,82150,2,0,B|184:168|184:168|287:195,1,157.499995193482
388,224,82673,1,2,0:0:0:0:
304,92,82847,2,0,P|296:56|296:12,1,78.7499975967408
480,76,83196,2,0,P|477:116|464:164,1,78.7499975967408,2|0,0:0|0:0,0:0:0:0:
288,196,83545,2,0,P|328:184|368:180,1,78.7499975967408,2|0,0:0|0:0,0:0:0:0:
440,252,83894,1,2,0:0:0:0:
344,284,84068,1,0,0:0:0:0:
288,196,84243,6,0,L|280:104,1,78.7499975967408,2|0,0:3|0:0,0:0:0:0:
124,216,84591,2,0,P|192:292|260:280,1,157.499995193482,2|0,0:0|0:0,0:0:0:0:
288,196,85115,1,0,0:0:0:0:
240,289,85289,2,0,L|248:377,1,78.7499975967408,2|0,0:0|0:0,0:0:0:0:
344,284,85638,1,2,0:0:0:0:
288,196,85812,1,0,0:0:0:0:
440,252,85987,2,0,L|432:344,1,78.7499975967408,2|0,0:0|0:0,0:0:0:0:
384,164,86336,2,0,B|396:40|396:40|424:76,1,157.499995193482
480,148,86859,1,2,0:0:0:0:
300,92,87033,6,0,B|288:56|288:56|288:4,1,78.7499975967408,2|0,0:3|0:0,0:0:0:0:
232,172,87382,2,0,B|196:184|196:184|144:184,1,78.7499975967408,0|2,0:0|0:0,0:0:0:0:
336,188,87731,2,0,B|372:180|372:180|428:180,2,78.7499975967408,2|0|0,0:0|0:0|0:0,0:0:0:0:
272,268,88254,1,2,0:0:0:0:
348,336,88429,2,0,L|440:344,1,78.7499975967408,2|0,0:0|0:0,0:0:0:0:
180,316,88778,2,0,L|172:228,1,78.7499975967408,0|2,0:0|0:0,0:0:0:0:
352,212,89126,2,0,L|260:224,1,78.7499975967408,2|0,0:0|0:0,0:0:0:0:
72,252,89475,5,2,0:0:0:0:
232,128,89650,1,2,0:0:0:0:
256,328,89824,1,2,0:3:0:0:
395,307,92615,6,0,P|321:287|256:328,1,157.499995193482,12|8,0:0|0:0,0:0:0:0:
216,228,93138,1,8,0:0:0:0:
5,258,93312,2,0,P|63:319|148:312,1,175,8|8,1:0|0:0,0:0:0:0:
216,228,93836,1,0,0:0:0:0:
288,308,94010,2,0,L|388:300,1,87.5,2|8,0:0|0:0,0:0:0:0:
392,156,94359,2,0,L|288:164,1,87.5,8|2,0:0|0:0,0:0:0:0:
460,236,94708,2,0,P|488:196|460:72,1,175,8|2,1:0|0:0,0:0:0:0:
331,233,95231,1,0,0:0:0:0:
204,204,95405,6,0,P|172:148|200:36,1,175,10|0,0:0|0:0,0:0:0:0:
193,44,95929,1,8,0:0:0:0:
88,180,96103,2,0,L|104:276,1,87.5,8|0,1:0|0:0,0:0:0:0:
304,304,96452,1,8,0:0:0:0:
204,204,96626,1,8,0:0:0:0:
336,124,96801,2,0,L|320:220,1,87.5,2|0,0:0|0:0,0:0:0:0:
448,316,97150,2,0,L|424:232,1,87.5,8|2,0:0|0:0,0:0:0:0:
356,16,97498,5,8,1:0:0:0:
336,124,97673,1,8,0:0:0:0:
316,232,97847,1,2,0:0:0:0:
421,124,98022,2,0,P|417:100|407:74,1,43.75,2|0,0:0|0:0,0:0:0:0:
264,72,98196,6,0,B|248:104|248:104|184:140|112:100,1,175,10|8,0:0|0:0,0:0:0:0:
52,12,98719,1,8,0:0:0:0:
204,144,98894,2,0,P|216:236|156:300,1,175,8|0,1:0|0:0,0:0:0:0:
112,200,99417,1,0,0:0:0:0:
204,144,99591,1,2,0:0:0:0:
108,92,99766,1,8,0:0:0:0:
208,252,99940,2,0,P|252:256|308:240,1,87.5,8|2,0:0|0:0,0:0:0:0:
472,300,100289,2,0,P|429:298|376:312,1,87.5,8|0,1:0|0:0,0:0:0:0:
300,376,100638,1,2,0:0:0:0:
412,196,100812,1,2,0:0:0:0:
201,164,100987,6,0,L|209:264,1,87.5,10|0,0:0|0:0,0:0:0:0:
296,108,101336,2,0,L|308:20,1,87.5,0|8,0:0|0:0,0:0:0:0:
112,104,101684,2,0,B|91:144|91:144|104:280,1,175,8|8,1:0|0:0,0:0:0:0:
217,359,102208,1,8,0:0:0:0:
340,312,102382,2,0,L|356:216,1,87.5,2|0,0:0|0:0,0:0:0:0:
201,164,102731,2,0,L|208:260,1,87.5,8|2,0:0|0:0,0:0:0:0:
360,200,103080,5,8,1:0:0:0:
260,40,103254,1,8,0:0:0:0:
372,92,103429,1,2,0:0:0:0:
201,164,103603,2,0,L|192:104,1,43.75,2|0,0:0|0:0,0:0:0:0:
260,40,103778,6,0,P|312:56|420:8,1,175,12|8,0:0|0:0,0:0:0:0:
418,10,104301,1,10,0:0:0:0:
304,148,104475,2,0,P|296:196|300:248,1,87.5,8|0,1:0|0:0,0:0:0:0:
456,320,104824,2,0,L|360:308,1,87.5,8|0,0:0|0:0,0:0:0:0:
200,284,105173,1,2,0:0:0:0:
297,234,105347,1,8,0:0:0:0:
108,224,105522,2,0,P|92:276|92:312,1,87.5,8|2,0:0|0:0,0:0:0:0:
288,346,105871,2,0,P|307:263|261:191,1,175,8|0,1:0|0:0,0:0:0:0:
200,284,106394,1,2,0:0:0:0:
352,256,106568,6,0,B|424:240|488:276|488:276|448:296,1,175,10|0,0:0|0:0,0:0:0:0:
288,346,107091,1,10,0:0:0:0:
261,191,107266,2,0,P|261:147|272:92,1,87.5,8|0,1:0|0:0,0:0:0:0:
352,256,107615,1,10,0:0:0:0:
352,256,107789,1,8,0:0:0:0:
174,200,107964,2,0,L|282:188,1,87.5,2|0,0:0|0:0,0:0:0:0:
244,376,108312,2,0,B|228:336|228:336|228:280,1,87.5,8|2,0:0|0:0,0:0:0:0:
348,132,108661,5,8,1:0:0:0:
332,316,108836,1,8,0:0:0:0:
174,200,109010,1,2,0:0:0:0:
408,212,109184,2,0,L|412:256,1,43.75,2|0,0:0|0:0,0:0:0:0:
348,132,109359,6,0,B|404:100|472:132|472:132|464:108|444:96,1,175,10|8,0:0|0:0,0:0:0:0:
272,56,109882,1,10,0:0:0:0:
276,208,110057,2,0,P|320:232|372:236,1,87.5,8|0,1:0|0:0,0:0:0:0:
168,328,110405,2,0,P|208:312|256:308,1,87.5,10|0,0:0|0:0,0:0:0:0:
356,344,110754,1,2,0:0:0:0:
276,208,110929,1,8,0:0:0:0:
461,225,111103,2,0,P|421:242|378:244,1,87.5,8|2,0:0|0:0,0:0:0:0:
240,104,111452,2,0,P|296:104|336:116,1,87.5,8|0,1:0|0:0,0:0:0:0:
276,208,111801,1,2,0:0:0:0:
140,60,111975,1,2,0:0:0:0:
176,251,112150,6,0,P|235:189|239:103,1,175,10|0,0:0|0:0,0:0:0:0:
76,220,112673,1,10,0:0:0:0:
176,360,112847,2,0,L|276:352,1,87.5,8|0,1:0|0:0,0:0:0:0:
176,251,113196,1,10,0:0:0:0:
20,312,113371,1,8,0:0:0:0:
65,133,113545,2,0,L|76:220,1,87.5,2|0,0:0|0:0,0:0:0:0:
192,148,113894,2,0,L|204:48,1,87.5,8|2,0:0|0:0,0:0:0:0:
176,251,114243,5,8,1:0:0:0:
296,116,114417,1,8,0:0:0:0:
300,275,114591,1,8,1:0:0:0:
103,100,114766,1,8,1:0:0:0:
160,352,114940,6,0,B|202:339|244:358|244:358|285:378|331:370,1,175,12|8,0:0|0:0,0:0:0:0:
424,288,115464,1,8,0:0:0:0:
315,101,115638,2,0,L|300:276,1,175,8|8,1:0|0:0,0:0:0:0:
216,176,116161,1,2,0:0:0:0:
412,112,116336,2,0,L|404:204,1,87.5,2|8,0:0|0:0,0:0:0:0:
220,64,116684,2,0,B|244:28|244:28|296:0,1,87.5,8|0,0:0|0:0,0:0:0:0:
252,172,117033,2,0,B|192:168|192:168|140:144|140:144|80:140,1,175,8|2,1:0|0:0,0:0:0:0:
112,244,117557,1,2,0:0:0:0:
220,64,117731,6,0,L|316:60,1,87.5,8|0,0:0|0:0,0:0:0:0:
448,208,118080,2,0,L|348:204,1,87.5,0|8,0:0|0:0,0:0:0:0:
112,244,118429,2,0,P|192:232|264:288,1,175,8|8,1:0|0:0,0:0:0:0:
168,332,118952,1,8,0:0:0:0:
224,192,119126,2,0,P|228:164|224:100,1,87.5,2|0,0:0|0:0,0:0:0:0:
44,28,119475,2,0,P|64:124|128:152,1,175,10|8,0:0|1:0,0:0:0:0:
224,105,119998,1,8,0:0:0:0:
392,132,120173,2,0,P|354:153|311:160,1,87.5,2|0,0:0|0:0,0:0:0:0:
136,52,120522,6,0,P|216:6|302:40,1,175,10|8,0:0|0:0,0:0:0:0:
128,152,121045,1,8,0:0:0:0:
40,96,121219,2,0,P|28:60|24:0,1,87.5,8|0,1:0|0:0,0:0:0:0:
128,152,121568,1,8,0:0:0:0:
12,192,121743,1,2,0:0:0:0:
128,36,121917,2,0,L|232:28,1,87.5,2|8,0:0|0:0,0:0:0:0:
392,128,122266,2,0,L|288:116,1,87.5,8|0,0:0|0:0,0:0:0:0:
112,192,122615,1,8,1:0:0:0:
112,192,122964,1,2,0:0:0:0:
268,228,123138,1,0,0:0:0:0:
156,100,123312,6,0,B|140:141|140:141|164:276,1,175,10|0,0:0|0:0,0:0:0:0:
324,344,123836,1,8,0:0:0:0:
400,272,124010,2,0,L|412:176,1,87.5,8|0,1:0|0:0,0:0:0:0:
268,80,124359,1,8,0:0:0:0:
312,220,124533,1,8,0:0:0:0:
156,112,124708,2,0,B|200:100|200:100|256:104,1,87.5,2|0,0:0|0:0,0:0:0:0:
176,268,125057,2,0,B|132:268|132:268|84:256,1,87.5,8|2,0:0|0:0,0:0:0:0:
260,196,125405,5,8,1:0:0:0:
244,360,125580,1,8,0:0:0:0:
144,164,125754,1,2,0:0:0:0:
376,224,125929,1,2,0:0:0:0:
176,268,126103,6,0,B|168:232|168:232|200:80,1,175,12|8,0:0|0:0,0:0:0:0:
276,236,126626,1,8,0:0:0:0:
88,164,126801,2,0,L|108:68,1,87.5,8|0,1:0|0:0,0:0:0:0:
284,40,127150,2,0,L|296:140,1,87.5,8|2,0:0|0:0,0:0:0:0:
176,268,127498,1,2,0:0:0:0:
196,168,127673,1,8,0:0:0:0:
240,352,127847,2,0,L|140:372,1,87.5,8|0,0:0|0:0,0:0:0:0:
280,256,128196,2,0,B|320:292|320:292|460:304,1,175,8|2,1:0|0:0,0:0:0:0:
364,196,128719,1,0,0:0:0:0:
192,248,128894,6,0,L|279:255,1,87.5,10|0,0:0|0:0,0:0:0:0:
468,204,129243,1,0,0:0:0:0:
279,255,129417,1,8,0:0:0:0:
365,109,129591,2,0,P|371:152|363:195,1,87.5,8|0,1:0|0:0,0:0:0:0:
264,148,129940,1,10,0:0:0:0:
468,204,130115,1,8,0:0:0:0:
300,336,130289,2,0,P|281:297|278:254,1,87.5,2|0,0:0|0:0,0:0:0:0:
365,109,130638,2,0,P|321:141|193:117,1,175,2|8,0:0|1:0,0:0:0:0:
420,204,131161,1,8,0:0:0:0:
476,112,131336,2,0,P|464:64|436:20,1,87.5,2|0,0:0|0:0,0:0:0:0:
324,244,131684,6,0,P|380:300|480:292,1,175,10|8,0:0|0:0,0:0:0:0:
420,204,132208,1,8,0:0:0:0:
312,352,132382,1,8,1:0:0:0:
312,352,132731,1,8,0:0:0:0:
324,244,132905,1,2,0:0:0:0:
336,136,133080,2,0,L|324:40,1,87.5,2|8,0:0|0:0,0:0:0:0:
167,228,133429,2,0,P|242:269|324:243,1,175,10|8,0:0|1:0,0:0:0:0:
336,136,133952,1,0,0:0:0:0:
244,76,134126,2,0,P|184:72|144:80,1,87.5,2|0,0:0|0:0,0:0:0:0:
336,136,134475,6,0,B|384:144|424:128|424:128|464:112|508:124,1,175,10|0,0:0|0:0,0:0:0:0:
372,36,134998,2,0,P|331:32|280:44,1,87.5,2|8,0:0|1:0,0:0:0:0:
236,176,135347,1,0,0:0:0:0:
320,244,135522,2,0,L|412:240,1,87.5,10|8,0:0|0:0,0:0:0:0:
236,176,135871,2,0,L|204:268,1,87.5,2|0,0:0|0:0,0:0:0:0:
344,136,136219,2,0,L|288:60,1,87.5,2|0,0:0|0:0,0:0:0:0:
124,184,136568,5,8,1:0:0:0:
320,244,136743,1,8,0:0:0:0:
200,372,136917,1,2,0:0:0:0:
236,176,137091,1,2,0:0:0:0:
377,306,137266,6,0,P|291:323|236:256,1,183.749994392395,2|0,0:3|0:0,0:0:0:0:
320,244,137964,2,0,P|348:228|388:224,1,61.2499981307984,2|0,0:0|0:0,0:0:0:0:
364,141,138312,2,0,P|397:143|427:156,1,61.2499981307984,0|2,0:0|0:0,0:0:0:0:
377,223,138661,2,0,B|329:227|293:199|281:155|281:155|257:139|229:147,1,183.749994392395,2|0,0:0|0:0,0:0:0:0:
233,223,139359,2,0,P|297:179|265:79,1,183.749994392395,2|0,0:0|0:0,0:0:0:0:
200,64,140057,6,0,P|156:80|100:76,1,91.8749971961976,2|0,0:3|0:0,0:0:0:0:
36,192,140580,2,0,P|95:166|180:244,1,183.749994392395
392,152,141452,2,0,L|260:160,1,122.499996261597,2|0,0:0|0:0,0:0:0:0:
212,104,141975,1,0,0:0:0:0:
212,104,142150,2,0,P|200:76|200:40,1,61.2499981307984,2|0,0:0|0:0,0:0:0:0:
276,60,142498,2,0,P|288:32|312:12,1,61.2499981307984
352,80,142847,6,0,P|372:120|368:180,1,91.8749971961976,2|0,0:3|0:0,0:0:0:0:
272,252,143371,2,0,P|340:212|444:244,1,183.749994392395
268,348,144243,2,0,P|208:324|176:268,1,122.499996261597,2|0,0:0|0:0,0:0:0:0:
192,200,144766,1,0,0:0:0:0:
260,160,144940,2,0,P|291:159|344:172,1,61.2499981307984,2|0,0:0|0:0,0:0:0:0:
192,200,145289,2,0,P|159:201|120:192,1,61.2499981307984
260,240,145638,6,0,P|271:277|272:332,1,91.8749971961976,2|0,0:3|0:0,0:0:0:0:
204,168,146161,2,0,B|244:144|292:156|292:156|340:168|384:152,1,183.749994392395
148,92,147033,2,0,P|116:140|124:220,1,122.499996261597,2|0,0:0|0:0,0:0:0:0:
176,256,147557,1,0,0:0:0:0:
240,204,147731,2,0,L|228:132,1,61.2499981307984,2|0,0:0|0:0,0:0:0:0:
138,31,148080,2,0,L|150:111,1,61.2499981307984
180,280,148429,6,0,B|244:288|288:256|288:256|316:268|348:264,1,175,2|0,0:3|0:0,0:0:0:0:
332,104,149824,2,0,B|268:96|224:128|224:128|196:116|164:120,1,175,2|0,0:0|0:0,0:0:0:0:
164,120,151219,6,0,L|157:212,1,87.5,2|0,0:3|0:0,0:0:0:0:
191,306,151917,2,0,P|268:315|240:171,1,262.5
237,247,153312,2,0,B|269:238|269:238|303:246|303:246|337:234|369:238,1,131.25,2|0,0:0|0:0,0:0:0:0:
392,239,154010,6,0,B|402:222|402:222|399:147,1,87.5,2|0,0:3|0:0,0:0:0:0:
380,55,154708,2,0,B|347:62|325:85|325:85|264:51|203:73|203:73|213:37|255:29,1,262.5
256,208,156103,2,0,B|256:300|212:340|212:340|204:320|208:300,1,175,2|2,0:0|0:3,0:0:0:0:
206,308,157847,5,0,0:0:0:0:
296,172,158196,2,0,P|356:148|452:156,1,140,2|0,0:0|0:0,0:0:0:0:
208,104,158719,2,0,B|184:124|184:124|112:128|68:84,1,157.499995193482,2|0,0:0|0:0,0:0:0:0:
280,20,159243,2,0,B|304:8|304:8|376:16,1,87.5,2|0,0:0|0:0,0:0:0:0:
232,244,159591,6,0,B|184:228|184:228|144:168|160:88,1,192.500005874634,12|8,0:0|0:0,0:0:0:0:
328,196,160115,1,8,0:0:0:0:
200,344,160289,2,0,B|48:356|48:356|80:328,1,192.500005874634,8|8,1:0|0:0,0:0:0:0:
224,216,160812,1,0,0:0:0:0:
340,280,160987,6,0,L|356:380,1,96.250002937317,2|8,0:0|0:0,0:0:0:0:
128,252,161336,2,0,L|140:152,1,96.250002937317,10|0,0:0|0:0,0:0:0:0:
380,164,161684,2,0,B|336:180|336:180|276:180,1,96.250002937317,8|0,1:0|0:0,0:0:0:0:
76,68,162033,2,0,B|120:52|120:52|180:52,1,96.250002937317,2|0,0:0|0:0,0:0:0:0:
216,300,162382,6,0,P|139:248|138:156,1,192.500005874634,10|0,0:0|0:0,0:0:0:0:
312,56,162905,1,8,0:0:0:0:
236,200,163080,1,8,1:0:0:0:
92,64,163254,1,0,0:0:0:0:
224,104,163429,1,10,0:0:0:0:
60,200,163603,6,0,L|44:8,1,192.500005874634,10|0,0:0|0:0,0:0:0:0:
240,244,164126,2,0,B|198:265|198:265|136:268,1,96.250002937317,10|0,0:0|0:0,0:0:0:0:
284,144,164475,1,8,1:0:0:0:
324,312,164650,1,8,0:0:0:0:
460,224,164824,2,0,L|348:212,1,96.250002937317,2|0,0:0|0:0,0:0:0:0:
160,160,165173,6,0,P|276:164|332:100,1,192.500005874634,10|8,0:0|0:0,0:0:0:0:
276,268,165696,1,8,0:0:0:0:
224,72,165871,2,0,P|256:32|296:8,1,96.250002937317,8|0,1:0|0:0,0:0:0:0:
208,184,166219,2,0,B|144:192|144:192|84:168|84:168|20:176,1,192.500005874634,10|2,0:0|0:0,0:0:0:0:
160,88,166743,5,8,0:0:0:0:
72,264,166917,1,10,0:0:0:0:
232,180,167091,1,0,0:0:0:0:
60,44,167266,2,0,L|68:152,1,96.250002937317,8|0,1:0|0:0,0:0:0:0:
160,328,167615,2,0,L|176:216,1,96.250002937317,2|0,0:0|0:0,0:0:0:0:
376,168,167964,6,0,P|336:284|272:296,1,192.500005874634,10|0,0:0|0:0,0:0:0:0:
300,104,168487,1,8,0:0:0:0:
468,136,168661,1,8,1:0:0:0:
284,200,168836,1,0,0:0:0:0:
396,68,169010,1,10,0:0:0:0:
204,140,169184,6,0,B|184:200|184:200|204:332,1,192.500005874634,10|0,0:0|0:0,0:0:0:0:
308,144,169708,2,0,B|300:96|300:96|268:52,1,96.250002937317,8|0,0:0|0:0,0:0:0:0:
88,156,170057,1,8,1:0:0:0:
304,236,170231,1,8,0:0:0:0:
168,268,170405,1,2,0:0:0:0:
204,140,170580,1,2,0:0:0:0:
252,360,170754,6,0,L|52:336,1,192.500005874634,12|8,0:0|0:0,0:0:0:0:
264,256,171278,1,8,0:0:0:0:
32,180,171452,2,0,L|252:160,1,192.500005874634,8|8,1:0|0:0,0:0:0:0:
160,256,171975,1,0,0:0:0:0:
100,128,172150,6,0,P|104:80|120:36,1,96.250002937317,2|8,0:0|0:0,0:0:0:0:
312,100,172498,2,0,P|325:145|328:200,1,96.250002937317,10|0,0:0|0:0,0:0:0:0:
88,264,172847,2,0,L|200:244,1,96.250002937317,8|0,1:0|0:0,0:0:0:0:
396,360,173196,2,0,L|284:340,1,96.250002937317,2|0,0:0|0:0,0:0:0:0:
440,120,173545,6,0,P|492:184|472:300,1,192.500005874634,10|0,0:0|0:0,0:0:0:0:
336,144,174068,1,8,0:0:0:0:
412,16,174243,2,0,P|456:8|516:12,1,96.250002937317,8|0,1:0|0:0,0:0:0:0:
336,144,174591,1,10,0:0:0:0:
236,32,174766,6,0,P|186:15|56:72,1,192.500005874634,10|0,0:0|0:0,0:0:0:0:
208,232,175289,2,0,L|220:124,1,96.250002937317,10|0,0:0|0:0,0:0:0:0:
116,280,175638,1,8,1:0:0:0:
308,196,175812,1,8,0:0:0:0:
100,76,175987,2,0,L|116:188,1,96.250002937317,2|0,0:0|0:0,0:0:0:0:
320,36,176336,6,0,P|270:17|216:20,1,96.250002937317,10|0,0:0|0:0,0:0:0:0:
116,200,176684,1,10,0:0:0:0:
252,120,176859,1,8,0:0:0:0:
48,104,177033,2,0,B|8:144|8:144|-12:212|20:276,1,192.500005874634,8|8,1:0|0:0,0:0:0:0:
238,344,177557,5,2,0:0:0:0:
116,200,177731,1,2,0:0:0:0:
312,148,177905,1,8,0:0:0:0:
234,312,178080,2,0,L|226:212,1,96.250002937317,10|0,0:0|0:0,0:0:0:0:
372,54,178429,2,0,P|422:133|394:222,1,192.500005874634,8|0,1:0|0:0,0:0:0:0:
312,148,178952,1,2,0:0:0:0:
502,208,179126,6,0,P|474:297|388:332,1,192.500005874634,10|0,0:0|0:0,0:0:0:0:
292,276,179650,1,8,0:0:0:0:
400,129,179824,2,0,B|408:176|408:176|394:223,1,96.250002937317,8|0,1:0|0:0,0:0:0:0:
184,240,180173,1,8,0:0:0:0:
300,168,180347,1,10,0:0:0:0:
190,48,180522,6,0,B|184:96|184:96|199:141,1,96.250002937317,2|0,0:0|0:0,0:0:0:0:
232,336,180871,2,0,B|268:308|268:308|296:248,1,96.250002937317,8|2,0:0|0:0,0:0:0:0:
288,88,181219,1,8,1:0:0:0:
184,240,181394,1,8,0:0:0:0:
384,200,181568,5,8,1:0:0:0:
136,104,181743,1,8,1:0:0:0:
380,24,181917,1,2,0:3:0:0:
380,24,184701,6,0,P|416:102|405:198,1,175,12|8,0:0|0:0,0:0:0:0:
330,360,185224,1,8,0:0:0:0:
188,248,185398,2,0,L|296:232,1,87.5,8|0,1:0|0:0,0:0:0:0:
468,292,185747,2,0,L|376:280,1,87.5,8|0,0:0|0:0,0:0:0:0:
164,252,186096,5,2,0:0:0:0:
392,191,186270,1,8,0:0:0:0:
204,52,186445,2,0,B|204:96|204:96|220:148,1,87.5,10|0,0:0|0:0,0:0:0:0:
244,320,186794,2,0,B|216:288|216:288|148:272|92:320,1,175,8|0,1:0|0:0,0:0:0:0:
92,319,187317,1,2,0:0:0:0:
312,236,187491,6,0,P|328:200|336:136,1,87.5,10|0,0:0|0:0,0:0:0:0:
228,168,187840,1,2,0:0:0:0:
284,370,188014,1,8,0:0:0:0:
61,333,188189,2,0,L|150:301,1,87.5,8|0,1:0|0:0,0:0:0:0:
268,256,188538,1,10,0:0:0:0:
77,156,188712,1,8,0:0:0:0:
272,72,188887,6,0,P|288:112|288:168,1,87.5,2|0,0:0|0:0,0:0:0:0:
408,328,189235,2,0,P|368:256|400:168,1,175,10|8,0:0|1:0,0:0:0:0:
268,256,189759,1,8,0:0:0:0:
472,248,189933,1,2,0:0:0:0:
320,96,190107,1,2,0:0:0:0:
477,143,190282,6,0,P|442:161|394:172,1,87.5,10|0,0:0|0:0,0:0:0:0:
228,40,190631,1,8,0:0:0:0:
404,64,190805,1,10,0:0:0:0:
224,168,190980,1,8,1:0:0:0:
428,68,191154,1,0,0:0:0:0:
204,36,191328,2,0,B|64:48|64:48|108:60,1,175,10|0,0:0|0:0,0:0:0:0:
292,100,191852,5,8,0:0:0:0:
136,212,192026,1,10,0:0:0:0:
204,36,192201,1,2,0:0:0:0:
228,248,192375,2,0,L|48:268,1,175,8|2,1:0|0:0,0:0:0:0:
256,348,192898,1,2,0:0:0:0:
316,184,193073,6,0,P|412:172|480:212,1,175,10|0,0:0|0:0,0:0:0:0:
228,248,193596,2,0,P|212:204|208:152,1,87.5,10|8,0:0|1:0,0:0:0:0:
288,84,193945,1,0,0:0:0:0:
316,184,194119,1,10,0:0:0:0:
180,60,194294,1,8,0:0:0:0:
392,108,194468,6,0,P|424:184|384:268,1,175,2|8,0:0|0:0,0:0:0:0:
256,308,194991,1,2,0:0:0:0:
124,264,195166,2,0,P|108:220|104:176,1,87.5,8|8,1:0|0:0,0:0:0:0:
212,200,195514,1,2,0:0:0:0:
56,352,195689,1,2,0:0:0:0:
12,136,195863,6,0,B|24:108|60:88|60:88|112:100|168:84,1,175,12|8,0:0|0:0,0:0:0:0:
248,12,196387,1,8,0:0:0:0:
160,192,196561,2,0,L|180:288,1,87.5,8|0,1:0|0:0,0:0:0:0:
357,97,196910,2,0,L|272:115,1,87.5,8|0,0:0|0:0,0:0:0:0:
64,160,197259,5,2,0:0:0:0:
272,232,197433,1,8,0:0:0:0:
217,17,197607,2,0,B|184:44|184:44|164:84,1,87.5,10|0,0:0|0:0,0:0:0:0:
367,289,197956,2,0,P|378:204|329:135,1,175,8|0,1:0|0:0,0:0:0:0:
260,320,198480,1,2,0:0:0:0:
424,196,198654,6,0,P|467:184|516:184,1,87.5,10|0,0:0|0:0,0:0:0:0:
329,135,199003,2,0,P|289:147|237:151,1,87.5,2|8,0:0|0:0,0:0:0:0:
304,322,199352,2,0,P|324:284|333:241,1,87.5,8|0,1:0|0:0,0:0:0:0:
268,48,199701,1,10,0:0:0:0:
224,252,199875,1,8,0:0:0:0:
329,135,200049,5,2,0:0:0:0:
136,58,200224,1,0,0:0:0:0:
380,40,200398,2,0,P|432:120|412:204,1,175,10|8,0:0|1:0,0:0:0:0:
248,244,200921,1,8,0:0:0:0:
418,193,201096,1,2,0:0:0:0:
212,148,201270,1,0,0:0:0:0:
316,324,201445,6,0,P|340:291|352:244,1,87.5,10|0,0:0|0:0,0:0:0:0:
248,244,201794,1,8,0:0:0:0:
428,332,201968,1,10,0:0:0:0:
336,144,202142,2,0,L|352:44,1,87.5,8|0,1:0|0:0,0:0:0:0:
224,216,202491,2,0,L|204:120,1,87.5,10|0,0:0|0:0,0:0:0:0:
332,260,202840,5,2,0:0:0:0:
172,316,203014,1,8,0:0:0:0:
224,216,203189,1,8,0:0:0:0:
276,360,203363,1,2,0:0:0:0:
68,348,203538,2,0,B|67:304|67:304|84:252,1,87.5,8|0,1:0|0:0,0:0:0:0:
156,136,203887,1,2,0:0:0:0:
172,316,204061,1,2,0:0:0:0:
65,100,204235,6,0,L|240:88,1,175,10|0,0:0|0:0,0:0:0:0:
432,200,204759,1,10,0:0:0:0:
328,236,204933,2,0,L|336:136,1,87.5,8|0,1:0|0:0,0:0:0:0:
432,92,205282,1,10,0:0:0:0:
408,304,205456,6,0,P|312:340|248:308,1,175,8|0,0:0|0:0,0:0:0:0:
164,164,205980,2,0,P|228:156|280:168,1,87.5,10|0,0:0|0:0,0:0:0:0:
328,236,206328,1,8,1:0:0:0:
120,264,206503,1,8,0:0:0:0:
356,128,206677,1,8,1:0:0:0:
108,44,206852,1,8,1:0:0:0:
108,44,208073,5,2,0:0:0:0:
356,128,208421,2,0,B|384:156|384:156|396:212|376:264,1,148.750002837181,2|0,0:0|0:0,0:0:0:0:
136,144,208945,2,0,P|144:60|224:36,1,166.249995560646,2|0,0:0|0:0,0:0:0:0:
232,304,209468,2,0,P|192:324|132:332,1,91.8749971961976,2|0,0:0|0:0,0:0:0:0:
336,108,209817,6,0,P|436:100|500:176,1,201.250003838539,12|8,0:0|0:0,0:0:0:0:
280,212,210340,1,8,0:0:0:0:
176,148,210514,2,0,P|160:96|164:36,1,100.62500191927,8|0,1:0|0:0,0:0:0:0:
144,252,210863,1,8,0:0:0:0:
268,88,211038,1,2,0:0:0:0:
52,56,211212,6,0,P|52:108|64:160,1,100.62500191927,2|8,0:0|0:0,0:0:0:0:
272,352,211561,2,0,P|275:301|292:252,1,100.62500191927,8|0,0:0|0:0,0:0:0:0:
236,12,211910,2,0,P|236:62|226:111,1,100.62500191927,8|0,1:0|0:0,0:0:0:0:
24,348,212259,2,0,P|8:304|4:244,1,100.62500191927,2|0,0:0|0:0,0:0:0:0:
277,214,212607,6,0,P|208:283|110:279,1,201.250003838539,10|0,0:0|0:0,0:0:0:0:
252,108,213131,1,8,0:0:0:0:
368,276,213305,1,8,1:0:0:0:
168,180,213480,1,0,0:0:0:0:
360,136,213654,1,10,0:0:0:0:
176,28,213828,6,0,P|264:68|364:36,1,201.250003838539,10|0,0:0|0:0,0:0:0:0:
148,132,214352,2,0,P|100:104|68:64,1,100.62500191927,10|0,0:0|0:0,0:0:0:0:
260,104,214701,1,8,1:0:0:0:
112,232,214875,1,8,0:0:0:0:
176,28,215049,2,0,L|296:12,1,100.62500191927,2|0,0:0|0:0,0:0:0:0:
424,136,215398,6,0,P|336:176|228:108,1,201.250003838539,10|8,0:0|0:0,0:0:0:0:
112,232,215921,1,8,0:0:0:0:
264,308,216096,2,0,P|312:304|372:280,1,100.62500191927,8|0,1:0|0:0,0:0:0:0:
481,148,216445,2,0,P|467:196|466:247,1,100.62500191927,10|0,0:0|0:0,0:0:0:0:
492,356,216794,5,2,0:0:0:0:
492,356,216968,1,8,0:0:0:0:
368,180,217142,2,0,B|356:132|356:132|356:64,1,100.62500191927,10|0,0:0|0:0,0:0:0:0:
240,264,217491,2,0,B|212:304|212:304|192:360,1,100.62500191927,8|0,1:0|0:0,0:0:0:0:
148,148,217840,2,0,B|100:128|100:128|56:80,1,100.62500191927,2|0,0:0|0:0,0:0:0:0:
268,144,218189,6,0,P|360:116|460:164,1,201.250003838539,10|0,0:0|0:0,0:0:0:0:
452,156,218712,1,8,0:0:0:0:
288,248,218887,1,8,1:0:0:0:
252,40,219061,1,0,0:0:0:0:
351,168,219235,1,8,0:0:0:0:
136,208,219410,2,0,B|104:152|104:152|132:16,1,201.250003838539,10|0,0:0|0:0,0:0:0:0:
212,128,219933,5,10,0:0:0:0:
172,308,220107,1,0,0:0:0:0:
32,192,220282,1,8,1:0:0:0:
252,228,220456,1,8,0:0:0:0:
116,68,220631,1,2,0:0:0:0:
168,288,220805,1,0,0:0:0:0:
312,112,220980,6,0,P|358:114|372:244,1,201.250003838539,12|8,0:0|0:0,0:0:0:0:
252,228,221503,1,8,0:0:0:0:
192,48,221677,2,0,B|124:16|44:40|44:40|52:64|76:76,1,201.250003838539,8|8,1:0|0:0,0:0:0:0:
264,124,222201,1,2,0:0:0:0:
356,56,222375,6,0,L|464:52,1,100.62500191927,2|8,0:0|0:0,0:0:0:0:
368,256,222724,1,10,0:0:0:0:
264,124,222898,1,0,0:0:0:0:
464,208,223073,2,0,P|472:256|460:316,1,100.62500191927,8|0,1:0|0:0,0:0:0:0:
264,368,223421,2,0,P|251:313|256:264,1,100.62500191927,2|0,0:0|0:0,0:0:0:0:
356,132,223770,6,0,P|256:168|168:132,1,201.250003838539,10|0,0:0|0:0,0:0:0:0:
109,44,224294,1,10,0:0:0:0:
17,250,224468,2,0,P|72:242|123:213,1,100.62500191927,8|0,1:0|0:0,0:0:0:0:
220,32,224817,1,10,0:0:0:0:
368,118,224991,6,0,B|304:114|304:114|240:138|240:138|168:134,1,201.250003838539,8|0,0:0|0:0,0:0:0:0:
320,216,225514,2,0,L|432:224,1,100.62500191927,10|0,0:0|0:0,0:0:0:0:
208,240,225863,1,8,1:0:0:0:
368,118,226038,1,8,0:0:0:0:
220,32,226212,2,0,L|324:16,1,100.62500191927,2|0,0:0|0:0,0:0:0:0:
136,104,226561,6,0,B|88:100|88:100|40:68,1,100.62500191927,10|0,0:0|0:0,0:0:0:0:
220,32,226910,1,10,0:0:0:0:
252,200,227084,1,8,0:0:0:0:
320,39,227259,2,0,L|212:31,1,100.62500191927,8|0,1:0|0:0,0:0:0:0:
392,120,227607,1,8,0:0:0:0:
248,240,227782,5,2,0:0:0:0:
284,140,227956,1,0,0:0:0:0:
324,324,228131,1,8,0:0:0:0:
144,256,228305,2,0,L|352:224,1,201.250003838539,10|8,0:0|1:0,0:0:0:0:
428,292,228828,1,0,0:0:0:0:
362,127,229003,2,0,P|347:175|342:225,1,100.62500191927,2|0,0:0|0:0,0:0:0:0:
472,92,229352,6,0,P|376:96|292:32,1,201.250003838539,10|0,0:0|0:0,0:0:0:0:
452,200,229875,1,10,0:0:0:0:
341,224,230049,2,0,P|304:252|268:304,1,100.62500191927,8|0,1:0|0:0,0:0:0:0:
108,180,230398,2,0,P|160:200|220:204,1,100.62500191927,10|8,0:0|0:0,0:0:0:0:
344,116,230747,5,2,0:0:0:0:
204,204,230921,1,0,0:0:0:0:
232,64,231096,1,8,0:0:0:0:
352,236,231270,1,2,0:0:0:0:
108,260,231445,1,8,1:0:0:0:
244,184,231619,1,8,0:0:0:0:
64,118,231794,5,8,1:0:0:0:
227,336,231968,1,8,1:0:0:0:
336,84,232142,1,2,0:3:0:0:
336,84,234933,6,0,P|416:120|420:240,1,192.500005874634,12|8,0:0|0:0,0:0:0:0:
256,152,235456,1,8,0:0:0:0:
152,128,235631,2,0,P|84:192|100:284,1,192.500005874634,8|8,1:0|0:0,0:0:0:0:
252,176,236154,1,2,0:0:0:0:
356,144,236328,6,0,P|388:168|416:220,1,96.250002937317,2|8,0:0|0:0,0:0:0:0:
164,104,236677,2,0,P|172:56|196:12,1,96.250002937317,8|0,0:0|0:0,0:0:0:0:
236,284,237026,2,0,B|192:304|140:296|140:296|92:288|48:308,1,192.500005874634,8|0,1:0|0:0,0:0:0:0:
172,196,237549,1,2,0:0:0:0:
300,368,237724,6,0,L|500:352,1,192.500005874634,10|0,0:0|0:0,0:0:0:0:
376,184,238247,1,8,0:0:0:0:
200,296,238421,2,0,L|4:276,1,192.500005874634,8|8,1:0|0:0,0:0:0:0:
140,96,238945,1,8,0:0:0:0:
348,220,239119,6,0,L|444:212,1,96.250002937317,2|0,0:0|0:0,0:0:0:0:
284,52,239468,2,0,B|268:96|268:96|268:160,1,96.250002937317,8|0,0:0|0:0,0:0:0:0:
376,320,239817,1,8,1:0:0:0:
372,116,239991,1,8,0:0:0:0:
196,276,240166,1,2,0:0:0:0:
348,220,240340,1,2,0:0:0:0:
144,180,240514,6,0,P|102:222|88:272,1,96.250002937317,10|0,0:0|0:0,0:0:0:0:
196,276,240863,1,8,0:0:0:0:
160,76,241038,1,8,0:0:0:0:
32,192,241212,2,0,L|256:168,1,192.500005874634,8|8,1:0|0:0,0:0:0:0:
332,304,241735,1,2,0:0:0:0:
208,368,241910,6,0,P|192:322|196:272,1,96.250002937317,2|8,0:0|0:0,0:0:0:0:
364,116,242259,2,0,P|373:178|364:220,1,96.250002937317,8|0,0:0|0:0,0:0:0:0:
264,52,242607,2,0,P|364:4|452:36,1,192.500005874634,8|0,1:0|0:0,0:0:0:0:
256,168,243131,1,2,0:0:0:0:
148,40,243305,6,0,P|110:28|52:24,1,96.250002937317,10|0,0:0|0:0,0:0:0:0:
352,112,243654,2,0,P|400:108|456:88,1,96.250002937317,0|8,0:0|0:0,0:0:0:0:
148,188,244003,2,0,B|76:154|2:176|2:176|19:191|44:193,1,192.500005874634,8|8,1:0|0:0,0:0:0:0:
256,168,244526,1,10,0:0:0:0:
128,56,244701,6,0,L|148:176,1,96.250002937317,2|0,0:0|0:0,0:0:0:0:
384,328,245049,2,0,L|364:208,1,96.250002937317,8|0,0:0|0:0,0:0:0:0:
236,88,245398,1,8,1:0:0:0:
276,296,245573,1,8,0:0:0:0:
344,124,245747,1,2,0:0:0:0:
168,260,245921,1,2,0:0:0:0:
368,233,246096,6,0,L|448:244,1,78.7499975967408,4|0,0:0|0:0,0:0:0:0:
344,124,246445,2,0,L|432:116,1,78.7499975967408,0|2,0:0|0:0,0:0:0:0:
260,196,246794,2,0,P|296:120|260:36,1,157.499995193482,8|0,0:1|0:0,0:0:0:0:
180,16,247317,1,0,0:0:0:0:
180,16,247491,2,0,L|100:8,1,78.7499975967408,2|0,0:0|0:0,0:0:0:0:
192,120,247840,2,0,L|104:128,1,78.7499975967408,0|2,0:0|0:0,0:0:0:0:
260,196,248189,2,0,P|332:204|400:148,1,157.499995193482,8|0,0:1|0:0,0:0:0:0:
308,104,248712,1,0,0:0:0:0:
260,196,248887,6,0,P|256:240|264:288,1,78.7499975967408,2|0,0:0|0:0,0:0:0:0:
384,308,249235,2,0,P|376:268|356:232,1,78.7499975967408,0|2,0:0|0:0,0:0:0:0:
164,236,249584,2,0,P|136:152|164:76,1,157.499995193482,8|0,0:1|0:0,0:0:0:0:
252,52,250107,1,0,0:0:0:0:
336,112,250282,2,0,L|348:192,1,78.7499975967408,2|0,0:0|0:0,0:0:0:0:
244,176,250631,2,0,L|260:272,1,78.7499975967408,0|2,0:0|0:0,0:0:0:0:
192,332,250980,2,0,P|264:296|344:324,1,157.499995193482,8|0,0:1|0:0,0:0:0:0:
420,260,251503,1,0,0:0:0:0:
364,176,251677,6,0,P|328:164|280:160,1,70,2|0,0:0|0:0,0:0:0:0:
441,109,252026,2,0,P|460:149|464:184,1,70,0|2,0:0|0:0,0:0:0:0:
308,260,252375,2,0,P|268:208|280:120,1,140,2|0,0:0|0:0,0:0:0:0:
176,96,252898,1,0,0:0:0:0:
176,96,253073,2,0,P|160:176|172:248,1,140,2|0,0:0|0:0,0:0:0:0:
224,320,253596,1,2,0:0:0:0:
308,260,253770,2,0,B|344:248|384:260|384:260|424:272|456:260,1,140,2|0,0:0|0:0,0:0:0:0:
320,160,254294,1,0,0:0:0:0:
208,236,254468,6,0,P|144:196|156:120,1,140,2|0,0:0|0:0,0:0:0:0:
232,80,254991,1,2,0:0:0:0:
300,192,255166,2,0,P|364:152|352:76,1,140,2|0,0:0|0:0,0:0:0:0:
268,48,255689,1,0,0:0:0:0:
196,180,255863,2,0,B|200:216|200:216|216:256,1,70,2|0,0:0|0:0,0:0:0:0:
348,284,256212,2,0,B|344:248|344:248|328:208,1,70,0|2,0:0|0:0,0:0:0:0:
196,180,256561,5,2,0:0:0:0:
244,276,256735,1,0,0:0:0:0:
88,172,256910,1,2,0:0:0:0:
256,88,257084,1,2,0:0:0:0:
